  0
SECTION
  2
HEADER
  9
$ACADVER
  1
AC1015
  9
$ACADMAINTVER
 70
     6
  9
$DWGCODEPAGE
  3
ANSI_1251
  9
$INSBASE
 10
0.0
 20
0.0
 30
0.0
  9
$EXTMIN
 10
0.0
 20
0.0
 30
0.0
  9
$EXTMAX
 10
420.0
 20
297.0
 30
0.0
  9
$LIMMIN
 10
0.0
 20
0.0
  9
$LIMMAX
 10
420.0
 20
297.0
  9
$ORTHOMODE
 70
     0
  9
$REGENMODE
 70
     1
  9
$FILLMODE
 70
     1
  9
$QTEXTMODE
 70
     0
  9
$MIRRTEXT
 70
     1
  9
$LTSCALE
 40
1.0
  9
$ATTMODE
 70
     1
  9
$TEXTSIZE
 40
5.0
  9
$TRACEWID
 40
1.0
  9
$TEXTSTYLE
  7
Standard
  9
$CLAYER
  8
0
  9
$CELTYPE
  6
ByLayer
  9
$CECOLOR
 62
   256
  9
$CELTSCALE
 40
1.0
  9
$DISPSILH
 70
     0
  9
$DIMSCALE
 40
1.0
  9
$DIMASZ
 40
5.0
  9
$DIMEXO
 40
0.0
  9
$DIMDLI
 40
3.75
  9
$DIMRND
 40
0.0
  9
$DIMDLE
 40
0.0
  9
$DIMEXE
 40
2.0
  9
$DIMTP
 40
0.0
  9
$DIMTM
 40
0.0
  9
$DIMTXT
 40
4.0
  9
$DIMCEN
 40
2.5
  9
$DIMTSZ
 40
0.0
  9
$DIMTOL
 70
     0
  9
$DIMLIM
 70
     0
  9
$DIMTIH
 70
     1
  9
$DIMTOH
 70
     1
  9
$DIMSE1
 70
     0
  9
$DIMSE2
 70
     0
  9
$DIMTAD
 70
     1
  9
$DIMZIN
 70
     0
  9
$DIMBLK
  1

  9
$DIMASO
 70
     1
  9
$DIMSHO
 70
     1
  9
$DIMPOST
  1

  9
$DIMAPOST
  1

  9
$DIMALT
 70
     0
  9
$DIMALTD
 70
     3
  9
$DIMALTF
 40
0.0393700787
  9
$DIMLFAC
 40
1.0
  9
$DIMTOFL
 70
     1
  9
$DIMTVP
 40
0.0
  9
$DIMTIX
 70
     0
  9
$DIMSOXD
 70
     0
  9
$DIMSAH
 70
     0
  9
$DIMBLK1
  1

  9
$DIMBLK2
  1

  9
$DIMSTYLE
  2
ISO-25
  9
$DIMCLRD
 70
     0
  9
$DIMCLRE
 70
     0
  9
$DIMCLRT
 70
     0
  9
$DIMTFAC
 40
1.0
  9
$DIMGAP
 40
2.0
  9
$DIMJUST
 70
     0
  9
$DIMSD1
 70
     0
  9
$DIMSD2
 70
     0
  9
$DIMTOLJ
 70
     0
  9
$DIMTZIN
 70
     0
  9
$DIMALTZ
 70
     0
  9
$DIMALTTZ
 70
     0
  9
$DIMUPT
 70
     0
  9
$DIMDEC
 70
     3
  9
$DIMTDEC
 70
     3
  9
$DIMALTU
 70
     2
  9
$DIMALTTD
 70
     3
  9
$DIMTXSTY
  7
Standard
  9
$DIMAUNIT
 70
     0
  9
$DIMADEC
 70
     2
  9
$DIMALTRND
 40
0.0
  9
$DIMAZIN
 70
     0
  9
$DIMDSEP
 70
    44
  9
$DIMATFIT
 70
     3
  9
$DIMFRAC
 70
     0
  9
$DIMLDRBLK
  1

  9
$DIMLUNIT
 70
     2
  9
$DIMLWD
 70
    -2
  9
$DIMLWE
 70
    -2
  9
$DIMTMOVE
 70
     0
  9
$LUNITS
 70
     2
  9
$LUPREC
 70
     2
  9
$SKETCHINC
 40
1.0
  9
$FILLETRAD
 40
0.0
  9
$AUNITS
 70
     0
  9
$AUPREC
 70
     2
  9
$MENU
  1
.
  9
$ELEVATION
 40
0.0
  9
$PELEVATION
 40
0.0
  9
$THICKNESS
 40
0.0
  9
$LIMCHECK
 70
     0
  9
$CHAMFERA
 40
0.0
  9
$CHAMFERB
 40
0.0
  9
$CHAMFERC
 40
0.0
  9
$CHAMFERD
 40
0.0
  9
$SKPOLY
 70
     0
  9
$TDCREATE
 40
2460398.516502234
  9
$TDUCREATE
 40
2460398.391502234
  9
$TDUPDATE
 40
2460398.516503785
  9
$TDUUPDATE
 40
2460398.391503785
  9
$TDINDWG
 40
0.0000000116
  9
$TDUSRTIMER
 40
0.0000000116
  9
$USRTIMER
 70
     1
  9
$ANGBASE
 50
0.0
  9
$ANGDIR
 70
     0
  9
$PDMODE
 70
     0
  9
$PDSIZE
 40
-1.0
  9
$PLINEWID
 40
0.0
  9
$SPLFRAME
 70
     0
  9
$SPLINETYPE
 70
     6
  9
$SPLINESEGS
 70
     8
  9
$HANDSEED
  5
465
  9
$SURFTAB1
 70
     6
  9
$SURFTAB2
 70
     6
  9
$SURFTYPE
 70
     6
  9
$SURFU
 70
     6
  9
$SURFV
 70
     6
  9
$UCSBASE
  2

  9
$UCSNAME
  2

  9
$UCSORG
 10
0.0
 20
0.0
 30
0.0
  9
$UCSXDIR
 10
1.0
 20
0.0
 30
0.0
  9
$UCSYDIR
 10
0.0
 20
1.0
 30
0.0
  9
$UCSORTHOREF
  2

  9
$UCSORTHOVIEW
 70
     0
  9
$UCSORGTOP
 10
0.0
 20
0.0
 30
0.0
  9
$UCSORGBOTTOM
 10
0.0
 20
0.0
 30
0.0
  9
$UCSORGLEFT
 10
0.0
 20
0.0
 30
0.0
  9
$UCSORGRIGHT
 10
0.0
 20
0.0
 30
0.0
  9
$UCSORGFRONT
 10
0.0
 20
0.0
 30
0.0
  9
$UCSORGBACK
 10
0.0
 20
0.0
 30
0.0
  9
$PUCSBASE
  2

  9
$PUCSNAME
  2

  9
$PUCSORG
 10
0.0
 20
0.0
 30
0.0
  9
$PUCSXDIR
 10
1.0
 20
0.0
 30
0.0
  9
$PUCSYDIR
 10
0.0
 20
1.0
 30
0.0
  9
$PUCSORTHOREF
  2

  9
$PUCSORTHOVIEW
 70
     0
  9
$PUCSORGTOP
 10
0.0
 20
0.0
 30
0.0
  9
$PUCSORGBOTTOM
 10
0.0
 20
0.0
 30
0.0
  9
$PUCSORGLEFT
 10
0.0
 20
0.0
 30
0.0
  9
$PUCSORGRIGHT
 10
0.0
 20
0.0
 30
0.0
  9
$PUCSORGFRONT
 10
0.0
 20
0.0
 30
0.0
  9
$PUCSORGBACK
 10
0.0
 20
0.0
 30
0.0
  9
$USERI1
 70
     0
  9
$USERI2
 70
     0
  9
$USERI3
 70
     0
  9
$USERI4
 70
     0
  9
$USERI5
 70
     0
  9
$USERR1
 40
0.0
  9
$USERR2
 40
0.0
  9
$USERR3
 40
0.0
  9
$USERR4
 40
0.0
  9
$USERR5
 40
0.0
  9
$WORLDVIEW
 70
     1
  9
$SHADEDGE
 70
     3
  9
$SHADEDIF
 70
    70
  9
$TILEMODE
 70
     1
  9
$MAXACTVP
 70
    64
  9
$PINSBASE
 10
0.0
 20
0.0
 30
0.0
  9
$PLIMCHECK
 70
     0
  9
$PEXTMIN
 10
1.0000000000E+20
 20
1.0000000000E+20
 30
1.0000000000E+20
  9
$PEXTMAX
 10
-1.0000000000E+20
 20
-1.0000000000E+20
 30
-1.0000000000E+20
  9
$PLIMMIN
 10
0.0
 20
0.0
  9
$PLIMMAX
 10
420.0
 20
297.0
  9
$UNITMODE
 70
     0
  9
$VISRETAIN
 70
     1
  9
$PLINEGEN
 70
     0
  9
$PSLTSCALE
 70
     1
  9
$TREEDEPTH
 70
  3020
  9
$CMLSTYLE
  2
Standard
  9
$CMLJUST
 70
     0
  9
$CMLSCALE
 40
20.0
  9
$PROXYGRAPHICS
 70
     1
  9
$MEASUREMENT
 70
     1
  9
$CELWEIGHT
370
    -1
  9
$ENDCAPS
280
     0
  9
$JOINSTYLE
280
     0
  9
$LWDISPLAY
290
     1
  9
$INSUNITS
 70
     4
  9
$HYPERLINKBASE
  1

  9
$STYLESHEET
  1

  9
$XEDIT
290
     1
  9
$CEPSNTYPE
380
     0
  9
$PSTYLEMODE
290
     1
  9
$FINGERPRINTGUID
  2
{f0611fe7-4b62-43db-a92f-ed58921f6b19}
  9
$VERSIONGUID
  2
{FAEB1C32-E019-11D5-929B-00C0DF256EC4}
  9
$EXTNAMES
290
     1
  9
$PSVPSCALE
 40
0.0
  9
$OLESTARTUP
290
     0
  0
ENDSEC
  0
SECTION
  2
CLASSES
  0
CLASS
  1
ACDBDICTIONARYWDFLT
  2
AcDbDictionaryWithDefault
  3
ObjectDBX Classes
 90
        0
280
     0
281
     0
  0
CLASS
  1
VISUALSTYLE
  2
AcDbVisualStyle
  3
ObjectDBX Classes
 90
     4095
280
     0
281
     0
  0
CLASS
  1
MATERIAL
  2
AcDbMaterial
  3
ObjectDBX Classes
 90
     1153
280
     0
281
     0
  0
CLASS
  1
SCALE
  2
AcDbScale
  3
ObjectDBX Classes
 90
     1153
280
     0
281
     0
  0
CLASS
  1
TABLESTYLE
  2
AcDbTableStyle
  3
ObjectDBX Classes
 90
     4095
280
     0
281
     0
  0
CLASS
  1
MLEADERSTYLE
  2
AcDbMLeaderStyle
  3
ACDB_MLEADERSTYLE_CLASS
 90
     4095
280
     0
281
     0
  0
CLASS
  1
SUN
  2
AcDbSun
  3
SCENEOE
 90
     1153
280
     0
281
     0
  0
CLASS
  1
ACDBPLACEHOLDER
  2
AcDbPlaceHolder
  3
ObjectDBX Classes
 90
        0
280
     0
281
     0
  0
CLASS
  1
LAYOUT
  2
AcDbLayout
  3
ObjectDBX Classes
 90
        0
280
     0
281
     0
  0
ENDSEC
  0
SECTION
  2
TABLES
  0
TABLE
  2
VPORT
  5
8
330
0
100
AcDbSymbolTable
 70
     1
  0
VPORT
  5
29
330
8
100
AcDbSymbolTableRecord
100
AcDbViewportTableRecord
  2
*Active
 70
     0
 10
0.0
 20
0.0
 11
1.0
 21
1.0
 12
210.0
 22
148.5
 13
0.0
 23
0.0
 14
10.0
 24
10.0
 15
10.0
 25
10.0
 16
0.0
 26
0.0
 36
1.0
 17
0.0
 27
0.0
 37
0.0
 40
297.0
 41
1.4141414141
 42
50.0
 43
0.0
 44
0.0
 50
0.0
 51
0.0
 71
     0
 72
  2000
 73
     1
 74
     3
 75
     0
 76
     0
 77
     0
 78
     0
281
     0
 65
     1
110
0.0
120
0.0
130
0.0
111
1.0
121
0.0
131
0.0
112
0.0
122
1.0
132
0.0
 79
     0
146
0.0
  0
ENDTAB
  0
TABLE
  2
LTYPE
  5
5
330
0
100
AcDbSymbolTable
 70
     6
  0
LTYPE
  5
14
330
5
100
AcDbSymbolTableRecord
100
AcDbLinetypeTableRecord
  2
ByBlock
 70
     0
  3

 72
    65
 73
     0
 40
0.0
  0
LTYPE
  5
15
330
5
100
AcDbSymbolTableRecord
100
AcDbLinetypeTableRecord
  2
ByLayer
 70
     0
  3

 72
    65
 73
     0
 40
0.0
  0
LTYPE
  5
16
330
5
100
AcDbSymbolTableRecord
100
AcDbLinetypeTableRecord
  2
Continuous
 70
     0
  3
Solid line
 72
    65
 73
     0
 40
0.0
  0
LTYPE
  5
5E
330
5
100
AcDbSymbolTableRecord
100
AcDbLinetypeTableRecord
  2
HIDDEN
 70
     0
  3
Hidden __ __ __ __ __ __ __ __ __ __ __ __ __ __
 72
    65
 73
     2
 40
1.905
 49
1.27
 74
     0
 49
-0.635
 74
     0
  0
LTYPE
  5
5F
330
5
100
AcDbSymbolTableRecord
100
AcDbLinetypeTableRecord
  2
PHANTOM
 70
     0
  3
Phantom ______  __  __  ______  __  __  ______
 72
    65
 73
     6
 40
12.7
 49
6.35
 74
     0
 49
-1.27
 74
     0
 49
1.27
 74
     0
 49
-1.27
 74
     0
 49
1.27
 74
     0
 49
-1.27
 74
     0
  0
LTYPE
  5
60
330
5
100
AcDbSymbolTableRecord
100
AcDbLinetypeTableRecord
  2
CENTER
 70
     0
  3
Center ____ _ ____ _ ____ _ ____ _ ____ _ ____
 72
    65
 73
     4
 40
10.16
 49
6.35
 74
     0
 49
-1.27
 74
     0
 49
1.27
 74
     0
 49
-1.27
 74
     0
  0
LTYPE
  5
61
330
5
100
AcDbSymbolTableRecord
100
AcDbLinetypeTableRecord
  2
CENTERX2
 70
     0
  3
Center (2x) ________  __  ________  __  _____
 72
    65
 73
     4
 40
20.32
 49
12.7
 74
     0
 49
-2.54
 74
     0
 49
2.54
 74
     0
 49
-2.54
 74
     0
  0
LTYPE
  5
62
330
5
100
AcDbSymbolTableRecord
100
AcDbLinetypeTableRecord
  2
DOT2
 70
     0
  3
Dot (.5x) ........................................
 72
    65
 73
     2
 40
0.635
 49
0.0
 74
     0
 49
-0.635
 74
     0
  0
ENDTAB
  0
TABLE
  2
LAYER
  5
2
330
0
100
AcDbSymbolTable
 70
     1
  0
LAYER
  5
10
330
2
100
AcDbSymbolTableRecord
100
AcDbLayerTableRecord
  2
0
 70
     0
 62
     7
  6
Continuous
370
    -3
390
F
  0
ENDTAB
  0
TABLE
  2
STYLE
  5
3
330
0
100
AcDbSymbolTable
 70
     2
  0
STYLE
  5
11
330
3
100
AcDbSymbolTableRecord
100
AcDbTextStyleTableRecord
  2
Standard
 70
     0
 40
0.0
 41
1.0
 50
0.0
 71
     0
 42
5.0
  3
txt
  4

  0
STYLE
  5
173
330
3
100
AcDbSymbolTableRecord
100
AcDbTextStyleTableRecord
  2
SLDTEXTSTYLE0
 70
     0
 40
0.0
 41
0.7
 50
0.0
 71
     0
 42
5.0
  3
TXT
  4

  0
ENDTAB
  0
TABLE
  2
VIEW
  5
6
330
0
100
AcDbSymbolTable
 70
     0
  0
ENDTAB
  0
TABLE
  2
UCS
  5
7
330
0
100
AcDbSymbolTable
 70
     0
  0
ENDTAB
  0
TABLE
  2
APPID
  5
9
330
0
100
AcDbSymbolTable
 70
     1
  0
APPID
  5
12
330
9
100
AcDbSymbolTableRecord
100
AcDbRegAppTableRecord
  2
ACAD
 70
     0
  0
ENDTAB
  0
TABLE
  2
DIMSTYLE
  5
A
330
0
100
AcDbSymbolTable
 70
     3
100
AcDbDimStyleTable
  0
DIMSTYLE
105
27
330
A
100
AcDbSymbolTableRecord
100
AcDbDimStyleTableRecord
  2
ISO-25
 70
     0
 41
2.5
 42
0.625
 43
3.75
 44
1.25
 73
     0
 74
     0
 77
     1
 78
     8
140
2.5
141
2.5
143
0.0393700787
147
0.625
171
     3
172
     1
178
     0
271
     2
272
     2
274
     3
278
    44
283
     0
284
     8
340
11
  0
DIMSTYLE
105
174
102
{ACAD_REACTORS
330
172
330
17E
330
2C9
330
334
102
}
330
A
100
AcDbSymbolTableRecord
100
AcDbDimStyleTableRecord
  2
SLDDIMSTYLE0
 70
     0
 41
5.0
 44
0.0
 45
0.000000001
 73
     0
 74
     0
 77
     2
 78
    12
 79
     3
140
4.0
147
1.0
173
     1
178
     0
271
     3
272
     3
276
     2
284
    12
340
173
  0
DIMSTYLE
105
2BE
102
{ACAD_REACTORS
330
2BD
102
}
330
A
100
AcDbSymbolTableRecord
100
AcDbDimStyleTableRecord
  2
SLDDIMSTYLE1
 70
     0
 41
5.0
 44
0.0
 45
0.000000001
 73
     0
 74
     0
 77
     2
 78
    12
 79
     3
140
4.0
147
1.0
172
     1
173
     1
178
     0
271
     3
272
     3
276
     2
284
    12
289
     0
340
173
  0
ENDTAB
  0
TABLE
  2
BLOCK_RECORD
  5
1
330
0
100
AcDbSymbolTable
 70
     6
  0
BLOCK_RECORD
  5
1F
330
1
100
AcDbSymbolTableRecord
100
AcDbBlockTableRecord
  2
*Model_Space
340
22
  0
BLOCK_RECORD
  5
1B
330
1
100
AcDbSymbolTableRecord
100
AcDbBlockTableRecord
  2
*Paper_Space
340
1E
  0
BLOCK_RECORD
  5
23
330
1
100
AcDbSymbolTableRecord
100
AcDbBlockTableRecord
  2
*Paper_Space0
340
26
  0
BLOCK_RECORD
  5
175
330
1
100
AcDbSymbolTableRecord
100
AcDbBlockTableRecord
  2
_D
340
0
  0
BLOCK_RECORD
  5
17F
330
1
100
AcDbSymbolTableRecord
100
AcDbBlockTableRecord
  2
_D_1
340
0
  0
BLOCK_RECORD
  5
2BF
330
1
100
AcDbSymbolTableRecord
100
AcDbBlockTableRecord
  2
_D_2
340
0
  0
BLOCK_RECORD
  5
2CA
330
1
100
AcDbSymbolTableRecord
100
AcDbBlockTableRecord
  2
_D_3
340
0
  0
BLOCK_RECORD
  5
335
330
1
100
AcDbSymbolTableRecord
100
AcDbBlockTableRecord
  2
_D_4
340
0
  0
ENDTAB
  0
ENDSEC
  0
SECTION
  2
BLOCKS
  0
BLOCK
  5
20
330
1F
100
AcDbEntity
  8
0
100
AcDbBlockBegin
  2
*Model_Space
 70
     0
 10
0.0
 20
0.0
 30
0.0
  3
*Model_Space
  1

  0
ENDBLK
  5
21
330
1F
100
AcDbEntity
  8
0
100
AcDbBlockEnd
  0
BLOCK
  5
1C
330
1B
100
AcDbEntity
 67
     1
  8
0
100
AcDbBlockBegin
  2
*Paper_Space
 70
     0
 10
0.0
 20
0.0
 30
0.0
  3
*Paper_Space
  1

  0
ENDBLK
  5
1D
330
1B
100
AcDbEntity
 67
     1
  8
0
100
AcDbBlockEnd
  0
BLOCK
  5
24
330
23
100
AcDbEntity
  8
0
100
AcDbBlockBegin
  2
*Paper_Space0
 70
     0
 10
0.0
 20
0.0
 30
0.0
  3
*Paper_Space0
  1

  0
ENDBLK
  5
25
330
23
100
AcDbEntity
  8
0
100
AcDbBlockEnd
  0
BLOCK
  5
176
330
175
100
AcDbEntity
  8
0
100
AcDbBlockBegin
  2
_D
 70
     0
 10
0.0
 20
0.0
 30
0.0
  3
_D
  1

  0
SOLID
  5
178
330
175
100
AcDbEntity
  8
0
  6
Continuous
 62
     7
370
    18
100
AcDbTrace
 10
67.6510649888
 20
23.1415725736
 30
0.0
 11
68.6510649888
 21
28.1415725736
 31
0.0
 12
66.6510649888
 22
28.1415725736
 32
0.0
 13
66.6510649888
 23
28.1415725736
 33
0.0
  0
SOLID
  5
179
330
175
100
AcDbEntity
  8
0
  6
Continuous
 62
     7
370
    18
100
AcDbTrace
 10
67.6510649888
 20
162.1415725736
 30
0.0
 11
66.6510649888
 21
157.1415725736
 31
0.0
 12
68.6510649888
 22
157.1415725736
 32
0.0
 13
68.6510649888
 23
157.1415725736
 33
0.0
  0
LINE
  5
17A
330
175
100
AcDbEntity
  8
0
  6
Continuous
 62
     7
370
     0
100
AcDbLine
 10
83.8806682771
 20
23.1415725736
 30
0.0
 11
65.6510649888
 21
23.1415725736
 31
0.0
  0
LINE
  5
17B
330
175
100
AcDbEntity
  8
0
  6
Continuous
 62
     7
370
     0
100
AcDbLine
 10
83.8806682771
 20
162.1415725736
 30
0.0
 11
65.6510649888
 21
162.1415725736
 31
0.0
  0
LINE
  5
17C
330
175
100
AcDbEntity
  8
0
  6
Continuous
 62
     7
370
     0
100
AcDbLine
 10
67.6510649888
 20
23.1415725736
 30
0.0
 11
67.6510649888
 21
162.1415725736
 31
0.0
  0
MTEXT
  5
17D
330
175
100
AcDbEntity
  8
0
  6
Continuous
 62
     7
370
    18
100
AcDbMText
 10
62.4947937968
 20
83.2991216524
 30
0.0
 40
4.0
 41
0.0
 71
     1
 72
     1
  1
139
  7
SLDTEXTSTYLE0
 11
6.123233995736766E-17
 21
1.0
 31
0.0
 73
     1
 44
1.0
  0
ENDBLK
  5
177
330
175
100
AcDbEntity
  8
0
100
AcDbBlockEnd
  0
BLOCK
  5
180
330
17F
100
AcDbEntity
  8
0
100
AcDbBlockBegin
  2
_D_1
 70
     0
 10
0.0
 20
0.0
 30
0.0
  3
_D_1
  1

  0
SOLID
  5
182
330
17F
100
AcDbEntity
  8
0
  6
Continuous
 62
     7
370
    18
100
AcDbTrace
 10
83.3806873156
 20
10.8557827511
 30
0.0
 11
88.3806873156
 21
9.8557827511
 31
0.0
 12
88.3806873156
 22
11.8557827511
 32
0.0
 13
88.3806873156
 23
11.8557827511
 33
0.0
  0
SOLID
  5
183
330
17F
100
AcDbEntity
  8
0
  6
Continuous
 62
     7
370
    18
100
AcDbTrace
 10
134.3806873156
 20
10.8557827511
 30
0.0
 11
129.3806873156
 21
11.8557827511
 31
0.0
 12
129.3806873156
 22
9.8557827511
 32
0.0
 13
129.3806873156
 23
9.8557827511
 33
0.0
  0
LINE
  5
184
330
17F
100
AcDbEntity
  8
0
  6
Continuous
 62
     7
370
     0
100
AcDbLine
 10
83.3806873156
 20
23.6415535351
 30
0.0
 11
83.3806873156
 21
8.8557827511
 31
0.0
  0
LINE
  5
185
330
17F
100
AcDbEntity
  8
0
  6
Continuous
 62
     7
370
     0
100
AcDbLine
 10
134.3806873156
 20
23.6414964212
 30
0.0
 11
134.3806873156
 21
8.8557827511
 31
0.0
  0
LINE
  5
186
330
17F
100
AcDbEntity
  8
0
  6
Continuous
 62
     7
370
     0
100
AcDbLine
 10
83.3806873156
 20
10.8557827511
 30
0.0
 11
134.3806873156
 21
10.8557827511
 31
0.0
  0
MTEXT
  5
187
330
17F
100
AcDbEntity
  8
0
  6
Continuous
 62
     7
370
    18
100
AcDbMText
 10
108.9860622598
 20
16.012053943
 30
0.0
 40
4.0
 41
0.0
 71
     1
 72
     1
  1
51
  7
SLDTEXTSTYLE0
 73
     1
 44
1.0
  0
ENDBLK
  5
181
330
17F
100
AcDbEntity
  8
0
100
AcDbBlockEnd
  0
BLOCK
  5
2C0
330
2BF
100
AcDbEntity
  8
0
100
AcDbBlockBegin
  2
_D_2
 70
     0
 10
0.0
 20
0.0
 30
0.0
  3
_D_2
  1

  0
SOLID
  5
2C2
330
2BF
100
AcDbEntity
  8
0
  6
Continuous
 62
     7
370
    18
100
AcDbTrace
 10
189.8371875
 20
59.1952577718
 30
0.0
 11
194.8371875
 21
58.1952577718
 31
0.0
 12
194.8371875
 22
60.1952577718
 32
0.0
 13
194.8371875
 23
60.1952577718
 33
0.0
  0
SOLID
  5
2C3
330
2BF
100
AcDbEntity
  8
0
  6
Continuous
 62
     7
370
    18
100
AcDbTrace
 10
181.8371875
 20
59.1952577718
 30
0.0
 11
176.8371875
 21
60.1952577718
 31
0.0
 12
176.8371875
 22
58.1952577718
 32
0.0
 13
176.8371875
 23
58.1952577718
 33
0.0
  0
LINE
  5
2C4
330
2BF
100
AcDbEntity
  8
0
  6
Continuous
 62
     7
370
     0
100
AcDbLine
 10
189.8371875
 20
75.1415725736
 30
0.0
 11
189.8371875
 21
57.1952577718
 31
0.0
  0
LINE
  5
2C5
330
2BF
100
AcDbEntity
  8
0
  6
Continuous
 62
     7
370
     0
100
AcDbLine
 10
189.8371875
 20
59.1952577718
 30
0.0
 11
196.8371875
 21
59.1952577718
 31
0.0
  0
LINE
  5
2C6
330
2BF
100
AcDbEntity
  8
0
  6
Continuous
 62
     7
370
     0
100
AcDbLine
 10
189.8371875
 20
59.1952577718
 30
0.0
 11
181.8371875
 21
59.1952577718
 31
0.0
  0
LINE
  5
2C7
330
2BF
100
AcDbEntity
  8
0
  6
Continuous
 62
     7
370
     0
100
AcDbLine
 10
181.8371875
 20
59.1952577718
 30
0.0
 11
174.8371875
 21
59.1952577718
 31
0.0
  0
MTEXT
  5
2C8
330
2BF
100
AcDbEntity
  8
0
  6
Continuous
 62
     7
370
    18
100
AcDbMText
 10
184.1140145126
 20
64.3515289637
 30
0.0
 40
4.0
 41
0.0
 71
     1
 72
     1
  1
8
  7
SLDTEXTSTYLE0
 73
     1
 44
1.0
  0
ENDBLK
  5
2C1
330
2BF
100
AcDbEntity
  8
0
100
AcDbBlockEnd
  0
BLOCK
  5
2CB
330
2CA
100
AcDbEntity
  8
0
100
AcDbBlockBegin
  2
_D_3
 70
     0
 10
0.0
 20
0.0
 30
0.0
  3
_D_3
  1

  0
SOLID
  5
2CD
330
2CA
100
AcDbEntity
  8
0
  6
Continuous
 62
     7
370
    18
100
AcDbTrace
 10
189.8371875
 20
59.1952577718
 30
0.0
 11
194.8371875
 21
58.1952577718
 31
0.0
 12
194.8371875
 22
60.1952577718
 32
0.0
 13
194.8371875
 23
60.1952577718
 33
0.0
  0
SOLID
  5
2CE
330
2CA
100
AcDbEntity
  8
0
  6
Continuous
 62
     7
370
    18
100
AcDbTrace
 10
236.3371875
 20
59.1952577718
 30
0.0
 11
231.3371875
 21
60.1952577718
 31
0.0
 12
231.3371875
 22
58.1952577718
 32
0.0
 13
231.3371875
 23
58.1952577718
 33
0.0
  0
LINE
  5
2CF
330
2CA
100
AcDbEntity
  8
0
  6
Continuous
 62
     7
370
     0
100
AcDbLine
 10
189.8371875
 20
75.1415725736
 30
0.0
 11
189.8371875
 21
57.1952577718
 31
0.0
  0
LINE
  5
2D0
330
2CA
100
AcDbEntity
  8
0
  6
Continuous
 62
     7
370
     0
100
AcDbLine
 10
189.8371875
 20
59.1952577718
 30
0.0
 11
236.3371875
 21
59.1952577718
 31
0.0
  0
MTEXT
  5
2D1
330
2CA
100
AcDbEntity
  8
0
  6
Continuous
 62
     7
370
    18
100
AcDbMText
 10
208.4314670957
 20
64.3515289637
 30
0.0
 40
4.0
 41
0.0
 71
     1
 72
     1
  1
46,5
  7
SLDTEXTSTYLE0
 73
     1
 44
1.0
  0
ENDBLK
  5
2CC
330
2CA
100
AcDbEntity
  8
0
100
AcDbBlockEnd
  0
BLOCK
  5
336
330
335
100
AcDbEntity
  8
0
100
AcDbBlockBegin
  2
_D_4
 70
     0
 10
0.0
 20
0.0
 30
0.0
  3
_D_4
  1

  0
SOLID
  5
338
330
335
100
AcDbEntity
  8
0
  6
Continuous
 62
     7
370
    18
100
AcDbTrace
 10
67.9809605981
 20
179.227475
 30
0.0
 11
68.9809605981
 21
184.227475
 31
0.0
 12
66.9809605981
 22
184.227475
 32
0.0
 13
66.9809605981
 23
184.227475
 33
0.0
  0
SOLID
  5
339
330
335
100
AcDbEntity
  8
0
  6
Continuous
 62
     7
370
    18
100
AcDbTrace
 10
67.9809605981
 20
245.227475
 30
0.0
 11
66.9809605981
 21
240.227475
 31
0.0
 12
68.9809605981
 22
240.227475
 32
0.0
 13
68.9809605981
 23
240.227475
 33
0.0
  0
LINE
  5
33A
330
335
100
AcDbEntity
  8
0
  6
Continuous
 62
     7
370
     0
100
AcDbLine
 10
88.3806873156
 20
179.227475
 30
0.0
 11
65.9809605981
 21
179.227475
 31
0.0
  0
LINE
  5
33B
330
335
100
AcDbEntity
  8
0
  6
Continuous
 62
     7
370
     0
100
AcDbLine
 10
84.7098790637
 20
245.227475
 30
0.0
 11
65.9809605981
 21
245.227475
 31
0.0
  0
LINE
  5
33C
330
335
100
AcDbEntity
  8
0
  6
Continuous
 62
     7
370
     0
100
AcDbLine
 10
67.9809605981
 20
179.227475
 30
0.0
 11
67.9809605981
 21
245.227475
 31
0.0
  0
MTEXT
  5
33D
330
335
100
AcDbEntity
  8
0
  6
Continuous
 62
     7
370
    18
100
AcDbMText
 10
62.8246894061
 20
207.9554921518
 30
0.0
 40
4.0
 41
0.0
 71
     1
 72
     1
  1
66
  7
SLDTEXTSTYLE0
 11
6.123233995736766E-17
 21
1.0
 31
0.0
 73
     1
 44
1.0
  0
ENDBLK
  5
337
330
335
100
AcDbEntity
  8
0
100
AcDbBlockEnd
  0
ENDSEC
  0
SECTION
  2
ENTITIES
  0
LINE
  5
63
330
1F
100
AcDbEntity
  8
0
  6
Continuous
 62
     7
370
    25
100
AcDbLine
 10
92.3529039822
 20
145.5011559069
 30
0.0
 11
90.5738539822
 21
145.5011559069
 31
0.0
  0
LINE
  5
64
330
1F
100
AcDbEntity
  8
0
  6
Continuous
 62
     7
370
    25
100
AcDbLine
 10
92.3529039822
 20
144.1326559069
 30
0.0
 11
92.3529039822
 21
145.5011559069
 31
0.0
  0
LINE
  5
65
330
1F
100
AcDbEntity
  8
0
  6
Continuous
 62
     7
370
    25
100
AcDbLine
 10
89.2053539822
 20
144.1326559069
 30
0.0
 11
92.3529039822
 21
144.1326559069
 31
0.0
  0
LINE
  5
66
330
1F
100
AcDbEntity
  8
0
  6
Continuous
 62
     7
370
    25
100
AcDbLine
 10
89.2053539822
 20
147.3258225736
 30
0.0
 11
89.2053539822
 21
144.1326559069
 31
0.0
  0
LINE
  5
67
330
1F
100
AcDbEntity
  8
0
  6
Continuous
 62
     7
370
    25
100
AcDbLine
 10
92.3529039822
 20
147.3258225736
 30
0.0
 11
89.2053539822
 21
147.3258225736
 31
0.0
  0
LINE
  5
68
330
1F
100
AcDbEntity
  8
0
  6
Continuous
 62
     7
370
    25
100
AcDbLine
 10
92.3529039822
 20
145.9573225736
 30
0.0
 11
92.3529039822
 21
147.3258225736
 31
0.0
  0
LINE
  5
69
330
1F
100
AcDbEntity
  8
0
  6
Continuous
 62
     7
370
    25
100
AcDbLine
 10
90.5738539822
 20
145.9573225736
 30
0.0
 11
92.3529039822
 21
145.9573225736
 31
0.0
  0
LINE
  5
6A
330
1F
100
AcDbEntity
  8
0
  6
Continuous
 62
     7
370
    25
100
AcDbLine
 10
90.5738539822
 20
145.5011559069
 30
0.0
 11
90.5738539822
 21
145.9573225736
 31
0.0
  0
LINE
  5
6B
330
1F
100
AcDbEntity
  8
0
  6
Continuous
 62
     7
370
    25
100
AcDbLine
 10
94.1775706489
 20
144.1326559069
 30
0.0
 11
94.1775706489
 21
145.9573225736
 31
0.0
  0
LINE
  5
6C
330
1F
100
AcDbEntity
  8
0
  6
Continuous
 62
     7
370
    25
100
AcDbLine
 10
92.8090706489
 20
144.1326559069
 30
0.0
 11
94.1775706489
 21
144.1326559069
 31
0.0
  0
LINE
  5
6D
330
1F
100
AcDbEntity
  8
0
  6
Continuous
 62
     7
370
    25
100
AcDbLine
 10
92.8090706489
 20
149.1504892403
 30
0.0
 11
92.8090706489
 21
144.1326559069
 31
0.0
  0
LINE
  5
6E
330
1F
100
AcDbEntity
  8
0
  6
Continuous
 62
     7
370
    25
100
AcDbLine
 10
94.1775706489
 20
149.1504892403
 30
0.0
 11
92.8090706489
 21
149.1504892403
 31
0.0
  0
LINE
  5
6F
330
1F
100
AcDbEntity
  8
0
  6
Continuous
 62
     7
370
    25
100
AcDbLine
 10
94.1775706489
 20
147.3258225736
 30
0.0
 11
94.1775706489
 21
149.1504892403
 31
0.0
  0
LINE
  5
70
330
1F
100
AcDbEntity
  8
0
  6
Continuous
 62
     7
370
    25
100
AcDbLine
 10
94.6337373156
 20
147.3258225736
 30
0.0
 11
94.1775706489
 21
147.3258225736
 31
0.0
  0
LINE
  5
71
330
1F
100
AcDbEntity
  8
0
  6
Continuous
 62
     7
370
    25
100
AcDbLine
 10
95.85018176
 20
149.1504892403
 30
0.0
 11
94.6337373156
 21
147.3258225736
 31
0.0
  0
LINE
  5
72
330
1F
100
AcDbEntity
  8
0
  6
Continuous
 62
     7
370
    25
100
AcDbLine
 10
97.6444373156
 20
149.1504892403
 30
0.0
 11
95.85018176
 21
149.1504892403
 31
0.0
  0
LINE
  5
73
330
1F
100
AcDbEntity
  8
0
  6
Continuous
 62
     7
370
    25
100
AcDbLine
 10
95.9718262045
 20
146.6415725736
 30
0.0
 11
97.6444373156
 21
149.1504892403
 31
0.0
  0
LINE
  5
74
330
1F
100
AcDbEntity
  8
0
  6
Continuous
 62
     7
370
    25
100
AcDbLine
 10
97.6444373156
 20
144.1326559069
 30
0.0
 11
95.9718262045
 21
146.6415725736
 31
0.0
  0
LINE
  5
75
330
1F
100
AcDbEntity
  8
0
  6
Continuous
 62
     7
370
    25
100
AcDbLine
 10
95.85018176
 20
144.1326559069
 30
0.0
 11
97.6444373156
 21
144.1326559069
 31
0.0
  0
LINE
  5
76
330
1F
100
AcDbEntity
  8
0
  6
Continuous
 62
     7
370
    25
100
AcDbLine
 10
94.6337373156
 20
145.9573225736
 30
0.0
 11
95.85018176
 21
144.1326559069
 31
0.0
  0
LINE
  5
77
330
1F
100
AcDbEntity
  8
0
  6
Continuous
 62
     7
370
    25
100
AcDbLine
 10
94.1775706489
 20
145.9573225736
 30
0.0
 11
94.6337373156
 21
145.9573225736
 31
0.0
  0
LINE
  5
78
330
1F
100
AcDbEntity
  8
0
  6
Continuous
 62
     7
370
    25
100
AcDbLine
 10
92.3529039822
 20
149.1504892403
 30
0.0
 11
89.2053539822
 21
149.1504892403
 31
0.0
  0
LINE
  5
79
330
1F
100
AcDbEntity
  8
0
  6
Continuous
 62
     7
370
    25
100
AcDbLine
 10
92.3529039822
 20
147.7819892403
 30
0.0
 11
92.3529039822
 21
149.1504892403
 31
0.0
  0
LINE
  5
7A
330
1F
100
AcDbEntity
  8
0
  6
Continuous
 62
     7
370
    25
100
AcDbLine
 10
89.2053539822
 20
147.7819892403
 30
0.0
 11
92.3529039822
 21
147.7819892403
 31
0.0
  0
LINE
  5
7B
330
1F
100
AcDbEntity
  8
0
  6
Continuous
 62
     7
370
    25
100
AcDbLine
 10
89.2053539822
 20
149.1504892403
 30
0.0
 11
89.2053539822
 21
147.7819892403
 31
0.0
  0
LINE
  5
7C
330
1F
100
AcDbEntity
  8
0
  6
Continuous
 62
     7
370
    25
100
AcDbLine
 10
88.7491873156
 20
149.1504892403
 30
0.0
 11
87.3806873156
 21
149.1504892403
 31
0.0
  0
LINE
  5
7D
330
1F
100
AcDbEntity
  8
0
  6
Continuous
 62
     7
370
    25
100
AcDbLine
 10
88.7491873156
 20
147.7819892403
 30
0.0
 11
88.7491873156
 21
149.1504892403
 31
0.0
  0
LINE
  5
7E
330
1F
100
AcDbEntity
  8
0
  6
Continuous
 62
     7
370
    25
100
AcDbLine
 10
87.3806873156
 20
147.7819892403
 30
0.0
 11
88.7491873156
 21
147.7819892403
 31
0.0
  0
LINE
  5
7F
330
1F
100
AcDbEntity
  8
0
  6
Continuous
 62
     7
370
    25
100
AcDbLine
 10
87.3806873156
 20
149.1504892403
 30
0.0
 11
87.3806873156
 21
147.7819892403
 31
0.0
  0
LINE
  5
80
330
1F
100
AcDbEntity
  8
0
  6
Continuous
 62
     7
370
    25
100
AcDbLine
 10
87.3806873156
 20
147.3258225736
 30
0.0
 11
87.3806873156
 21
144.1326559069
 31
0.0
  0
LINE
  5
81
330
1F
100
AcDbEntity
  8
0
  6
Continuous
 62
     7
370
    25
100
AcDbLine
 10
88.7491873156
 20
147.3258225736
 30
0.0
 11
87.3806873156
 21
147.3258225736
 31
0.0
  0
LINE
  5
82
330
1F
100
AcDbEntity
  8
0
  6
Continuous
 62
     7
370
    25
100
AcDbLine
 10
88.7491873156
 20
144.1326559069
 30
0.0
 11
88.7491873156
 21
147.3258225736
 31
0.0
  0
LINE
  5
83
330
1F
100
AcDbEntity
  8
0
  6
Continuous
 62
     7
370
    25
100
AcDbLine
 10
87.3806873156
 20
144.1326559069
 30
0.0
 11
88.7491873156
 21
144.1326559069
 31
0.0
  0
SPLINE
  5
84
330
1F
100
AcDbEntity
  8
0
  6
Continuous
 62
     7
370
    25
100
AcDbSpline
210
0.0
220
0.0
230
1.0
 70
     8
 71
     3
 72
    15
 73
    11
 74
     0
 42
0.00000001
 43
0.00000001
 40
0.0
 40
0.0
 40
0.0
 40
0.0
 40
0.1373284476514341
 40
0.2745706170638265
 40
0.4128774942260861
 40
0.5510416377401102
 40
0.6704334374781794
 40
0.7898013279655655
 40
0.8948917661518858
 40
1.0
 40
1.0
 40
1.0
 40
1.0
 10
89.48731981894885
 20
28.08275311281405
 30
0.0
 10
89.34446085611872
 20
28.29197940764044
 30
0.0
 10
89.05883268330976
 20
28.71030054837213
 30
0.0
 10
88.77300343863423
 20
29.43799851315554
 30
0.0
 10
88.61565952006947
 20
30.22661649449372
 30
0.0
 10
88.61058361479053
 20
31.02126115525661
 30
0.0
 10
88.75110616210377
 20
31.7834004855916
 30
0.0
 10
89.00040235278128
 20
32.45596937808699
 30
0.0
 10
89.34195314543464
 20
33.06063478039835
 30
0.0
 10
89.62991101499165
 20
33.39658462553478
 30
0.0
 10
89.77390213919269
 20
33.56457376905352
 30
0.0
  0
LINE
  5
85
330
1F
100
AcDbEntity
  8
0
  6
Continuous
 62
     7
370
    25
100
AcDbLine
 10
89.7739021392
 20
33.5645737691
 30
0.0
 11
89.7806873156
 21
33.5488909256
 31
0.0
  0
ARC
  5
86
330
1F
100
AcDbEntity
  8
0
  6
Continuous
 62
     7
370
    25
100
AcDbCircle
 10
92.8806873156
 20
30.6415725736
 30
0.0
 40
4.250000000000008
100
AcDbArc
 50
136.8371028597
 51
217.018665572
  0
LINE
  5
87
330
1F
100
AcDbEntity
  8
0
  6
Continuous
 62
     7
370
    25
100
AcDbLine
 10
86.3996981762
 20
43.5106595866
 30
0.0
 11
131.3616764549
 21
43.5106595866
 31
0.0
  0
LINE
  5
88
330
1F
100
AcDbEntity
  8
0
  6
Continuous
 62
     7
370
    25
100
AcDbLine
 10
86.5306111631
 20
43.6415725736
 30
0.0
 11
131.230763468
 21
43.6415725736
 31
0.0
  0
LINE
  5
89
330
1F
100
AcDbEntity
  8
0
  6
Continuous
 62
     7
370
    25
100
AcDbLine
 10
86.0306873156
 20
141.141648726
 30
0.0
 11
86.0306873156
 21
44.1414964212
 31
0.0
  0
LINE
  5
8A
330
1F
100
AcDbEntity
  8
0
  6
Continuous
 62
     7
370
    25
100
AcDbLine
 10
85.8997743286
 20
141.272561713
 30
0.0
 11
85.8997743286
 21
44.0105834342
 31
0.0
  0
ELLIPSE
  5
8B
330
1F
100
AcDbEntity
  8
0
  6
Continuous
 62
     7
370
    25
100
AcDbEllipse
 10
85.9652308221
 20
136.9415725736
 30
0.0
 11
0.0
 21
1.75
 31
0.0
210
0.0
220
0.0
230
1.0
 40
0.0174550649
 41
0.0
 42
6.283185307179586
  0
ELLIPSE
  5
8C
330
1F
100
AcDbEntity
  8
0
  6
Continuous
 62
     7
370
    25
100
AcDbEllipse
 10
86.3998504926
 20
44.0107357507
 30
0.0
 11
0.3536610945847939
 21
0.3536610945847868
 31
0.0
210
0.0
220
0.0
230
0.9999999999999998
 40
0.9996954599
 41
2.356346783439958
 42
3.926838523739705
  0
ELLIPSE
  5
8D
330
1F
100
AcDbEntity
  8
0
  6
Continuous
 62
     7
370
    25
100
AcDbEllipse
 10
86.5307634796
 20
44.1416487376
 30
0.0
 11
0.3536610945847939
 21
0.3536610945847868
 31
0.0
210
0.0
220
0.0
230
0.9999999999999998
 40
0.9996954599
 41
2.356346783439919
 42
3.926838523739687
  0
LINE
  5
8E
330
1F
100
AcDbEntity
  8
0
  6
Continuous
 62
     7
370
    25
100
AcDbLine
 10
89.7806873156
 20
33.5645737691
 30
0.0
 11
89.7806873156
 21
33.8063883213
 31
0.0
  0
LINE
  5
8F
330
1F
100
AcDbEntity
  8
0
  6
Continuous
 62
     7
370
    25
100
AcDbLine
 10
89.7739021392
 20
33.5645737691
 30
0.0
 11
89.7806873156
 21
33.5645737691
 31
0.0
  0
SPLINE
  5
90
330
1F
100
AcDbEntity
  8
0
  6
Continuous
 62
     7
370
    25
100
AcDbSpline
210
0.0
220
0.0
230
1.0
 70
     8
 71
     3
 72
    18
 73
    14
 74
     0
 42
0.00000001
 43
0.00000001
 40
0.0
 40
0.0
 40
0.0
 40
0.0
 40
0.1038141989855448
 40
0.2075650292887058
 40
0.2832793143733857
 40
0.3588868977486672
 40
0.4777667866542643
 40
0.5970155025283771
 40
0.6673744843500887
 40
0.7378373705100548
 40
0.8354509523591078
 40
0.9331730426547689
 40
1.0
 40
1.0
 40
1.0
 40
1.0
 10
96.27405481217814
 20
28.08275311281404
 30
0.0
 10
96.10971642130163
 20
27.88500834705446
 30
0.0
 10
95.78113995248648
 20
27.48963951988377
 30
0.0
 10
95.21143813679882
 20
27.05820717503927
 30
0.0
 10
94.63205370087088
 20
26.74331505207653
 30
0.0
 10
93.95357567889569
 20
26.49071947709444
 30
0.0
 10
93.07385172287421
 20
26.3408063826269
 30
0.0
 10
92.18441177272638
 20
26.41022152263675
 30
0.0
 10
91.49672964854936
 20
26.59867742401037
 30
0.0
 10
90.91442297969672
 20
26.84411842616553
 30
0.0
 10
90.33773520661755
 20
27.20405338478121
 30
0.0
 10
89.84567528765061
 20
27.63580500932839
 30
0.0
 10
89.59082150065002
 20
27.95366374657246
 30
0.0
 10
89.48731981894885
 20
28.08275311281405
 30
0.0
  0
SPLINE
  5
91
330
1F
100
AcDbEntity
  8
0
  6
Continuous
 62
     7
370
    25
100
AcDbSpline
210
0.0
220
0.0
230
1.0
 70
     8
 71
     3
 72
    16
 73
    12
 74
     0
 42
0.00000001
 43
0.00000001
 40
0.0
 40
0.0
 40
0.0
 40
0.0
 40
0.1075096832480164
 40
0.2150000687138745
 40
0.3228771271310826
 40
0.4307687396774743
 40
0.5377872037349322
 40
0.6448552674521675
 40
0.7597367096909153
 40
0.8746777730728075
 40
1.0
 40
1.0
 40
1.0
 40
1.0
 10
95.98747249193431
 20
33.56457376905352
 30
0.0
 10
96.13462970118063
 20
33.39252013566671
 30
0.0
 10
96.42891770523613
 20
33.04844375219068
 30
0.0
 10
96.76028853357636
 20
32.45377747012851
 30
0.0
 10
96.99563375048577
 20
31.82240184467804
 30
0.0
 10
97.12762307237489
 20
31.17106585451466
 30
0.0
 10
97.15530101806314
 20
30.52256517313446
 30
0.0
 10
97.08753369449204
 20
29.87758948172585
 30
0.0
 10
96.92005234303616
 20
29.25271973485206
 30
0.0
 10
96.65725871393832
 20
28.63740690250624
 30
0.0
 10
96.40541659778393
 20
28.27288769096505
 30
0.0
 10
96.27405481217814
 20
28.08275311281404
 30
0.0
  0
LINE
  5
92
330
1F
100
AcDbEntity
  8
0
  6
Continuous
 62
     7
370
    25
100
AcDbLine
 10
95.9806873156
 20
33.5645737691
 30
0.0
 11
95.9874724919
 21
33.5645737691
 31
0.0
  0
LINE
  5
93
330
1F
100
AcDbEntity
  8
0
  6
Continuous
 62
     7
370
    25
100
AcDbLine
 10
95.9806873156
 20
33.5645737691
 30
0.0
 11
95.9806873156
 21
33.8063883213
 31
0.0
  0
ELLIPSE
  5
94
330
1F
100
AcDbEntity
  8
0
  6
Continuous
 62
     7
370
    25
100
AcDbEllipse
 10
131.3615241385
 20
141.2724093965
 30
0.0
 11
-0.353661094584794
 21
-0.353661094584794
 31
0.0
210
0.0
220
0.0
230
0.9999999999999998
 40
0.9996954599
 41
2.3563467834399
 42
3.9268385237397
  0
ELLIPSE
  5
95
330
1F
100
AcDbEntity
  8
0
  6
Continuous
 62
     7
370
    25
100
AcDbEllipse
 10
131.2306111515
 20
141.1414964096
 30
0.0
 11
-0.353661094584794
 21
-0.353661094584794
 31
0.0
210
0.0
220
0.0
230
0.9999999999999998
 40
0.9996954599
 41
2.356346783439993
 42
3.926838523739663
  0
ELLIPSE
  5
96
330
1F
100
AcDbEntity
  8
0
  6
Continuous
 62
     7
370
    25
100
AcDbEllipse
 10
86.3998504926
 20
141.2724093965
 30
0.0
 11
0.353661094584794
 21
-0.3536610945847656
 31
0.0
210
0.0
220
0.0
230
0.9999999999999998
 40
0.9996954599
 41
2.35634678343987
 42
3.92683852373965
  0
ELLIPSE
  5
97
330
1F
100
AcDbEntity
  8
0
  6
Continuous
 62
     7
370
    25
100
AcDbEllipse
 10
86.5307634796
 20
141.1414964096
 30
0.0
 11
0.353661094584794
 21
-0.353661094584794
 31
0.0
210
0.0
220
0.0
230
0.9999999999999998
 40
0.9996954599
 41
2.356346783439909
 42
3.926838523739663
  0
LINE
  5
98
330
1F
100
AcDbEntity
  8
0
  6
Continuous
 62
     7
370
    25
100
AcDbLine
 10
89.7806873156
 20
33.8063883213
 30
0.0
 11
89.7806873156
 21
34.8116656485
 31
0.0
  0
LINE
  5
99
330
1F
100
AcDbEntity
  8
0
  6
Continuous
 62
     7
370
    25
100
AcDbLine
 10
121.7806873156
 20
151.4767568259
 30
0.0
 11
121.7806873156
 21
150.4714794987
 31
0.0
  0
ELLIPSE
  5
9A
330
1F
100
AcDbEntity
  8
0
  6
Continuous
 62
     7
370
    25
100
AcDbEllipse
 10
131.3615241385
 20
44.0107357507
 30
0.0
 11
-0.3536610945847939
 21
0.3536610945847868
 31
0.0
210
0.0
220
0.0
230
0.9999999999999998
 40
0.9996954599
 41
2.35634678343989
 42
3.926838523739648
  0
LINE
  5
9B
330
1F
100
AcDbEntity
  8
0
  6
Continuous
 62
     7
370
    25
100
AcDbLine
 10
131.8616003025
 20
44.0105834342
 30
0.0
 11
131.8616003025
 21
141.272561713
 31
0.0
  0
LINE
  5
9C
330
1F
100
AcDbEntity
  8
0
  6
Continuous
 62
     7
370
    25
100
AcDbLine
 10
131.3616764549
 20
141.7724855606
 30
0.0
 11
86.3996981762
 21
141.7724855606
 31
0.0
  0
LINE
  5
9D
330
1F
100
AcDbEntity
  8
0
  6
Continuous
 62
     7
370
    25
100
AcDbLine
 10
95.9806873156
 20
33.8063883213
 30
0.0
 11
95.9806873156
 21
34.8116656485
 31
0.0
  0
LINE
  5
9E
330
1F
100
AcDbEntity
  8
0
  6
Continuous
 62
     7
370
    25
100
AcDbLine
 10
127.9806873156
 20
151.4767568259
 30
0.0
 11
127.9806873156
 21
150.4714794987
 31
0.0
  0
LINE
  5
9F
330
1F
100
AcDbEntity
  8
0
  6
Continuous
 62
     7
370
    25
100
AcDbLine
 10
131.7306873156
 20
44.1414964212
 30
0.0
 11
131.7306873156
 21
141.141648726
 31
0.0
  0
ELLIPSE
  5
A0
330
1F
100
AcDbEntity
  8
0
  6
Continuous
 62
     7
370
    25
100
AcDbEllipse
 10
131.796143809
 20
136.9415725736
 30
0.0
 11
0.0
 21
1.75
 31
0.0
210
0.0
220
0.0
230
1.0
 40
0.0174550649
 41
0.0
 42
6.283185307179586
  0
ELLIPSE
  5
A1
330
1F
100
AcDbEntity
  8
0
  6
Continuous
 62
     7
370
    25
100
AcDbEllipse
 10
131.2306111515
 20
44.1416487376
 30
0.0
 11
-0.3536610945847939
 21
0.3536610945847868
 31
0.0
210
0.0
220
0.0
230
0.9999999999999998
 40
0.9996954599
 41
2.356346783439927
 42
3.926838523739696
  0
ARC
  5
A2
330
1F
100
AcDbEntity
  8
0
  6
Continuous
 62
     7
370
    25
100
AcDbCircle
 10
92.8806873156
 20
30.6415725736
 30
0.0
 40
4.249999999999997
100
AcDbArc
 50
322.981334428
 51
43.1628971403
  0
LINE
  5
A3
330
1F
100
AcDbEntity
  8
0
  6
Continuous
 62
     7
370
    25
100
AcDbLine
 10
95.9874724919
 20
33.5645737691
 30
0.0
 11
95.9806873156
 21
33.5488909256
 31
0.0
  0
LINE
  5
A4
330
1F
100
AcDbEntity
  8
0
  6
Continuous
 62
     7
370
    25
100
AcDbLine
 10
127.9874724919
 20
151.7185713782
 30
0.0
 11
127.9806873156
 21
151.7185713782
 31
0.0
  0
SPLINE
  5
A5
330
1F
100
AcDbEntity
  8
0
  6
Continuous
 62
     7
370
    25
100
AcDbSpline
210
0.0
220
0.0
230
1.0
 70
     8
 71
     3
 72
    15
 73
    11
 74
     0
 42
0.00000001
 43
0.00000001
 40
0.0
 40
0.0
 40
0.0
 40
0.0
 40
0.1373284476514341
 40
0.2745706170638265
 40
0.4128774942260861
 40
0.5510416377401102
 40
0.6704334374781794
 40
0.7898013279655655
 40
0.8948917661518858
 40
1.0
 40
1.0
 40
1.0
 40
1.0
 10
128.2740548121782
 20
157.2003920343947
 30
0.0
 10
128.4169137750083
 20
156.9911657395683
 30
0.0
 10
128.7025419478173
 20
156.5728445988366
 30
0.0
 10
128.9883711924928
 20
155.8451466340532
 30
0.0
 10
129.1457151110576
 20
155.056528652715
 30
0.0
 10
129.1507910163365
 20
154.2618839919521
 30
0.0
 10
129.0102684690233
 20
153.4997446616171
 30
0.0
 10
128.7609722783458
 20
152.8271757691217
 30
0.0
 10
128.4194214856924
 20
152.2225103668104
 30
0.0
 10
128.1314636161354
 20
151.8865605216739
 30
0.0
 10
127.9874724919343
 20
151.7185713781552
 30
0.0
  0
SPLINE
  5
A6
330
1F
100
AcDbEntity
  8
0
  6
Continuous
 62
     7
370
    25
100
AcDbSpline
210
0.0
220
0.0
230
1.0
 70
     8
 71
     3
 72
    18
 73
    14
 74
     0
 42
0.00000001
 43
0.00000001
 40
0.0
 40
0.0
 40
0.0
 40
0.0
 40
0.1038141989855448
 40
0.2075650292887058
 40
0.2832793143733857
 40
0.3588868977486672
 40
0.4777667866542643
 40
0.5970155025283771
 40
0.6673744843500887
 40
0.7378373705100548
 40
0.8354509523591078
 40
0.9331730426547689
 40
1.0
 40
1.0
 40
1.0
 40
1.0
 10
121.4873198189489
 20
157.2003920343947
 30
0.0
 10
121.6516582098254
 20
157.3981368001543
 30
0.0
 10
121.9802346786406
 20
157.793505627325
 30
0.0
 10
122.5499364943282
 20
158.2249379721694
 30
0.0
 10
123.1293209302561
 20
158.5398300951322
 30
0.0
 10
123.8077989522314
 20
158.7924256701143
 30
0.0
 10
124.6875229082528
 20
158.9423387645818
 30
0.0
 10
125.5769628584007
 20
158.872923624572
 30
0.0
 10
126.2646449825777
 20
158.6844677231984
 30
0.0
 10
126.8469516514303
 20
158.4390267210432
 30
0.0
 10
127.4236394245095
 20
158.0790917624275
 30
0.0
 10
127.9156993434764
 20
157.6473401378803
 30
0.0
 10
128.170553130477
 20
157.3294814006363
 30
0.0
 10
128.2740548121782
 20
157.2003920343947
 30
0.0
  0
SPLINE
  5
A7
330
1F
100
AcDbEntity
  8
0
  6
Continuous
 62
     7
370
    25
100
AcDbSpline
210
0.0
220
0.0
230
1.0
 70
     8
 71
     3
 72
    16
 73
    12
 74
     0
 42
0.00000001
 43
0.00000001
 40
0.0
 40
0.0
 40
0.0
 40
0.0
 40
0.1075096832480164
 40
0.2150000687138745
 40
0.3228771271310826
 40
0.4307687396774743
 40
0.5377872037349322
 40
0.6448552674521675
 40
0.7597367096909153
 40
0.8746777730728075
 40
1.0
 40
1.0
 40
1.0
 40
1.0
 10
121.7739021391927
 20
151.7185713781552
 30
0.0
 10
121.6267449299464
 20
151.890625011542
 30
0.0
 10
121.3324569258909
 20
152.234701395018
 30
0.0
 10
121.0010860975507
 20
152.8293676770802
 30
0.0
 10
120.7657408806413
 20
153.4607433025307
 30
0.0
 10
120.6337515587521
 20
154.1120792926941
 30
0.0
 10
120.6060736130639
 20
154.7605799740743
 30
0.0
 10
120.673840936635
 20
155.4055556654829
 30
0.0
 10
120.8413222880909
 20
156.0304254123567
 30
0.0
 10
121.1041159171887
 20
156.6457382447025
 30
0.0
 10
121.3559580333431
 20
157.0102574562437
 30
0.0
 10
121.4873198189489
 20
157.2003920343947
 30
0.0
  0
LINE
  5
A8
330
1F
100
AcDbEntity
  8
0
  6
Continuous
 62
     7
370
    25
100
AcDbLine
 10
121.7806873156
 20
151.7185713782
 30
0.0
 11
121.7739021392
 21
151.7185713782
 31
0.0
  0
LINE
  5
A9
330
1F
100
AcDbEntity
  8
0
  6
Continuous
 62
     7
370
    25
100
AcDbLine
 10
121.7806873156
 20
151.7185713782
 30
0.0
 11
121.7806873156
 21
151.4767568259
 31
0.0
  0
LINE
  5
AA
330
1F
100
AcDbEntity
  8
0
  6
Continuous
 62
     7
370
    25
100
AcDbLine
 10
127.9806873156
 20
151.7185713782
 30
0.0
 11
127.9806873156
 21
151.4767568259
 31
0.0
  0
ARC
  5
AB
330
1F
100
AcDbEntity
  8
0
  6
Continuous
 62
     7
370
    25
100
AcDbCircle
 10
124.8806873156
 20
154.6415725736
 30
0.0
 40
4.250000000000012
100
AcDbArc
 50
142.981334428
 51
223.1628971403
  0
LINE
  5
AC
330
1F
100
AcDbEntity
  8
0
  6
Continuous
 62
     7
370
    25
100
AcDbLine
 10
121.7739021392
 20
151.7185713782
 30
0.0
 11
121.7806873156
 21
151.7342542216
 31
0.0
  0
LINE
  5
AD
330
1F
100
AcDbEntity
  8
0
  6
Continuous
 62
     7
370
    25
100
AcDbLine
 10
127.9874724919
 20
151.7185713782
 30
0.0
 11
127.9806873156
 21
151.7342542216
 31
0.0
  0
ARC
  5
AE
330
1F
100
AcDbEntity
  8
0
  6
Continuous
 62
     7
370
    25
100
AcDbCircle
 10
124.8806873156
 20
154.6415725736
 30
0.0
 40
4.250000000000012
100
AcDbArc
 50
316.8371028597
 51
37.018665572
  0
LINE
  5
AF
330
1F
100
AcDbEntity
  8
0
  6
Continuous
 62
     7
370
    25
100
AcDbLine
 10
131.230763468
 20
141.6415725736
 30
0.0
 11
86.5306111631
 21
141.6415725736
 31
0.0
  0
LINE
  5
B0
330
1F
100
AcDbEntity
  8
0
  6
Continuous
 62
     7
370
    25
100
AcDbLine
 10
121.7806873156
 20
151.7185713782
 30
0.0
 11
121.7806873156
 21
151.7342542216
 31
0.0
  0
LINE
  5
B1
330
1F
100
AcDbEntity
  8
0
  6
Continuous
 62
     7
370
    25
100
AcDbLine
 10
127.9806873156
 20
151.7185713782
 30
0.0
 11
127.9806873156
 21
151.7342542216
 31
0.0
  0
LINE
  5
B2
330
1F
100
AcDbEntity
  8
0
  6
Continuous
 62
     7
370
    25
100
AcDbLine
 10
95.9806873156
 20
33.5645737691
 30
0.0
 11
95.9806873156
 21
33.5488909256
 31
0.0
  0
LINE
  5
B3
330
1F
100
AcDbEntity
  8
0
  6
Continuous
 62
     7
370
    25
100
AcDbLine
 10
89.7806873156
 20
33.5645737691
 30
0.0
 11
89.7806873156
 21
33.5488909256
 31
0.0
  0
SPLINE
  5
B4
330
1F
100
AcDbEntity
  8
0
  6
Continuous
 62
     7
370
    25
100
AcDbSpline
210
0.0
220
0.0
230
1.0
 70
     8
 71
     3
 72
     9
 73
     5
 74
     0
 42
0.00000001
 43
0.00000001
 40
0.0
 40
0.0
 40
0.0
 40
0.0
 40
0.5175208016818825
 40
0.9999999999999999
 40
0.9999999999999999
 40
0.9999999999999999
 40
0.9999999999999999
 10
95.87422763311729
 20
34.47682406009636
 30
0.0
 10
95.87992381288183
 20
34.47781260388854
 30
0.0
 10
95.89093048110854
 20
34.47972275665727
 30
0.0
 10
95.951475569739
 20
34.48132250723607
 30
0.0
 10
95.98068731556351
 20
34.48209435361286
 30
0.0
  0
LINE
  5
B5
330
1F
100
AcDbEntity
  8
0
  6
Continuous
 62
     7
370
    25
100
AcDbLine
 10
95.622800189
 20
34.1415725736
 30
0.0
 11
95.8742276331
 21
34.4768240601
 31
0.0
  0
LINE
  5
B6
330
1F
100
AcDbEntity
  8
0
  6
Continuous
 62
     7
370
    25
100
AcDbLine
 10
90.1385744421
 20
34.1415725736
 30
0.0
 11
95.622800189
 21
34.1415725736
 31
0.0
  0
LINE
  5
B7
330
1F
100
AcDbEntity
  8
0
  6
Continuous
 62
     7
370
    25
100
AcDbLine
 10
90.1385744421
 20
34.1415725736
 30
0.0
 11
89.887146998
 21
34.4768240601
 31
0.0
  0
SPLINE
  5
B8
330
1F
100
AcDbEntity
  8
0
  6
Continuous
 62
     7
370
    25
100
AcDbSpline
210
0.0
220
0.0
230
1.0
 70
     8
 71
     3
 72
     9
 73
     5
 74
     0
 42
0.00000001
 43
0.00000001
 40
0.0
 40
0.0
 40
0.0
 40
0.0
 40
0.5175021458617284
 40
1.0
 40
1.0
 40
1.0
 40
1.0
 10
89.78068731556351
 20
34.48209435361286
 30
0.0
 10
89.81177174593456
 20
34.48126205282021
 30
0.0
 10
89.8718380289821
 20
34.47965374877875
 30
0.0
 10
89.88216449858534
 20
34.47774501840554
 30
0.0
 10
89.88714699800973
 20
34.47682406009635
 30
0.0
  0
SPLINE
  5
B9
330
1F
100
AcDbEntity
  8
0
  6
Continuous
 62
     7
370
    25
100
AcDbSpline
210
0.0
220
0.0
230
1.0
 70
     8
 71
     3
 72
     9
 73
     5
 74
     0
 42
0.00000001
 43
0.00000001
 40
0.0
 40
0.0
 40
0.0
 40
0.0
 40
0.5175208016818825
 40
0.9999999999999999
 40
0.9999999999999999
 40
0.9999999999999999
 40
0.9999999999999999
 10
121.8871469980097
 20
150.8063210871124
 30
0.0
 10
121.8814508182452
 20
150.8053325433202
 30
0.0
 10
121.8704441500185
 20
150.8034223905515
 30
0.0
 10
121.809899061388
 20
150.8018226399727
 30
0.0
 10
121.7806873155635
 20
150.8010507935959
 30
0.0
  0
LINE
  5
BA
330
1F
100
AcDbEntity
  8
0
  6
Continuous
 62
     7
370
    25
100
AcDbLine
 10
122.1385744421
 20
151.1415725736
 30
0.0
 11
121.887146998
 21
150.8063210871
 31
0.0
  0
LINE
  5
BB
330
1F
100
AcDbEntity
  8
0
  6
Continuous
 62
     7
370
    25
100
AcDbLine
 10
127.622800189
 20
151.1415725736
 30
0.0
 11
122.1385744421
 21
151.1415725736
 31
0.0
  0
LINE
  5
BC
330
1F
100
AcDbEntity
  8
0
  6
Continuous
 62
     7
370
    25
100
AcDbLine
 10
127.622800189
 20
151.1415725736
 30
0.0
 11
127.8742276331
 21
150.8063210871
 31
0.0
  0
SPLINE
  5
BD
330
1F
100
AcDbEntity
  8
0
  6
Continuous
 62
     7
370
    25
100
AcDbSpline
210
0.0
220
0.0
230
1.0
 70
     8
 71
     3
 72
     9
 73
     5
 74
     0
 42
0.00000001
 43
0.00000001
 40
0.0
 40
0.0
 40
0.0
 40
0.0
 40
0.5175021458617284
 40
1.0
 40
1.0
 40
1.0
 40
1.0
 10
127.9806873155635
 20
150.8010507935959
 30
0.0
 10
127.9496028851925
 20
150.8018830943885
 30
0.0
 10
127.8895366021449
 20
150.80349139843
 30
0.0
 10
127.8792101325417
 20
150.8054001288032
 30
0.0
 10
127.8742276331173
 20
150.8063210871124
 30
0.0
  0
LINE
  5
BE
330
1F
100
AcDbEntity
  8
0
  6
Continuous
 62
     7
370
    25
100
AcDbLine
 10
134.3806873156
 20
23.6414964212
 30
0.0
 11
134.3806873156
 21
161.641648726
 31
0.0
  0
LINE
  5
BF
330
1F
100
AcDbEntity
  8
0
  6
Continuous
 62
     7
370
    25
100
AcDbLine
 10
134.3545047182
 20
23.6676790186
 30
0.0
 11
134.3545047182
 21
26.2415268822
 31
0.0
  0
ELLIPSE
  5
C0
330
1F
100
AcDbEntity
  8
0
  6
Continuous
 62
     7
370
    25
100
AcDbEllipse
 10
133.6083006925
 20
136.9415725736
 30
0.0
 11
0.0
 21
1.75
 31
0.0
210
0.0
220
0.0
230
1.0
 40
0.0174550649
 41
0.0
 42
6.283185307179586
  0
LINE
  5
C1
330
1F
100
AcDbEntity
  8
0
  6
Continuous
 62
     7
370
    25
100
AcDbLine
 10
83.3806873156
 20
161.641648726
 30
0.0
 11
83.3806873156
 21
23.6414964212
 31
0.0
  0
LINE
  5
C2
330
1F
100
AcDbEntity
  8
0
  6
Continuous
 62
     7
370
    25
100
AcDbLine
 10
83.406869913
 20
161.6154661286
 30
0.0
 11
83.406869913
 21
159.0416182651
 31
0.0
  0
ELLIPSE
  5
C3
330
1F
100
AcDbEntity
  8
0
  6
Continuous
 62
     7
370
    25
100
AcDbEllipse
 10
84.1530739386
 20
136.9415725736
 30
0.0
 11
0.0
 21
1.75
 31
0.0
210
0.0
220
0.0
230
1.0
 40
0.0174550649
 41
0.0
 42
6.283185307179586
  0
ARC
  5
C4
330
1F
100
AcDbEntity
  8
0
  6
Continuous
 62
     7
370
    25
100
AcDbCircle
 10
92.8806873156
 20
30.6415725736
 30
0.0
 40
4.250000000000006
100
AcDbArc
 50
217.018665572
 51
322.981334428
  0
ARC
  5
C5
330
1F
100
AcDbEntity
  8
0
  6
Continuous
 62
     7
370
    25
100
AcDbCircle
 10
124.8806873156
 20
154.6415725736
 30
0.0
 40
4.249999999999999
100
AcDbArc
 50
37.018665572
 51
142.981334428
  0
ARC
  5
C6
330
1F
100
AcDbEntity
  8
0
  6
Continuous
 62
     7
370
    25
100
AcDbCircle
 10
92.2806873156
 20
30.8168564696
 30
0.0
 40
2.500000000000014
100
AcDbArc
 50
180.0
 51
270.0
  0
LINE
  5
C7
330
1F
100
AcDbEntity
  8
0
  6
Continuous
 62
     7
370
    25
100
AcDbLine
 10
92.2806873156
 20
28.3168564696
 30
0.0
 11
93.4806873156
 21
28.3168564696
 31
0.0
  0
ARC
  5
C8
330
1F
100
AcDbEntity
  8
0
  6
Continuous
 62
     7
370
    25
100
AcDbCircle
 10
93.4806873156
 20
30.8168564696
 30
0.0
 40
2.500000000000004
100
AcDbArc
 50
270.0
 51
0.0
  0
LINE
  5
C9
330
1F
100
AcDbEntity
  8
0
  6
Continuous
 62
     7
370
    25
100
AcDbLine
 10
89.7806873156
 20
33.5488909256
 30
0.0
 11
89.7806873156
 21
30.8168564696
 31
0.0
  0
LINE
  5
CA
330
1F
100
AcDbEntity
  8
0
  6
Continuous
 62
     7
370
    25
100
AcDbLine
 10
95.9806873156
 20
33.5488909256
 30
0.0
 11
95.9806873156
 21
30.8168564696
 31
0.0
  0
LINE
  5
CB
330
1F
100
AcDbEntity
  8
0
  6
Continuous
 62
     7
370
    25
100
AcDbLine
 10
125.4806873156
 20
156.9662886776
 30
0.0
 11
124.2806873156
 21
156.9662886776
 31
0.0
  0
ARC
  5
CC
330
1F
100
AcDbEntity
  8
0
  6
Continuous
 62
     7
370
    25
100
AcDbCircle
 10
124.2806873156
 20
154.4662886776
 30
0.0
 40
2.500000000000014
100
AcDbArc
 50
90.0
 51
180.0
  0
ARC
  5
CD
330
1F
100
AcDbEntity
  8
0
  6
Continuous
 62
     7
370
    25
100
AcDbCircle
 10
125.4806873156
 20
154.4662886776
 30
0.0
 40
2.5
100
AcDbArc
 50
0.0
 51
90.0
  0
LINE
  5
CE
330
1F
100
AcDbEntity
  8
0
  6
Continuous
 62
     7
370
    25
100
AcDbLine
 10
121.7806873156
 20
151.7342542216
 30
0.0
 11
121.7806873156
 21
154.4662886776
 31
0.0
  0
LINE
  5
CF
330
1F
100
AcDbEntity
  8
0
  6
Continuous
 62
     7
370
    25
100
AcDbLine
 10
127.9806873156
 20
151.7342542216
 30
0.0
 11
127.9806873156
 21
154.4662886776
 31
0.0
  0
ARC
  5
D0
330
1F
100
AcDbEntity
  8
0
  6
Continuous
 62
     7
370
    25
100
AcDbCircle
 10
85.1806873156
 20
160.3415725736
 30
0.0
 40
1.0
100
AcDbArc
 50
270.0
 51
0.0
  0
ARC
  5
D1
330
1F
100
AcDbEntity
  8
0
  6
Continuous
 62
     7
370
    25
100
AcDbCircle
 10
132.5806873156
 20
24.9415725736
 30
0.0
 40
1.0
100
AcDbArc
 50
90.0
 51
180.0
  0
LINE
  5
D2
330
1F
100
AcDbEntity
  8
0
  6
Continuous
 62
     7
370
    25
100
AcDbLine
 10
134.0545504096
 20
25.9415725736
 30
0.0
 11
132.5806873156
 21
25.9415725736
 31
0.0
  0
LINE
  5
D3
330
1F
100
AcDbEntity
  8
0
  6
Continuous
 62
     7
370
    25
100
AcDbLine
 10
83.7068242215
 20
159.3415725736
 30
0.0
 11
85.1806873156
 21
159.3415725736
 31
0.0
  0
ELLIPSE
  5
D4
330
1F
100
AcDbEntity
  8
0
  6
Continuous
 62
     7
370
    25
100
AcDbEllipse
 10
134.0544590198
 20
26.241618272
 30
0.0
 11
0.2121966567508764
 21
-0.2121966567508764
 31
0.0
210
0.0
220
0.0
230
0.9999999999999998
 40
0.9996954599
 41
5.497939437029777
 42
7.068431177329444
  0
ELLIPSE
  5
D5
330
1F
100
AcDbEntity
  8
0
  6
Continuous
 62
     7
370
    25
100
AcDbEllipse
 10
83.7069156114
 20
159.0415268752
 30
0.0
 11
-0.2121966567508622
 21
0.2121966567508763
 31
0.0
210
0.0
220
0.0
230
0.9999999999999998
 40
0.9996954599
 41
5.497939437029822
 42
7.068431177329384
  0
LINE
  5
D6
330
1F
100
AcDbEntity
  8
0
  6
Continuous
 62
     7
370
    25
100
AcDbLine
 10
131.5806873156
 20
24.9415725736
 30
0.0
 11
131.5806873156
 21
23.4677094795
 31
0.0
  0
LINE
  5
D7
330
1F
100
AcDbEntity
  8
0
  6
Continuous
 62
     7
370
    25
100
AcDbLine
 10
86.1806873156
 20
160.3415725736
 30
0.0
 11
86.1806873156
 21
161.8154356677
 31
0.0
  0
LINE
  5
D8
330
1F
100
AcDbEntity
  8
0
  6
Continuous
 62
     7
370
    25
100
AcDbLine
 10
89.8806873156
 20
69.1415725736
 30
0.0
 11
127.8806873156
 21
69.1415725736
 31
0.0
  0
LINE
  5
D9
330
1F
100
AcDbEntity
  8
0
  6
Continuous
 62
     7
370
    25
100
AcDbLine
 10
127.8806873156
 20
69.1415725736
 30
0.0
 11
127.8806873156
 21
116.1415725736
 31
0.0
  0
LINE
  5
DA
330
1F
100
AcDbEntity
  8
0
  6
Continuous
 62
     7
370
    25
100
AcDbLine
 10
127.8806873156
 20
116.1415725736
 30
0.0
 11
89.8806873156
 21
116.1415725736
 31
0.0
  0
LINE
  5
DB
330
1F
100
AcDbEntity
  8
0
  6
Continuous
 62
     7
370
    25
100
AcDbLine
 10
89.8806873156
 20
116.1415725736
 30
0.0
 11
89.8806873156
 21
69.1415725736
 31
0.0
  0
LINE
  5
DC
330
1F
100
AcDbEntity
  8
0
  6
Continuous
 62
     7
370
    25
100
AcDbLine
 10
119.5806873156
 20
70.3415725736
 30
0.0
 11
126.6806873156
 21
70.3415725736
 31
0.0
  0
LINE
  5
DD
330
1F
100
AcDbEntity
  8
0
  6
Continuous
 62
     7
370
    25
100
AcDbLine
 10
119.5806873156
 20
114.9415725736
 30
0.0
 11
119.5806873156
 21
70.3415725736
 31
0.0
  0
LINE
  5
DE
330
1F
100
AcDbEntity
  8
0
  6
Continuous
 62
     7
370
    25
100
AcDbLine
 10
126.6806873156
 20
114.9415725736
 30
0.0
 11
119.5806873156
 21
114.9415725736
 31
0.0
  0
LINE
  5
DF
330
1F
100
AcDbEntity
  8
0
  6
Continuous
 62
     7
370
    25
100
AcDbLine
 10
126.6806873156
 20
70.3415725736
 30
0.0
 11
126.6806873156
 21
114.9415725736
 31
0.0
  0
LINE
  5
E0
330
1F
100
AcDbEntity
  8
0
  6
Continuous
 62
     7
370
    25
100
AcDbLine
 10
91.0806873156
 20
114.9415725736
 30
0.0
 11
90.3806873156
 21
115.6415725736
 31
0.0
  0
LINE
  5
E1
330
1F
100
AcDbEntity
  8
0
  6
Continuous
 62
     7
370
    25
100
AcDbLine
 10
91.0806873156
 20
114.9415725736
 30
0.0
 11
91.0806873156
 21
70.3415725736
 31
0.0
  0
LINE
  5
E2
330
1F
100
AcDbEntity
  8
0
  6
Continuous
 62
     7
370
    25
100
AcDbLine
 10
91.0806873156
 20
70.3415725736
 30
0.0
 11
90.3806873156
 21
69.6415725736
 31
0.0
  0
LINE
  5
E3
330
1F
100
AcDbEntity
  8
0
  6
Continuous
 62
     7
370
    25
100
AcDbLine
 10
90.3806873156
 20
115.6415725736
 30
0.0
 11
90.3806873156
 21
69.6415725736
 31
0.0
  0
LINE
  5
E4
330
1F
100
AcDbEntity
  8
0
  6
Continuous
 62
     7
370
    25
100
AcDbLine
 10
126.6806873156
 20
70.3415725736
 30
0.0
 11
127.3806873156
 21
69.6415725736
 31
0.0
  0
LINE
  5
E5
330
1F
100
AcDbEntity
  8
0
  6
Continuous
 62
     7
370
    25
100
AcDbLine
 10
126.6806873156
 20
114.9415725736
 30
0.0
 11
127.3806873156
 21
115.6415725736
 31
0.0
  0
LINE
  5
E6
330
1F
100
AcDbEntity
  8
0
  6
Continuous
 62
     7
370
    25
100
AcDbLine
 10
127.3806873156
 20
69.6415725736
 30
0.0
 11
127.3806873156
 21
115.6415725736
 31
0.0
  0
LINE
  5
E7
330
1F
100
AcDbEntity
  8
0
  6
Continuous
 62
     7
370
    25
100
AcDbLine
 10
91.0806873156
 20
70.3415725736
 30
0.0
 11
98.1806873156
 21
70.3415725736
 31
0.0
  0
LINE
  5
E8
330
1F
100
AcDbEntity
  8
0
  6
Continuous
 62
     7
370
    25
100
AcDbLine
 10
98.1806873156
 20
70.3415725736
 30
0.0
 11
98.8806873156
 21
69.6415725736
 31
0.0
  0
LINE
  5
E9
330
1F
100
AcDbEntity
  8
0
  6
Continuous
 62
     7
370
    25
100
AcDbLine
 10
90.3806873156
 20
69.6415725736
 30
0.0
 11
98.8806873156
 21
69.6415725736
 31
0.0
  0
LINE
  5
EA
330
1F
100
AcDbEntity
  8
0
  6
Continuous
 62
     7
370
    25
100
AcDbLine
 10
119.5806873156
 20
114.9415725736
 30
0.0
 11
118.8806873156
 21
115.6415725736
 31
0.0
  0
LINE
  5
EB
330
1F
100
AcDbEntity
  8
0
  6
Continuous
 62
     7
370
    25
100
AcDbLine
 10
119.5806873156
 20
70.3415725736
 30
0.0
 11
118.8806873156
 21
69.6415725736
 31
0.0
  0
LINE
  5
EC
330
1F
100
AcDbEntity
  8
0
  6
Continuous
 62
     7
370
    25
100
AcDbLine
 10
118.8806873156
 20
115.6415725736
 30
0.0
 11
118.8806873156
 21
69.6415725736
 31
0.0
  0
LINE
  5
ED
330
1F
100
AcDbEntity
  8
0
  6
Continuous
 62
     7
370
    25
100
AcDbLine
 10
118.8806873156
 20
69.6415725736
 30
0.0
 11
127.3806873156
 21
69.6415725736
 31
0.0
  0
LINE
  5
EE
330
1F
100
AcDbEntity
  8
0
  6
Continuous
 62
     7
370
    25
100
AcDbLine
 10
127.3806873156
 20
115.6415725736
 30
0.0
 11
118.8806873156
 21
115.6415725736
 31
0.0
  0
LINE
  5
EF
330
1F
100
AcDbEntity
  8
0
  6
Continuous
 62
     7
370
    25
100
AcDbLine
 10
98.1806873156
 20
114.9415725736
 30
0.0
 11
91.0806873156
 21
114.9415725736
 31
0.0
  0
LINE
  5
F0
330
1F
100
AcDbEntity
  8
0
  6
Continuous
 62
     7
370
    25
100
AcDbLine
 10
98.1806873156
 20
70.3415725736
 30
0.0
 11
98.1806873156
 21
114.9415725736
 31
0.0
  0
LINE
  5
F1
330
1F
100
AcDbEntity
  8
0
  6
Continuous
 62
     7
370
    25
100
AcDbLine
 10
98.1806873156
 20
114.9415725736
 30
0.0
 11
98.8806873156
 21
115.6415725736
 31
0.0
  0
LINE
  5
F2
330
1F
100
AcDbEntity
  8
0
  6
Continuous
 62
     7
370
    25
100
AcDbLine
 10
98.8806873156
 20
115.6415725736
 30
0.0
 11
90.3806873156
 21
115.6415725736
 31
0.0
  0
LINE
  5
F3
330
1F
100
AcDbEntity
  8
0
  6
Continuous
 62
     7
370
    25
100
AcDbLine
 10
98.8806873156
 20
69.6415725736
 30
0.0
 11
98.8806873156
 21
115.6415725736
 31
0.0
  0
LINE
  5
F4
330
1F
100
AcDbEntity
  8
0
  6
Continuous
 62
     7
370
    25
100
AcDbLine
 10
118.3806873156
 20
69.1415725736
 30
0.0
 11
118.3806873156
 21
116.1415725736
 31
0.0
  0
LINE
  5
F5
330
1F
100
AcDbEntity
  8
0
  6
Continuous
 62
     7
370
    25
100
AcDbLine
 10
99.3806873156
 20
116.1415725736
 30
0.0
 11
99.3806873156
 21
69.1415725736
 31
0.0
  0
ELLIPSE
  5
F6
330
1F
100
AcDbEntity
  8
0
  6
Continuous
 62
     7
370
    25
100
AcDbEllipse
 10
133.8806111515
 20
161.6414964096
 30
0.0
 11
0.353661094584794
 21
0.3536610945847656
 31
0.0
210
0.0
220
0.0
230
0.9999999999999998
 40
0.9996954599
 41
5.49793943702973
 42
7.068431177329423
  0
ELLIPSE
  5
F7
330
1F
100
AcDbEntity
  8
0
  6
Continuous
 62
     7
370
    25
100
AcDbEllipse
 10
83.8807634796
 20
23.6416487376
 30
0.0
 11
-0.3536610945847941
 21
-0.3536610945847905
 31
0.0
210
0.0
220
0.0
230
1.0
 40
0.9996954599
 41
5.497939437029757
 42
7.068431177329446
  0
ELLIPSE
  5
F8
330
1F
100
AcDbEntity
  8
0
  6
Continuous
 62
     7
370
    25
100
AcDbEllipse
 10
86.480733014
 20
161.8153442778
 30
0.0
 11
0.2121966567508764
 21
-0.2121966567508764
 31
0.0
210
0.0
220
0.0
230
0.9999999999999998
 40
0.9996954599
 41
2.356346783439931
 42
3.926838523739621
  0
ELLIPSE
  5
F9
330
1F
100
AcDbEntity
  8
0
  6
Continuous
 62
     7
370
    25
100
AcDbEllipse
 10
131.2806416172
 20
23.4678008694
 30
0.0
 11
-0.2121966567508764
 21
0.2121966567508729
 31
0.0
210
0.0
220
0.0
230
0.9999999999999998
 40
0.9996954599
 41
2.356346783439744
 42
3.926838523739698
  0
LINE
  5
FA
330
1F
100
AcDbEntity
  8
0
  6
Continuous
 62
     7
370
    25
100
AcDbLine
 10
131.280733007
 20
23.167755171
 30
0.0
 11
133.8545808706
 21
23.167755171
 31
0.0
  0
LINE
  5
FB
330
1F
100
AcDbEntity
  8
0
  6
Continuous
 62
     7
370
    25
100
AcDbLine
 10
83.8806111631
 20
23.1415725736
 30
0.0
 11
133.880763468
 21
23.1415725736
 31
0.0
  0
LINE
  5
FC
330
1F
100
AcDbEntity
  8
0
  6
Continuous
 62
     7
370
    25
100
AcDbLine
 10
86.4806416241
 20
162.1153899762
 30
0.0
 11
83.9067937605
 21
162.1153899762
 31
0.0
  0
LINE
  5
FD
330
1F
100
AcDbEntity
  8
0
  6
Continuous
 62
     7
370
    25
100
AcDbLine
 10
133.880763468
 20
162.1415725736
 30
0.0
 11
83.8806111631
 21
162.1415725736
 31
0.0
  0
LINE
  5
FE
330
1F
100
AcDbEntity
  8
0
  6
Continuous
 62
     7
370
    25
100
AcDbLine
 10
122.1385744421
 20
151.4822772492
 30
0.0
 11
122.1385744421
 21
151.1415725736
 31
0.0
  0
LINE
  5
FF
330
1F
100
AcDbEntity
  8
0
  6
Continuous
 62
     7
370
    25
100
AcDbLine
 10
127.622800189
 20
151.4822772492
 30
0.0
 11
127.622800189
 21
151.1415725736
 31
0.0
  0
LINE
  5
100
330
1F
100
AcDbEntity
  8
0
  6
Continuous
 62
     7
370
    25
100
AcDbLine
 10
95.622800189
 20
33.800867898
 30
0.0
 11
95.622800189
 21
34.1415725736
 31
0.0
  0
LINE
  5
101
330
1F
100
AcDbEntity
  8
0
  6
Continuous
 62
     7
370
    25
100
AcDbLine
 10
90.1385744421
 20
33.800867898
 30
0.0
 11
90.1385744421
 21
34.1415725736
 31
0.0
  0
ELLIPSE
  5
102
330
1F
100
AcDbEntity
  8
0
  6
Continuous
 62
     7
370
    25
100
AcDbEllipse
 10
83.906946077
 20
161.6153138122
 30
0.0
 11
-0.3536610945847798
 21
0.3536610945847941
 31
0.0
210
0.0
220
0.0
230
0.9999999999999998
 40
0.9996954599
 41
5.497939437029785
 42
7.06843117732947
  0
CIRCLE
  5
103
330
1F
100
AcDbEntity
  8
0
  6
Continuous
 62
     7
370
    25
100
AcDbCircle
 10
84.7806873156
 20
160.7415725736
 30
0.0
 40
0.6000000000000085
  0
ELLIPSE
  5
104
330
1F
100
AcDbEntity
  8
0
  6
Continuous
 62
     7
370
    25
100
AcDbEllipse
 10
133.8544285541
 20
23.667831335
 30
0.0
 11
0.3536610945847939
 21
-0.3536610945847868
 31
0.0
210
0.0
220
0.0
230
0.9999999999999998
 40
0.9996954599
 41
5.497939437029697
 42
7.068431177329462
  0
CIRCLE
  5
105
330
1F
100
AcDbEntity
  8
0
  6
Continuous
 62
     7
370
    25
100
AcDbCircle
 10
132.9806873156
 20
24.5415725736
 30
0.0
 40
0.6000000000000227
  0
ELLIPSE
  5
106
330
1F
100
AcDbEntity
  8
0
  6
Continuous
 62
     7
370
    25
100
AcDbEllipse
 10
83.8807634796
 20
161.6414964096
 30
0.0
 11
-0.353661094584794
 21
0.3536610945847656
 31
0.0
210
0.0
220
0.0
230
0.9999999999999998
 40
0.9996954599
 41
5.497939437029685
 42
7.068431177329506
  0
ELLIPSE
  5
107
330
1F
100
AcDbEntity
  8
0
  6
Continuous
 62
     7
370
    25
100
AcDbEllipse
 10
133.8806111515
 20
23.6416487376
 30
0.0
 11
0.3536610945847941
 21
-0.3536610945847905
 31
0.0
210
0.0
220
0.0
230
1.0
 40
0.9996954599
 41
5.497939437029738
 42
7.068431177329459
  0
ARC
  5
108
330
1F
100
AcDbEntity
  8
0
  6
Continuous
 62
     7
370
    25
100
AcDbCircle
 10
124.8806873156
 20
154.6415725736
 30
0.0
 40
2.095598151757094
100
AcDbArc
 50
305.9895963129
 51
54.0104036871
  0
SPLINE
  5
109
330
1F
100
AcDbEntity
  8
0
  6
Continuous
 62
     7
370
    25
100
AcDbSpline
210
0.0
220
0.0
230
1.0
 70
     8
 71
     3
 72
     8
 73
     4
 74
     0
 42
0.00000001
 43
0.00000001
 40
0.0
 40
0.0
 40
0.0
 40
0.0
 40
0.0007298054706715
 40
0.0007298054706715
 40
0.0007298054706715
 40
0.0007298054706715
 10
126.1121411398729
 20
156.3371707253613
 30
0.0
 10
126.1665975882308
 20
156.5048222293331
 30
0.0
 10
126.2176742635739
 20
156.673031219625
 30
0.0
 10
126.2663279616187
 20
156.8415725736044
 30
0.0
  0
ARC
  5
10A
330
1F
100
AcDbEntity
  8
0
  6
Continuous
 62
     7
370
    25
100
AcDbCircle
 10
124.8806873156
 20
154.6415725736
 30
0.0
 40
2.600000000000001
100
AcDbArc
 50
302.204227504
 51
57.795772496
  0
SPLINE
  5
10B
330
1F
100
AcDbEntity
  8
0
  6
Continuous
 62
     7
370
    25
100
AcDbSpline
210
0.0
220
0.0
230
1.0
 70
     8
 71
     3
 72
     8
 73
     4
 74
     0
 42
0.00000001
 43
0.00000001
 40
0.0
 40
0.0
 40
0.0
 40
0.0
 40
0.0007298054706715
 40
0.0007298054706715
 40
0.0007298054706715
 40
0.0007298054706715
 10
126.1121411398728
 20
152.9459744218474
 30
0.0
 10
126.1665975882308
 20
152.7783229178756
 30
0.0
 10
126.2176742635739
 20
152.6101139275837
 30
0.0
 10
126.2663279616187
 20
152.4415725736044
 30
0.0
  0
ARC
  5
10C
330
1F
100
AcDbEntity
  8
0
  6
Continuous
 62
     7
370
    25
100
AcDbCircle
 10
92.8806873156
 20
30.6415725736
 30
0.0
 40
2.095598151757077
100
AcDbArc
 50
125.9895963129
 51
234.0104036871
  0
SPLINE
  5
10D
330
1F
100
AcDbEntity
  8
0
  6
Continuous
 62
     7
370
    25
100
AcDbSpline
210
0.0
220
0.0
230
1.0
 70
     8
 71
     3
 72
     8
 73
     4
 74
     0
 42
0.00000001
 43
0.00000001
 40
0.0
 40
0.0
 40
0.0
 40
0.0
 40
0.0007298054706715
 40
0.0007298054706715
 40
0.0007298054706715
 40
0.0007298054706715
 10
91.6492334912542
 20
28.94597442184742
 30
0.0
 10
91.59477704289621
 20
28.77832291787562
 30
0.0
 10
91.54370036755317
 20
28.6101139275837
 30
0.0
 10
91.4950466695084
 20
28.4415725736044
 30
0.0
  0
ARC
  5
10E
330
1F
100
AcDbEntity
  8
0
  6
Continuous
 62
     7
370
    25
100
AcDbCircle
 10
92.8806873156
 20
30.6415725736
 30
0.0
 40
2.599999999999988
100
AcDbArc
 50
122.204227504
 51
237.795772496
  0
SPLINE
  5
10F
330
1F
100
AcDbEntity
  8
0
  6
Continuous
 62
     7
370
    25
100
AcDbSpline
210
0.0
220
0.0
230
1.0
 70
     8
 71
     3
 72
     8
 73
     4
 74
     0
 42
0.00000001
 43
0.00000001
 40
0.0
 40
0.0
 40
0.0
 40
0.0
 40
0.0007298054706715
 40
0.0007298054706715
 40
0.0007298054706715
 40
0.0007298054706715
 10
91.49504666950841
 20
32.84157257360437
 30
0.0
 10
91.54370036755317
 20
32.67303121962507
 30
0.0
 10
91.5947770428964
 20
32.50482222933317
 30
0.0
 10
91.64923349125438
 20
32.33717072536137
 30
0.0
  0
LINE
  5
110
330
1F
100
AcDbEntity
  8
0
  6
Continuous
 62
     7
370
    25
100
AcDbLine
 10
94.2604478003
 20
28.4415725736
 30
0.0
 11
91.5009268308
 21
28.4415725736
 31
0.0
  0
LINE
  5
111
330
1F
100
AcDbEntity
  8
0
  6
Continuous
 62
     7
370
    25
100
AcDbLine
 10
91.6492334913
 20
28.9459744218
 30
0.0
 11
94.1121411399
 21
28.9459744218
 31
0.0
  0
SPLINE
  5
112
330
1F
100
AcDbEntity
  8
0
  6
Continuous
 62
     7
370
    25
100
AcDbSpline
210
0.0
220
0.0
230
1.0
 70
     8
 71
     3
 72
     8
 73
     4
 74
     0
 42
0.00000001
 43
0.00000001
 40
0.0
 40
0.0
 40
0.0
 40
0.0
 40
0.0007298054706715
 40
0.0007298054706715
 40
0.0007298054706715
 40
0.0007298054706715
 10
94.11214113987283
 20
28.94597442184742
 30
0.0
 10
94.16659758823081
 20
28.7783229178756
 30
0.0
 10
94.21767426357385
 20
28.6101139275837
 30
0.0
 10
94.26632796161863
 20
28.4415725736044
 30
0.0
  0
LINE
  5
113
330
1F
100
AcDbEntity
  8
0
  6
Continuous
 62
     7
370
    25
100
AcDbLine
 10
123.5009268308
 20
156.8415725736
 30
0.0
 11
126.2604478003
 21
156.8415725736
 31
0.0
  0
ARC
  5
114
330
1F
100
AcDbEntity
  8
0
  6
Continuous
 62
     7
370
    25
100
AcDbCircle
 10
124.8806873156
 20
154.6415725736
 30
0.0
 40
2.599999999999994
100
AcDbArc
 50
122.204227504
 51
237.795772496
  0
LINE
  5
115
330
1F
100
AcDbEntity
  8
0
  6
Continuous
 62
     7
370
    25
100
AcDbLine
 10
126.2663279616
 20
152.4415725736
 30
0.0
 11
123.4950466695
 21
152.4415725736
 31
0.0
  0
LINE
  5
116
330
1F
100
AcDbEntity
  8
0
  6
Continuous
 62
     7
370
    25
100
AcDbLine
 10
94.1121411399
 20
32.3371707254
 30
0.0
 11
91.6492334913
 21
32.3371707254
 31
0.0
  0
LINE
  5
117
330
1F
100
AcDbEntity
  8
0
  6
Continuous
 62
     7
370
    25
100
AcDbLine
 10
91.4950466695
 20
32.8415725736
 30
0.0
 11
94.2663279616
 21
32.8415725736
 31
0.0
  0
SPLINE
  5
118
330
1F
100
AcDbEntity
  8
0
  6
Continuous
 62
     7
370
    25
100
AcDbSpline
210
0.0
220
0.0
230
1.0
 70
     8
 71
     3
 72
     8
 73
     4
 74
     0
 42
0.00000001
 43
0.00000001
 40
0.0
 40
0.0
 40
0.0
 40
0.0
 40
0.0007298054706715
 40
0.0007298054706715
 40
0.0007298054706715
 40
0.0007298054706715
 10
94.11214113987283
 20
32.33717072536135
 30
0.0
 10
94.16659758823081
 20
32.50482222933315
 30
0.0
 10
94.21767426357385
 20
32.67303121962507
 30
0.0
 10
94.26632796161861
 20
32.84157257360437
 30
0.0
  0
ARC
  5
119
330
1F
100
AcDbEntity
  8
0
  6
Continuous
 62
     7
370
    25
100
AcDbCircle
 10
124.8806873156
 20
154.6415725736
 30
0.0
 40
2.095598151757077
100
AcDbArc
 50
125.9895963129
 51
234.0104036871
  0
SPLINE
  5
11A
330
1F
100
AcDbEntity
  8
0
  6
Continuous
 62
     7
370
    25
100
AcDbSpline
210
0.0
220
0.0
230
1.0
 70
     8
 71
     3
 72
     8
 73
     4
 74
     0
 42
0.00000001
 43
0.00000001
 40
0.0
 40
0.0
 40
0.0
 40
0.0
 40
0.0007298054706715
 40
0.0007298054706715
 40
0.0007298054706715
 40
0.0007298054706715
 10
123.6492334912542
 20
152.9459744218474
 30
0.0
 10
123.5947770428963
 20
152.7783229178756
 30
0.0
 10
123.5437003675532
 20
152.6101139275837
 30
0.0
 10
123.4950466695084
 20
152.4415725736044
 30
0.0
  0
SPLINE
  5
11B
330
1F
100
AcDbEntity
  8
0
  6
Continuous
 62
     7
370
    25
100
AcDbSpline
210
0.0
220
0.0
230
1.0
 70
     8
 71
     3
 72
     8
 73
     4
 74
     0
 42
0.00000001
 43
0.00000001
 40
0.0
 40
0.0
 40
0.0
 40
0.0
 40
0.0007298054706715
 40
0.0007298054706715
 40
0.0007298054706715
 40
0.0007298054706715
 10
123.4950466695084
 20
156.8415725736044
 30
0.0
 10
123.5437003675532
 20
156.673031219625
 30
0.0
 10
123.5947770428964
 20
156.5048222293331
 30
0.0
 10
123.6492334912544
 20
156.3371707253613
 30
0.0
  0
LINE
  5
11C
330
1F
100
AcDbEntity
  8
0
  6
Continuous
 62
     7
370
    25
100
AcDbLine
 10
126.1121411399
 20
156.3371707254
 30
0.0
 11
123.6492334913
 21
156.3371707254
 31
0.0
  0
ARC
  5
11D
330
1F
100
AcDbEntity
  8
0
  6
Continuous
 62
     7
370
    25
100
AcDbCircle
 10
92.8806873156
 20
30.6415725736
 30
0.0
 40
2.599999999999996
100
AcDbArc
 50
302.204227504
 51
57.795772496
  0
ARC
  5
11E
330
1F
100
AcDbEntity
  8
0
  6
Continuous
 62
     7
370
    25
100
AcDbCircle
 10
92.8806873156
 20
30.6415725736
 30
0.0
 40
2.095598151757085
100
AcDbArc
 50
305.9895963129
 51
54.0104036871
  0
LINE
  5
11F
330
1F
100
AcDbEntity
  8
0
  6
Continuous
 62
     7
370
    25
100
AcDbLine
 10
123.6492334913
 20
152.9459744218
 30
0.0
 11
126.1121411399
 21
152.9459744218
 31
0.0
  0
ELLIPSE
  5
120
330
1F
100
AcDbEntity
  8
0
  6
Continuous
 62
     7
370
    25
100
AcDbEllipse
 10
123.5099412638
 20
153.6115311975
 30
0.0
 11
-1.414644378339162
 21
-1.414644378339148
 31
0.0
210
0.0
220
0.0
230
1.0
 40
0.9996954599
 41
6.024590382779377
 42
7.068431177329454
  0
ELLIPSE
  5
121
330
1F
100
AcDbEntity
  8
0
  6
Continuous
 62
     7
370
    25
100
AcDbEllipse
 10
94.2514333673
 20
31.6716139497
 30
0.0
 11
1.414644378339162
 21
1.414644378339169
 31
0.0
210
0.0
220
0.0
230
0.9999999999999998
 40
0.9996954599
 41
6.024590382779396
 42
7.068431177329451
  0
ELLIPSE
  5
122
330
1F
100
AcDbEntity
  8
0
  6
Continuous
 62
     7
370
    25
100
AcDbEllipse
 10
126.2514333673
 20
153.6115311975
 30
0.0
 11
1.414644378339148
 21
-1.414644378339148
 31
0.0
210
0.0
220
0.0
230
0.9999999999999998
 40
0.9996954599
 41
5.497939437029738
 42
6.54178023157978
  0
ELLIPSE
  5
123
330
1F
100
AcDbEntity
  8
0
  6
Continuous
 62
     7
370
    25
100
AcDbEllipse
 10
91.5099412638
 20
31.6716139497
 30
0.0
 11
-1.414644378339176
 21
1.414644378339169
 31
0.0
210
0.0
220
0.0
230
0.9999999999999998
 40
0.9996954599
 41
5.497939437029732
 42
6.541780231579808
  0
LINE
  5
124
330
1F
100
AcDbEntity
  8
0
  6
Continuous
 62
     7
370
    25
100
AcDbLine
 10
94.2520426331
 20
33.6719186058
 30
0.0
 11
95.6691638499
 21
33.6719186058
 31
0.0
  0
LINE
  5
125
330
1F
100
AcDbEntity
  8
0
  6
Continuous
 62
     7
370
    25
100
AcDbLine
 10
90.0922107812
 20
33.6719186058
 30
0.0
 11
91.509331998
 21
33.6719186058
 31
0.0
  0
LINE
  5
126
330
1F
100
AcDbEntity
  8
0
  6
Continuous
 62
     7
370
    25
100
AcDbLine
 10
90.0922107812
 20
33.800867898
 30
0.0
 11
95.6691638499
 21
33.800867898
 31
0.0
  0
LINE
  5
127
330
1F
100
AcDbEntity
  8
0
  6
Continuous
 62
     7
370
    25
100
AcDbLine
 10
123.509331998
 20
151.6112265414
 30
0.0
 11
122.0922107812
 21
151.6112265414
 31
0.0
  0
LINE
  5
128
330
1F
100
AcDbEntity
  8
0
  6
Continuous
 62
     7
370
    25
100
AcDbLine
 10
127.6691638511
 20
151.6112265414
 30
0.0
 11
126.2520426331
 21
151.6112265414
 31
0.0
  0
LINE
  5
129
330
1F
100
AcDbEntity
  8
0
  6
Continuous
 62
     7
370
    25
100
AcDbLine
 10
122.0922107812
 20
151.4822772492
 30
0.0
 11
127.6691638499
 21
151.4822772492
 31
0.0
  0
LINE
  5
12A
330
1F
100
AcDbEntity
  8
0
  6
Continuous
 62
     7
370
    25
100
AcDbLine
 10
91.6735557768
 20
29.0201143837
 30
0.0
 11
94.0878188543
 21
29.0201143837
 31
0.0
  0
LWPOLYLINE
  5
12B
330
1F
100
AcDbEntity
  8
0
  6
Continuous
 62
     7
370
    25
100
AcDbPolyline
 90
        3
 70
   128
 43
0.0
 10
94.0878188543
 20
29.0201143837
 10
94.0993533023
 20
28.9851390897
 10
94.1121411399
 20
28.9459744218
  0
LWPOLYLINE
  5
12C
330
1F
100
AcDbEntity
  8
0
  6
Continuous
 62
     7
370
    25
100
AcDbPolyline
 90
        3
 70
   128
 43
0.0
 10
91.6735557768
 20
29.0201143837
 10
91.6620213289
 20
28.9851390897
 10
91.6492334913
 20
28.9459744218
  0
ARC
  5
12D
330
1F
100
AcDbEntity
  8
0
  6
Continuous
 62
     7
370
    25
100
AcDbCircle
 10
124.8806873156
 20
154.6415725736
 30
0.0
 40
2.021458189883183
100
AcDbArc
 50
126.6666812575
 51
233.3333187425
  0
LWPOLYLINE
  5
12E
330
1F
100
AcDbEntity
  8
0
  6
Continuous
 62
     7
370
    25
100
AcDbPolyline
 90
        3
 70
   128
 43
0.0
 10
123.6735557768
 20
153.0201143837
 10
123.6620213289
 20
152.9851390897
 10
123.6492334913
 20
152.9459744218
  0
LWPOLYLINE
  5
12F
330
1F
100
AcDbEntity
  8
0
  6
Continuous
 62
     7
370
    25
100
AcDbPolyline
 90
        3
 70
   128
 43
0.0
 10
123.6735557768
 20
156.2630307635
 10
123.6620213289
 20
156.2980060575
 10
123.6492334913
 20
156.3371707254
  0
ARC
  5
130
330
1F
100
AcDbEntity
  8
0
  6
Continuous
 62
     7
370
    25
100
AcDbCircle
 10
124.8806873156
 20
154.6415725736
 30
0.0
 40
2.021458189883191
100
AcDbArc
 50
306.6666812575
 51
53.3333187425
  0
LWPOLYLINE
  5
131
330
1F
100
AcDbEntity
  8
0
  6
Continuous
 62
     7
370
    25
100
AcDbPolyline
 90
        3
 70
   128
 43
0.0
 10
126.0878188543
 20
156.2630307635
 10
126.0993533023
 20
156.2980060575
 10
126.1121411399
 20
156.3371707254
  0
LWPOLYLINE
  5
132
330
1F
100
AcDbEntity
  8
0
  6
Continuous
 62
     7
370
    25
100
AcDbPolyline
 90
        3
 70
   128
 43
0.0
 10
126.0878188543
 20
153.0201143837
 10
126.0993533023
 20
152.9851390897
 10
126.1121411399
 20
152.9459744218
  0
LINE
  5
133
330
1F
100
AcDbEntity
  8
0
  6
Continuous
 62
     7
370
    25
100
AcDbLine
 10
126.0878188543
 20
156.2630307635
 30
0.0
 11
123.6735557768
 21
156.2630307635
 31
0.0
  0
LINE
  5
134
330
1F
100
AcDbEntity
  8
0
  6
Continuous
 62
     7
370
    25
100
AcDbLine
 10
123.6735557768
 20
153.0201143837
 30
0.0
 11
126.0878188543
 21
153.0201143837
 31
0.0
  0
ARC
  5
135
330
1F
100
AcDbEntity
  8
0
  6
Continuous
 62
     7
370
    25
100
AcDbCircle
 10
92.8806873156
 20
30.6415725736
 30
0.0
 40
2.021458189883171
100
AcDbArc
 50
126.6666812575
 51
233.3333187425
  0
LWPOLYLINE
  5
136
330
1F
100
AcDbEntity
  8
0
  6
Continuous
 62
     7
370
    25
100
AcDbPolyline
 90
        3
 70
   128
 43
0.0
 10
91.6735557768
 20
32.2630307635
 10
91.6620213289
 20
32.2980060575
 10
91.6492334913
 20
32.3371707254
  0
ARC
  5
137
330
1F
100
AcDbEntity
  8
0
  6
Continuous
 62
     7
370
    25
100
AcDbCircle
 10
92.8806873156
 20
30.6415725736
 30
0.0
 40
2.02145818988318
100
AcDbArc
 50
306.6666812575
 51
53.3333187425
  0
LWPOLYLINE
  5
138
330
1F
100
AcDbEntity
  8
0
  6
Continuous
 62
     7
370
    25
100
AcDbPolyline
 90
        3
 70
   128
 43
0.0
 10
94.0878188543
 20
32.2630307635
 10
94.0993533023
 20
32.2980060575
 10
94.1121411399
 20
32.3371707254
  0
LINE
  5
139
330
1F
100
AcDbEntity
  8
0
  6
Continuous
 62
     7
370
    25
100
AcDbLine
 10
94.0878188543
 20
32.2630307635
 30
0.0
 11
91.6735557768
 21
32.2630307635
 31
0.0
  0
SPLINE
  5
13A
330
1F
100
AcDbEntity
  8
0
  6
Continuous
 62
     7
370
    25
100
AcDbSpline
210
0.0
220
0.0
230
1.0
 70
     8
 71
     3
 72
     8
 73
     4
 74
     0
 42
0.00000001
 43
0.00000001
 40
3.212267112911398
 40
3.212267112911398
 40
3.212267112911398
 40
3.212267112911398
 40
3.604813912922348
 40
3.604813912922348
 40
3.604813912922348
 40
3.604813912922348
 10
95.78393023429742
 20
33.82370046905844
 30
0.0
 10
95.74766504763764
 20
33.80867474997145
 30
0.0
 10
95.70843154273598
 20
33.80086789834512
 30
0.0
 10
95.66916384988247
 20
33.80086789798192
 30
0.0
  0
SPLINE
  5
13B
330
1F
100
AcDbEntity
  8
0
  6
Continuous
 62
     7
370
    25
100
AcDbSpline
210
0.0
220
0.0
230
1.0
 70
     8
 71
     3
 72
     8
 73
     4
 74
     0
 42
0.00000001
 43
0.00000001
 40
2.819720289788631
 40
2.819720289788631
 40
2.819720289788631
 40
2.819720289788631
 40
3.212267112911398
 40
3.212267112911398
 40
3.212267112911398
 40
3.212267112911398
 10
95.8812100487183
 20
33.88872479079424
 30
0.0
 10
95.85345707642435
 20
33.86095913132274
 30
0.0
 10
95.82019542095719
 20
33.83872618814544
 30
0.0
 10
95.78393023429742
 20
33.82370046905844
 30
0.0
  0
SPLINE
  5
13C
330
1F
100
AcDbEntity
  8
0
  6
Continuous
 62
     7
370
    25
100
AcDbSpline
210
0.0
220
0.0
230
1.0
 70
     8
 71
     3
 72
     8
 73
     4
 74
     0
 42
0.00000001
 43
0.00000001
 40
2.427173477190735
 40
2.427173477190735
 40
2.427173477190735
 40
2.427173477190735
 40
2.819720289788631
 40
2.819720289788631
 40
2.819720289788631
 40
2.819720289788631
 10
95.94620465838807
 20
33.98604907635336
 30
0.0
 10
95.931185805101
 20
33.94976731114281
 30
0.0
 10
95.90896302101226
 20
33.91649045026574
 30
0.0
 10
95.8812100487183
 20
33.88872479079424
 30
0.0
  0
SPLINE
  5
13D
330
1F
100
AcDbEntity
  8
0
  6
Continuous
 62
     7
370
    25
100
AcDbSpline
210
0.0
220
0.0
230
1.0
 70
     8
 71
     3
 72
     8
 73
     4
 74
     0
 42
0.00000001
 43
0.00000001
 40
2.034626666366016
 40
2.034626666366016
 40
2.034626666366016
 40
2.034626666366016
 40
2.427173477190735
 40
2.427173477190735
 40
2.427173477190735
 40
2.427173477190735
 10
95.96902679640138
 20
34.10086792583287
 30
0.0
 10
95.96902679603838
 20
34.06158228185383
 30
0.0
 10
95.96122351167514
 20
34.02233084156391
 30
0.0
 10
95.94620465838807
 20
33.98604907635336
 30
0.0
  0
SPLINE
  5
13E
330
1F
100
AcDbEntity
  8
0
  6
Continuous
 62
     7
370
    25
100
AcDbSpline
210
0.0
220
0.0
230
1.0
 70
     8
 71
     3
 72
    10
 73
     6
 74
     0
 42
0.00000001
 43
0.00000001
 40
0.0
 40
0.0
 40
0.0
 40
0.0
 40
0.4263830692439636
 40
0.834146993801684
 40
0.9999999999999999
 40
0.9999999999999999
 40
0.9999999999999999
 40
0.9999999999999999
 10
95.66916384988247
 20
33.67191860582471
 30
0.0
 10
95.71920263470456
 20
33.67749841197443
 30
0.0
 10
95.81709512843521
 20
33.68841436727734
 30
0.0
 10
95.92639447810275
 20
33.74622352334367
 30
0.0
 10
95.9685101737246
 20
33.79936013993942
 30
0.0
 10
95.98068731556351
 20
33.81472382104626
 30
0.0
  0
SPLINE
  5
13F
330
1F
100
AcDbEntity
  8
0
  6
Continuous
 62
     7
370
    25
100
AcDbSpline
210
0.0
220
0.0
230
1.0
 70
     8
 71
     3
 72
     8
 73
     4
 74
     0
 42
0.00000001
 43
0.00000001
 40
6.997604490025848
 40
6.997604490025848
 40
6.997604490025848
 40
6.997604490025848
 40
7.390151294403385
 40
7.390151294403385
 40
7.390151294403385
 40
7.390151294403385
 10
127.9462046583881
 20
151.2970960708554
 30
0.0
 10
127.9612235116752
 20
151.2608143056447
 30
0.0
 10
127.9690267960387
 20
151.2215628653551
 30
0.0
 10
127.9690267964014
 20
151.1822772213759
 30
0.0
  0
SPLINE
  5
140
330
1F
100
AcDbEntity
  8
0
  6
Continuous
 62
     7
370
    25
100
AcDbSpline
210
0.0
220
0.0
230
1.0
 70
     8
 71
     3
 72
     8
 73
     4
 74
     0
 42
0.00000001
 43
0.00000001
 40
6.605057671042802
 40
6.605057671042802
 40
6.605057671042802
 40
6.605057671042802
 40
6.997604490025848
 40
6.997604490025848
 40
6.997604490025848
 40
6.997604490025848
 10
127.8812100487184
 20
151.3944203564145
 30
0.0
 10
127.9089630210124
 20
151.366654696943
 30
0.0
 10
127.931185805101
 20
151.3333778360661
 30
0.0
 10
127.9462046583881
 20
151.2970960708554
 30
0.0
  0
SPLINE
  5
141
330
1F
100
AcDbEntity
  8
0
  6
Continuous
 62
     7
370
    25
100
AcDbSpline
210
0.0
220
0.0
230
1.0
 70
     8
 71
     3
 72
     8
 73
     4
 74
     0
 42
0.00000001
 43
0.00000001
 40
6.21251085949875
 40
6.21251085949875
 40
6.21251085949875
 40
6.21251085949875
 40
6.605057671042844
 40
6.605057671042844
 40
6.605057671042844
 40
6.605057671042844
 10
127.7839302342975
 20
151.4594446781503
 30
0.0
 10
127.8201954209573
 20
151.4444189590633
 30
0.0
 10
127.8534570764244
 20
151.422186015886
 30
0.0
 10
127.8812100487184
 20
151.3944203564145
 30
0.0
  0
SPLINE
  5
142
330
1F
100
AcDbEntity
  8
0
  6
Continuous
 62
     7
370
    25
100
AcDbSpline
210
0.0
220
0.0
230
1.0
 70
     8
 71
     3
 72
     8
 73
     4
 74
     0
 42
0.00000001
 43
0.00000001
 40
5.819964047847034
 40
5.819964047847034
 40
5.819964047847034
 40
5.819964047847034
 40
6.21251085949875
 40
6.21251085949875
 40
6.21251085949875
 40
6.21251085949875
 10
127.6691638498825
 20
151.4822772492268
 30
0.0
 10
127.708431542736
 20
151.4822772488636
 30
0.0
 10
127.7476650476377
 20
151.4744703972373
 30
0.0
 10
127.7839302342975
 20
151.4594446781503
 30
0.0
  0
SPLINE
  5
143
330
1F
100
AcDbEntity
  8
0
  6
Continuous
 62
     7
370
    25
100
AcDbSpline
210
0.0
220
0.0
230
1.0
 70
     8
 71
     3
 72
    10
 73
     6
 74
     0
 42
0.00000001
 43
0.00000001
 40
0.0
 40
0.0
 40
0.0
 40
0.0
 40
0.3121496582347226
 40
0.7389760264037194
 40
1.0
 40
1.0
 40
1.0
 40
1.0
 10
127.9702940176592
 20
151.4808874363864
 30
0.0
 10
127.9449806727578
 20
151.5054658641002
 30
0.0
 10
127.8850544337349
 20
151.5636522768292
 30
0.0
 10
127.7755192431353
 20
151.6042474337325
 30
0.0
 10
127.6984209471938
 20
151.6093066723541
 30
0.0
 10
127.6691638510753
 20
151.611226541384
 30
0.0
  0
SPLINE
  5
144
330
1F
100
AcDbEntity
  8
0
  6
Continuous
 62
     7
370
    25
100
AcDbSpline
210
0.0
220
0.0
230
1.0
 70
     8
 71
     3
 72
     8
 73
     4
 74
     0
 42
0.00000001
 43
0.00000001
 40
6.353859766709694
 40
6.353859766709694
 40
6.353859766709694
 40
6.353859766709694
 40
6.746406566512133
 40
6.746406566512133
 40
6.746406566512133
 40
6.746406566512133
 10
121.9774443968296
 20
151.4594446781503
 30
0.0
 10
122.0137095834894
 20
151.4744703972374
 30
0.0
 10
122.052943088391
 20
151.4822772488636
 30
0.0
 10
122.0922107812445
 20
151.4822772492268
 30
0.0
  0
SPLINE
  5
145
330
1F
100
AcDbEntity
  8
0
  6
Continuous
 62
     7
370
    25
100
AcDbSpline
210
0.0
220
0.0
230
1.0
 70
     8
 71
     3
 72
     8
 73
     4
 74
     0
 42
0.00000001
 43
0.00000001
 40
5.961312943135445
 40
5.961312943135445
 40
5.961312943135445
 40
5.961312943135445
 40
6.353859766709694
 40
6.353859766709694
 40
6.353859766709694
 40
6.353859766709694
 10
121.8801645824087
 20
151.3944203564145
 30
0.0
 10
121.9079175547027
 20
151.4221860158859
 30
0.0
 10
121.9411792101698
 20
151.4444189590632
 30
0.0
 10
121.9774443968296
 20
151.4594446781503
 30
0.0
  0
SPLINE
  5
146
330
1F
100
AcDbEntity
  8
0
  6
Continuous
 62
     7
370
    25
100
AcDbSpline
210
0.0
220
0.0
230
1.0
 70
     8
 71
     3
 72
     8
 73
     4
 74
     0
 42
0.00000001
 43
0.00000001
 40
5.568766130957789
 40
5.568766130957789
 40
5.568766130957789
 40
5.568766130957789
 40
5.961312943135445
 40
5.961312943135445
 40
5.961312943135445
 40
5.961312943135445
 10
121.8151699727389
 20
151.2970960708554
 30
0.0
 10
121.830188826026
 20
151.3333778360661
 30
0.0
 10
121.8524116101147
 20
151.3666546969431
 30
0.0
 10
121.8801645824087
 20
151.3944203564145
 30
0.0
  0
SPLINE
  5
147
330
1F
100
AcDbEntity
  8
0
  6
Continuous
 62
     7
370
    25
100
AcDbSpline
210
0.0
220
0.0
230
1.0
 70
     8
 71
     3
 72
     8
 73
     4
 74
     0
 42
0.00000001
 43
0.00000001
 40
5.176219319955784
 40
5.176219319955784
 40
5.176219319955784
 40
5.176219319955784
 40
5.568766130957789
 40
5.568766130957789
 40
5.568766130957789
 40
5.568766130957789
 10
121.7923478347256
 20
151.1822772213759
 30
0.0
 10
121.7923478350886
 20
151.2215628653551
 30
0.0
 10
121.8001511194519
 20
151.2608143056447
 30
0.0
 10
121.8151699727389
 20
151.2970960708554
 30
0.0
  0
SPLINE
  5
148
330
1F
100
AcDbEntity
  8
0
  6
Continuous
 62
     7
370
    25
100
AcDbSpline
210
0.0
220
0.0
230
1.0
 70
     8
 71
     3
 72
    10
 73
     6
 74
     0
 42
0.00000001
 43
0.00000001
 40
0.0
 40
0.0
 40
0.0
 40
0.0
 40
0.4488416318294292
 40
0.8780834064228331
 40
1.0
 40
1.0
 40
1.0
 40
1.0
 10
122.0922107812445
 20
151.611226541384
 30
0.0
 10
122.0422698470877
 20
151.6055517561306
 30
0.0
 10
121.9445687817797
 20
151.5944499901341
 30
0.0
 10
121.8396769369921
 20
151.5405637400588
 30
0.0
 10
121.800822324755
 20
151.4924628076419
 30
0.0
 10
121.7922276589706
 20
151.4818228497518
 30
0.0
  0
SPLINE
  5
149
330
1F
100
AcDbEntity
  8
0
  6
Continuous
 62
     7
370
    25
100
AcDbSpline
210
0.0
220
0.0
230
1.0
 70
     8
 71
     3
 72
     8
 73
     4
 74
     0
 42
0.00000001
 43
0.00000001
 40
3.856011836400866
 40
3.856011836400866
 40
3.856011836400866
 40
3.856011836400866
 40
4.248558640813568
 40
4.248558640813568
 40
4.248558640813568
 40
4.248558640813568
 10
89.81516997273896
 20
33.98604907635336
 30
0.0
 10
89.80015111945191
 20
34.02233084156391
 30
0.0
 10
89.7923478350884
 20
34.0615822818538
 30
0.0
 10
89.79234783472566
 20
34.10086792583287
 30
0.0
  0
SPLINE
  5
14A
330
1F
100
AcDbEntity
  8
0
  6
Continuous
 62
     7
370
    25
100
AcDbSpline
210
0.0
220
0.0
230
1.0
 70
     8
 71
     3
 72
     8
 73
     4
 74
     0
 42
0.00000001
 43
0.00000001
 40
3.46346501746032
 40
3.46346501746032
 40
3.46346501746032
 40
3.46346501746032
 40
3.856011836400866
 40
3.856011836400866
 40
3.856011836400866
 40
3.856011836400866
 10
89.88016458240872
 20
33.88872479079424
 30
0.0
 10
89.85241161011473
 20
33.91649045026574
 30
0.0
 10
89.830188826026
 20
33.94976731114281
 30
0.0
 10
89.81516997273896
 20
33.98604907635336
 30
0.0
  0
SPLINE
  5
14B
330
1F
100
AcDbEntity
  8
0
  6
Continuous
 62
     7
370
    25
100
AcDbSpline
210
0.0
220
0.0
230
1.0
 70
     8
 71
     3
 72
     8
 73
     4
 74
     0
 42
0.00000001
 43
0.00000001
 40
3.070918205849775
 40
3.070918205849775
 40
3.070918205849775
 40
3.070918205849775
 40
3.46346501746032
 40
3.46346501746032
 40
3.46346501746032
 40
3.46346501746032
 10
89.97744439682961
 20
33.82370046905844
 30
0.0
 10
89.94117921016984
 20
33.83872618814544
 30
0.0
 10
89.90791755470272
 20
33.86095913132274
 30
0.0
 10
89.88016458240872
 20
33.88872479079424
 30
0.0
  0
SPLINE
  5
14C
330
1F
100
AcDbEntity
  8
0
  6
Continuous
 62
     7
370
    25
100
AcDbSpline
210
0.0
220
0.0
230
1.0
 70
     8
 71
     3
 72
     8
 73
     4
 74
     0
 42
0.00000001
 43
0.00000001
 40
2.67837139425724
 40
2.67837139425724
 40
2.67837139425724
 40
2.67837139425724
 40
3.070918205849775
 40
3.070918205849775
 40
3.070918205849775
 40
3.070918205849775
 10
90.09221078124456
 20
33.80086789798192
 30
0.0
 10
90.05294308839106
 20
33.80086789834512
 30
0.0
 10
90.01370958348939
 20
33.80867474997145
 30
0.0
 10
89.97744439682961
 20
33.82370046905844
 30
0.0
  0
SPLINE
  5
14D
330
1F
100
AcDbEntity
  8
0
  6
Continuous
 62
     7
370
    25
100
AcDbSpline
210
0.0
220
0.0
230
1.0
 70
     8
 71
     3
 72
    10
 73
     6
 74
     0
 42
0.00000001
 43
0.00000001
 40
0.0
 40
0.0
 40
0.0
 40
0.0
 40
0.3121496571370082
 40
0.7389760238025136
 40
1.0
 40
1.0
 40
1.0
 40
1.0
 10
89.79108061346781
 20
33.80225771082243
 30
0.0
 10
89.81639395836953
 20
33.77767928310948
 30
0.0
 10
89.87632019739276
 20
33.71949287038285
 30
0.0
 10
89.98585538837469
 20
33.67889771331792
 30
0.0
 10
90.06295368472578
 20
33.67383847482274
 30
0.0
 10
90.09221078124456
 20
33.67191860582471
 30
0.0
  0
LINE
  5
14E
330
1F
100
AcDbEntity
  8
0
  6
Continuous
 62
     7
370
    25
100
AcDbLine
 10
121.7923478347
 20
150.8014166505
 30
0.0
 11
121.7923478347
 21
151.1822772214
 31
0.0
  0
LINE
  5
14F
330
1F
100
AcDbEntity
  8
0
  6
Continuous
 62
     7
370
    25
100
AcDbLine
 10
89.7923478347
 20
34.4817183698
 30
0.0
 11
89.7923478347
 21
34.1008679258
 31
0.0
  0
LINE
  5
150
330
1F
100
AcDbEntity
  8
0
  6
Continuous
 62
     7
370
    25
100
AcDbLine
 10
127.9690267964
 20
151.1822772214
 30
0.0
 11
127.9690267964
 21
150.8014267774
 31
0.0
  0
LINE
  5
151
330
1F
100
AcDbEntity
  8
0
  6
Continuous
 62
     7
370
    25
100
AcDbLine
 10
95.9690267964
 20
34.1008679258
 30
0.0
 11
95.9690267964
 21
34.4817284967
 31
0.0
  0
ELLIPSE
  5
152
330
1F
100
AcDbEntity
  8
0
  6
Continuous
 62
     7
370
    25
100
AcDbEllipse
 10
133.8806682764
 20
23.6415916128
 30
0.0
 11
-0.3535803155654662
 21
0.3535803155654413
 31
0.0
210
0.0
220
0.0
230
1.0
 40
0.9999238505
 41
2.356232566403163
 42
3.926952740776317
  0
LINE
  5
153
330
1F
100
AcDbEntity
  8
0
  6
Continuous
 62
     7
370
    25
100
AcDbLine
 10
83.8806682771
 20
23.1415725736
 30
0.0
 11
133.880706354
 21
23.1415725736
 31
0.0
  0
ELLIPSE
  5
154
330
1F
100
AcDbEntity
  8
0
  6
Continuous
 62
     7
370
    25
100
AcDbEllipse
 10
83.8807063548
 20
23.6415916128
 30
0.0
 11
0.353580315565452
 21
0.3535803155654413
 31
0.0
210
0.0
220
0.0
230
1.0
 40
0.9999238505
 41
2.356232566403266
 42
3.926952740776357
  0
LINE
  5
155
330
1F
100
AcDbEntity
  8
0
  6
Continuous
 62
     7
370
    25
100
AcDbLine
 10
83.3806873156
 20
161.6415916121
 30
0.0
 11
83.3806873156
 21
23.6415535351
 31
0.0
  0
ELLIPSE
  5
156
330
1F
100
AcDbEntity
  8
0
  6
Continuous
 62
     7
370
    25
100
AcDbEllipse
 10
83.8807063548
 20
161.6415535344
 30
0.0
 11
0.353580315565452
 21
-0.3535803155654662
 31
0.0
210
0.0
220
0.0
230
0.9999999999999998
 40
0.9999238505
 41
2.356232566403253
 42
3.926952740776387
  0
LINE
  5
157
330
1F
100
AcDbEntity
  8
0
  6
Continuous
 62
     7
370
    25
100
AcDbLine
 10
133.880706354
 20
162.1415725736
 30
0.0
 11
83.8806682771
 21
162.1415725736
 31
0.0
  0
ELLIPSE
  5
158
330
1F
100
AcDbEntity
  8
0
  6
Continuous
 62
     7
370
    25
100
AcDbEllipse
 10
133.8806682764
 20
161.6415535344
 30
0.0
 11
-0.3535803155654662
 21
-0.3535803155654377
 31
0.0
210
0.0
220
0.0
230
0.9999999999999998
 40
0.9999238505
 41
2.35623256640334
 42
3.926952740776455
  0
LINE
  5
159
330
1F
100
AcDbEntity
  8
0
  6
Continuous
 62
     7
370
    25
100
AcDbLine
 10
134.3806873156
 20
23.6415535351
 30
0.0
 11
134.3806873156
 21
161.6415916121
 31
0.0
  0
ELLIPSE
  5
15A
330
1F
100
AcDbEntity
  8
0
  6
Continuous
 62
     7
370
    25
100
AcDbEllipse
 10
107.302643163
 20
78.0244713105
 30
0.0
 11
0.0
 21
2.799999999999997
 31
0.0
210
0.0
220
0.0
230
1.0
 40
0.6528729116
 41
4.712388980384699
 42
5.14219355003478
  0
LINE
  5
15B
330
1F
100
AcDbEntity
  8
0
  6
Continuous
 62
     7
370
    25
100
AcDbLine
 10
109.1306873156
 20
75.1415725736
 30
0.0
 11
109.1306873156
 21
78.0244713105
 31
0.0
  0
LINE
  5
15C
330
1F
100
AcDbEntity
  8
0
  6
Continuous
 62
     7
370
    25
100
AcDbLine
 10
109.1306873156
 20
75.1415725736
 30
0.0
 11
108.9644215842
 21
75.1415725736
 31
0.0
  0
LINE
  5
15D
330
1F
100
AcDbEntity
  8
0
  6
Continuous
 62
     7
370
    25
100
AcDbLine
 10
108.6306873156
 20
75.1415725736
 30
0.0
 11
108.6306873156
 21
78.0244713105
 31
0.0
  0
LINE
  5
15E
330
1F
100
AcDbEntity
  8
0
  6
Continuous
 62
     7
370
    25
100
AcDbLine
 10
108.6306873156
 20
75.1415725736
 30
0.0
 11
99.3806873156
 21
75.1415725736
 31
0.0
  0
SPLINE
  5
15F
330
1F
100
AcDbEntity
  8
0
  6
Continuous
 62
     7
370
    25
100
AcDbSpline
210
0.0
220
0.0
230
1.0
 70
     8
 71
     3
 72
    14
 73
    10
 74
     0
 42
0.00000001
 43
0.00000001
 40
0.0
 40
0.0
 40
0.0
 40
0.0
 40
0.25
 40
0.25
 40
0.5
 40
0.5
 40
0.75
 40
0.75
 40
1.0
 40
1.0
 40
1.0
 40
1.0
 10
108.9644215841518
 20
79.19121214447155
 30
0.0
 10
108.9581755564887
 20
79.2120832436361
 30
0.0
 10
108.9499317436622
 20
79.23226832880262
 30
0.0
 10
108.9241854748726
 20
79.26835333069043
 30
0.0
 10
108.9045902858609
 20
79.28536765833844
 30
0.0
 10
108.8570198805559
 20
79.28547873035298
 30
0.0
 10
108.8372195389829
 20
79.2683463362378
 30
0.0
 10
108.8116135424241
 20
79.23255670221357
 30
0.0
 10
108.8032099390427
 20
79.21211954703935
 30
0.0
 10
108.7969530469753
 20
79.19121214447155
 30
0.0
  0
ELLIPSE
  5
160
330
1F
100
AcDbEntity
  8
0
  6
Continuous
 62
     7
370
    25
100
AcDbEllipse
 10
110.4587314681
 20
78.0244713105
 30
0.0
 11
0.0
 21
2.799999999999997
 31
0.0
210
0.0
220
0.0
230
1.0
 40
0.6528729116
 41
1.140991757144814
 42
1.570796326794897
  0
LINE
  5
161
330
1F
100
AcDbEntity
  8
0
  6
Continuous
 62
     7
370
    25
100
AcDbLine
 10
108.6306873156
 20
107.2586738367
 30
0.0
 11
108.6306873156
 21
110.1415725736
 31
0.0
  0
LINE
  5
162
330
1F
100
AcDbEntity
  8
0
  6
Continuous
 62
     7
370
    25
100
AcDbLine
 10
108.6306873156
 20
110.1415725736
 30
0.0
 11
99.3806873156
 21
110.1415725736
 31
0.0
  0
ELLIPSE
  5
163
330
1F
100
AcDbEntity
  8
0
  6
Continuous
 62
     7
370
    25
100
AcDbEllipse
 10
110.4587314681
 20
107.2586738367
 30
0.0
 11
0.0
 21
2.799999999999997
 31
0.0
210
0.0
220
0.0
230
1.0
 40
0.6528729116
 41
1.570796326794897
 42
2.000600896444975
  0
LINE
  5
164
330
1F
100
AcDbEntity
  8
0
  6
Continuous
 62
     7
370
    25
100
AcDbLine
 10
108.6306873156
 20
110.1415725736
 30
0.0
 11
108.796953047
 21
110.1415725736
 31
0.0
  0
LINE
  5
165
330
1F
100
AcDbEntity
  8
0
  6
Continuous
 62
     7
370
    25
100
AcDbLine
 10
108.796953047
 20
75.1415725736
 30
0.0
 11
108.6306873156
 21
75.1415725736
 31
0.0
  0
SPLINE
  5
166
330
1F
100
AcDbEntity
  8
0
  6
Continuous
 62
     7
370
    25
100
AcDbSpline
210
0.0
220
0.0
230
1.0
 70
     8
 71
     3
 72
    14
 73
    10
 74
     0
 42
0.00000001
 43
0.00000001
 40
0.0
 40
0.0
 40
0.0
 40
0.0
 40
0.2500000000000001
 40
0.2500000000000001
 40
0.5
 40
0.5
 40
0.75
 40
0.75
 40
1.0
 40
1.0
 40
1.0
 40
1.0
 10
108.7969530469753
 20
106.0919330027372
 30
0.0
 10
108.8031990746383
 20
106.0710619035727
 30
0.0
 10
108.8114428874649
 20
106.0508768184061
 30
0.0
 10
108.8371891562545
 20
106.0147918165183
 30
0.0
 10
108.8567843452662
 20
105.9977774888703
 30
0.0
 10
108.9043547505711
 20
105.9976664168558
 30
0.0
 10
108.9241550921441
 20
106.014798810971
 30
0.0
 10
108.9497610887029
 20
106.0505884449952
 30
0.0
 10
108.9581646920844
 20
106.0710256001694
 30
0.0
 10
108.9644215841518
 20
106.0919330027372
 30
0.0
  0
ELLIPSE
  5
167
330
1F
100
AcDbEntity
  8
0
  6
Continuous
 62
     7
370
    25
100
AcDbEllipse
 10
107.302643163
 20
107.2586738367
 30
0.0
 11
0.0
 21
2.799999999999997
 31
0.0
210
0.0
220
0.0
230
1.0
 40
0.6528729116
 41
4.282584410734621
 42
4.712388980384699
  0
LINE
  5
168
330
1F
100
AcDbEntity
  8
0
  6
Continuous
 62
     7
370
    25
100
AcDbLine
 10
109.1306873156
 20
107.2586738367
 30
0.0
 11
109.1306873156
 21
110.1415725736
 31
0.0
  0
LINE
  5
169
330
1F
100
AcDbEntity
  8
0
  6
Continuous
 62
     7
370
    25
100
AcDbLine
 10
118.3806873156
 20
110.1415725736
 30
0.0
 11
109.1306873156
 21
110.1415725736
 31
0.0
  0
LINE
  5
16A
330
1F
100
AcDbEntity
  8
0
  6
Continuous
 62
     7
370
    25
100
AcDbLine
 10
118.3806873156
 20
75.1415725736
 30
0.0
 11
109.1306873156
 21
75.1415725736
 31
0.0
  0
LINE
  5
16B
330
1F
100
AcDbEntity
  8
0
  6
Continuous
 62
     7
370
    25
100
AcDbLine
 10
108.9644215842
 20
110.1415725736
 30
0.0
 11
109.1306873156
 21
110.1415725736
 31
0.0
  0
LINE
  5
16C
330
1F
100
AcDbEntity
  8
0
  6
Continuous
 62
     7
370
    25
100
AcDbLine
 10
108.796953047
 20
110.1415725736
 30
0.0
 11
108.9644215842
 21
110.1415725736
 31
0.0
  0
LINE
  5
16D
330
1F
100
AcDbEntity
  8
0
  6
Continuous
 62
     7
370
    25
100
AcDbLine
 10
108.9644215842
 20
75.1415725736
 30
0.0
 11
108.796953047
 21
75.1415725736
 31
0.0
  0
CIRCLE
  5
16E
330
1F
100
AcDbEntity
  8
0
  6
Continuous
 62
     7
370
    25
100
AcDbCircle
 10
108.8806873156
 20
92.6415725736
 30
0.0
 40
5.000000000000014
  0
LINE
  5
16F
330
1F
100
AcDbEntity
  8
0
  6
Continuous
 62
     7
370
    25
100
AcDbLine
 10
99.3806873156
 20
115.1153899762
 30
0.0
 11
118.3806873156
 21
115.1153899762
 31
0.0
  0
CIRCLE
  5
170
330
1F
100
AcDbEntity
  8
0
  6
Continuous
 62
     7
370
    25
100
AcDbCircle
 10
108.8806873156
 20
92.6415725736
 30
0.0
 40
4.973817402607679
  0
LINE
  5
171
330
1F
100
AcDbEntity
  8
0
  6
Continuous
 62
     7
370
    25
100
AcDbLine
 10
99.3806873156
 20
70.167755171
 30
0.0
 11
118.3806873156
 21
70.167755171
 31
0.0
  0
DIMENSION
  5
172
330
1F
100
AcDbEntity
  8
0
  6
Continuous
 62
     7
370
    18
100
AcDbDimension
  2
_D
 10
67.6510649888
 20
162.1415725736
 30
0.0
 11
67.6510649888
 21
86.568566105
 31
0.0
 70
   160
  1
<>
 71
     2
 42
-1.0
  3
SLDDIMSTYLE0
100
AcDbAlignedDimension
 13
83.8806682771
 23
23.1415725736
 33
0.0
 14
83.8806682771
 24
162.1415725736
 34
0.0
 50
90.0
100
AcDbRotatedDimension
  0
DIMENSION
  5
17E
330
1F
100
AcDbEntity
  8
0
  6
Continuous
 62
     7
370
    18
100
AcDbDimension
  2
_D_1
 10
134.3806873156
 20
10.8557827511
 30
0.0
 11
110.9749512108
 21
10.8557827511
 31
0.0
 70
   160
  1
<>
 71
     2
 42
-1.0
  3
SLDDIMSTYLE0
100
AcDbAlignedDimension
 13
83.3806873156
 23
23.6415535351
 33
0.0
 14
134.3806873156
 24
23.6414964212
 34
0.0
 50
0.0
100
AcDbRotatedDimension
  0
LINE
  5
188
330
1F
100
AcDbEntity
  8
0
  6
Continuous
 62
     7
370
    25
100
AcDbLine
 10
243.5371875
 20
158.8915725736
 30
0.0
 11
242.0527831261
 21
158.9045267743
 31
0.0
  0
ARC
  5
189
330
1F
100
AcDbEntity
  8
0
  6
Continuous
 62
     7
370
    25
100
AcDbCircle
 10
182.1371875
 20
39.1863817525
 30
0.0
 40
0.2999999999999995
100
AcDbArc
 50
180.0
 51
269.0
  0
LINE
  5
18A
330
1F
100
AcDbEntity
  8
0
  6
Continuous
 62
     7
370
    25
100
AcDbLine
 10
186.3459137032
 20
38.812872465
 30
0.0
 11
184.3371875
 21
38.8479349113
 31
0.0
  0
LINE
  5
18B
330
1F
100
AcDbEntity
  8
0
  6
Continuous
 62
     7
370
    25
100
AcDbLine
 10
182.5371875
 20
38.8793540282
 30
0.0
 11
182.1319517781
 21
38.886427444
 31
0.0
  0
ARC
  5
18C
330
1F
100
AcDbEntity
  8
0
  6
Continuous
 62
     7
370
    25
100
AcDbCircle
 10
186.3371875
 20
38.3129486174
 30
0.0
 40
0.5
100
AcDbArc
 50
0.0
 51
89.0
  0
LINE
  5
18D
330
1F
100
AcDbEntity
  8
0
  6
Continuous
 62
     7
370
    25
100
AcDbLine
 10
180.0371875
 20
38.3817178504
 30
0.0
 11
179.5503992818
 21
38.0408650705
 31
0.0
  0
LINE
  5
18E
330
1F
100
AcDbEntity
  8
0
  6
Continuous
 62
     7
370
    25
100
AcDbLine
 10
179.5503992818
 20
24.7422800767
 30
0.0
 11
180.3371875
 21
24.1913650354
 31
0.0
  0
ARC
  5
18F
330
1F
100
AcDbEntity
  8
0
  6
Continuous
 62
     7
370
    25
100
AcDbCircle
 10
179.8371875
 20
25.1518560989
 30
0.0
 40
0.5000000000000098
100
AcDbArc
 50
180.0
 51
235.0
  0
ARC
  5
190
330
1F
100
AcDbEntity
  8
0
  6
Continuous
 62
     7
370
    25
100
AcDbCircle
 10
179.8371875
 20
37.6312890483
 30
0.0
 40
0.5000000000000232
100
AcDbArc
 50
125.0
 51
180.0
  0
LINE
  5
191
330
1F
100
AcDbEntity
  8
0
  6
Continuous
 62
     7
370
    25
100
AcDbLine
 10
180.0371875
 20
98.6389545133
 30
0.0
 11
179.8328242323
 21
98.637171062
 31
0.0
  0
LINE
  5
192
330
1F
100
AcDbEntity
  8
0
  6
Continuous
 62
     7
370
    25
100
AcDbLine
 10
179.8328242323
 20
86.6459740852
 30
0.0
 11
180.0371875
 21
86.6441906339
 31
0.0
  0
ARC
  5
193
330
1F
100
AcDbEntity
  8
0
  6
Continuous
 62
     7
370
    25
100
AcDbCircle
 10
179.8371875
 20
98.1371901005
 30
0.0
 40
0.5000000000000029
100
AcDbArc
 50
90.5
 51
180.0
  0
ARC
  5
194
330
1F
100
AcDbEntity
  8
0
  6
Continuous
 62
     7
370
    25
100
AcDbCircle
 10
179.8371875
 20
87.1459550467
 30
0.0
 40
0.5000000000000029
100
AcDbArc
 50
180.0
 51
269.5
  0
LINE
  5
195
330
1F
100
AcDbEntity
  8
0
  6
Continuous
 62
     7
370
    25
100
AcDbLine
 10
245.3371875
 20
141.7724855606
 30
0.0
 11
237.8371875
 21
141.6415725736
 31
0.0
  0
LINE
  5
196
330
1F
100
AcDbEntity
  8
0
  6
Continuous
 62
     7
370
    25
100
AcDbLine
 10
237.8371875
 20
116.1415725736
 30
0.0
 11
237.8371875
 21
141.6415725736
 31
0.0
  0
LINE
  5
197
330
1F
100
AcDbEntity
  8
0
  6
Continuous
 62
     7
370
    25
100
AcDbLine
 10
237.8371875
 20
116.1415725736
 30
0.0
 11
236.3371875
 21
116.1415725736
 31
0.0
  0
LINE
  5
198
330
1F
100
AcDbEntity
  8
0
  6
Continuous
 62
     7
370
    25
100
AcDbLine
 10
236.3371875
 20
116.1415725736
 30
0.0
 11
236.3371875
 21
143.1156184683
 31
0.0
  0
LINE
  5
199
330
1F
100
AcDbEntity
  8
0
  6
Continuous
 62
     7
370
    25
100
AcDbLine
 10
243.5371875
 20
143.2412949358
 30
0.0
 11
236.3371875
 21
143.1156184683
 31
0.0
  0
LINE
  5
19A
330
1F
100
AcDbEntity
  8
0
  6
Continuous
 62
     7
370
    25
100
AcDbLine
 10
243.5371875
 20
151.4767568259
 30
0.0
 11
243.5371875
 21
143.2412949358
 31
0.0
  0
ARC
  5
19B
330
1F
100
AcDbEntity
  8
0
  6
Continuous
 62
     7
370
    25
100
AcDbCircle
 10
235.3371875
 20
151.4767568259
 30
0.0
 40
8.200000000000028
100
AcDbArc
 50
0.0
 51
89.0
  0
LINE
  5
19C
330
1F
100
AcDbEntity
  8
0
  6
Continuous
 62
     7
370
    25
100
AcDbLine
 10
207.5856263754
 20
160.1624112171
 30
0.0
 11
235.4802972328
 21
159.6755079262
 31
0.0
  0
LINE
  5
19D
330
1F
100
AcDbEntity
  8
0
  6
Continuous
 62
     7
370
    25
100
AcDbLine
 10
207.5856263754
 20
160.1624112171
 30
0.0
 11
207.6048240224
 21
161.2622436818
 31
0.0
  0
LINE
  5
19E
330
1F
100
AcDbEntity
  8
0
  6
Continuous
 62
     7
370
    25
100
AcDbLine
 10
197.3371875
 20
161.441465944
 30
0.0
 11
207.6048240224
 21
161.2622436818
 31
0.0
  0
LINE
  5
19F
330
1F
100
AcDbEntity
  8
0
  6
Continuous
 62
     7
370
    25
100
AcDbLine
 10
197.3371875
 20
162.1415725736
 30
0.0
 11
197.3371875
 21
161.441465944
 31
0.0
  0
LINE
  5
1A0
330
1F
100
AcDbEntity
  8
0
  6
Continuous
 62
     7
370
    25
100
AcDbLine
 10
197.3371875
 20
162.1415725736
 30
0.0
 11
235.5117115644
 21
161.4752337775
 31
0.0
  0
ARC
  5
1A1
330
1F
100
AcDbEntity
  8
0
  6
Continuous
 62
     7
370
    25
100
AcDbCircle
 10
235.3371875
 20
151.4767568259
 30
0.0
 40
10.00000000000002
100
AcDbArc
 50
0.0
 51
89.0
  0
LINE
  5
1A2
330
1F
100
AcDbEntity
  8
0
  6
Continuous
 62
     7
370
    25
100
AcDbLine
 10
245.3371875
 20
151.4767568259
 30
0.0
 11
245.3371875
 21
141.7724855606
 31
0.0
  0
LINE
  5
1A3
330
1F
100
AcDbEntity
  8
0
  6
Continuous
 62
     7
370
    25
100
AcDbLine
 10
237.8371875
 20
43.6415725736
 30
0.0
 11
245.3371875
 21
43.5106595866
 31
0.0
  0
LINE
  5
1A4
330
1F
100
AcDbEntity
  8
0
  6
Continuous
 62
     7
370
    25
100
AcDbLine
 10
245.3371875
 20
43.5106595866
 30
0.0
 11
245.3371875
 21
33.8063883213
 31
0.0
  0
ARC
  5
1A5
330
1F
100
AcDbEntity
  8
0
  6
Continuous
 62
     7
370
    25
100
AcDbCircle
 10
235.3371875
 20
33.8063883213
 30
0.0
 40
10.00000000000001
100
AcDbArc
 50
271.0
 51
0.0
  0
LINE
  5
1A6
330
1F
100
AcDbEntity
  8
0
  6
Continuous
 62
     7
370
    25
100
AcDbLine
 10
235.5117115644
 20
23.8079113698
 30
0.0
 11
197.3371875
 21
23.1415725736
 31
0.0
  0
LINE
  5
1A7
330
1F
100
AcDbEntity
  8
0
  6
Continuous
 62
     7
370
    25
100
AcDbLine
 10
197.3371875
 20
23.8416792032
 30
0.0
 11
197.3371875
 21
23.1415725736
 31
0.0
  0
LINE
  5
1A8
330
1F
100
AcDbEntity
  8
0
  6
Continuous
 62
     7
370
    25
100
AcDbLine
 10
207.6048240224
 20
24.0209014654
 30
0.0
 11
197.3371875
 21
23.8416792032
 31
0.0
  0
LINE
  5
1A9
330
1F
100
AcDbEntity
  8
0
  6
Continuous
 62
     7
370
    25
100
AcDbLine
 10
207.5856263754
 20
25.1207339301
 30
0.0
 11
207.6048240224
 21
24.0209014654
 31
0.0
  0
LINE
  5
1AA
330
1F
100
AcDbEntity
  8
0
  6
Continuous
 62
     7
370
    25
100
AcDbLine
 10
235.4802972328
 20
25.607637221
 30
0.0
 11
207.5856263754
 21
25.1207339301
 31
0.0
  0
ARC
  5
1AB
330
1F
100
AcDbEntity
  8
0
  6
Continuous
 62
     7
370
    25
100
AcDbCircle
 10
235.3371875
 20
33.8063883213
 30
0.0
 40
8.200000000000017
100
AcDbArc
 50
271.0
 51
0.0
  0
LINE
  5
1AC
330
1F
100
AcDbEntity
  8
0
  6
Continuous
 62
     7
370
    25
100
AcDbLine
 10
243.5371875
 20
42.0418502114
 30
0.0
 11
243.5371875
 21
33.8063883213
 31
0.0
  0
LINE
  5
1AD
330
1F
100
AcDbEntity
  8
0
  6
Continuous
 62
     7
370
    25
100
AcDbLine
 10
236.3371875
 20
42.1675266789
 30
0.0
 11
243.5371875
 21
42.0418502114
 31
0.0
  0
LINE
  5
1AE
330
1F
100
AcDbEntity
  8
0
  6
Continuous
 62
     7
370
    25
100
AcDbLine
 10
236.3371875
 20
42.1675266789
 30
0.0
 11
236.3371875
 21
69.1415725736
 31
0.0
  0
LINE
  5
1AF
330
1F
100
AcDbEntity
  8
0
  6
Continuous
 62
     7
370
    25
100
AcDbLine
 10
236.3371875
 20
69.1415725736
 30
0.0
 11
237.8371875
 21
69.1415725736
 31
0.0
  0
LINE
  5
1B0
330
1F
100
AcDbEntity
  8
0
  6
Continuous
 62
     7
370
    25
100
AcDbLine
 10
237.8371875
 20
43.6415725736
 30
0.0
 11
237.8371875
 21
69.1415725736
 31
0.0
  0
LINE
  5
1B1
330
1F
100
AcDbEntity
  8
0
  6
Continuous
 62
     7
370
    25
100
AcDbLine
 10
199.3371875
 20
24.3766654971
 30
0.0
 11
199.3371875
 21
24.9767568939
 31
0.0
  0
LINE
  5
1B2
330
1F
100
AcDbEntity
  8
0
  6
Continuous
 62
     7
370
    25
100
AcDbLine
 10
199.3371875
 20
24.9767568939
 30
0.0
 11
207.5856263754
 21
25.1207339301
 31
0.0
  0
LINE
  5
1B3
330
1F
100
AcDbEntity
  8
0
  6
Continuous
 62
     7
370
    25
100
AcDbLine
 10
199.3371875
 20
160.9064796501
 30
0.0
 11
199.3371875
 21
160.3063882533
 31
0.0
  0
LINE
  5
1B4
330
1F
100
AcDbEntity
  8
0
  6
Continuous
 62
     7
370
    25
100
AcDbLine
 10
199.3371875
 20
160.3063882533
 30
0.0
 11
207.5856263754
 21
160.1624112171
 31
0.0
  0
LINE
  5
1B5
330
1F
100
AcDbEntity
  8
0
  6
Continuous
 62
     7
370
    25
100
AcDbLine
 10
201.5962105781
 20
160.8670482556
 30
0.0
 11
203.4970029945
 21
160.8338698005
 31
0.0
  0
ARC
  5
1B6
330
1F
100
AcDbEntity
  8
0
  6
Continuous
 62
     7
370
    25
100
AcDbCircle
 10
197.3459137032
 20
161.9413897916
 30
0.0
 40
6.250000000000009
100
AcDbArc
 50
349.7931037787
 51
354.4114342642
  0
LINE
  5
1B7
330
1F
100
AcDbEntity
  8
0
  6
Continuous
 62
     7
370
    25
100
AcDbLine
 10
197.3371875
 20
160.94138978
 30
0.0
 11
199.3437187536
 21
160.9063656466
 31
0.0
  0
ARC
  5
1B8
330
1F
100
AcDbEntity
  8
0
  6
Continuous
 62
     7
370
    25
100
AcDbCircle
 10
197.3459137032
 20
161.9413897916
 30
0.0
 40
2.250000000000027
100
AcDbArc
 50
332.6122000388
 51
346.1604115931
  0
LINE
  5
1B9
330
1F
100
AcDbEntity
  8
0
  6
Continuous
 62
     7
370
    25
100
AcDbLine
 10
197.3371875
 20
160.94138978
 30
0.0
 11
197.3371875
 21
161.441465944
 31
0.0
  0
LINE
  5
1BA
330
1F
100
AcDbEntity
  8
0
  6
Continuous
 62
     7
370
    25
100
AcDbLine
 10
199.3437187536
 20
160.9063656466
 30
0.0
 11
201.5962105781
 21
160.8670482556
 31
0.0
  0
LINE
  5
1BB
330
1F
100
AcDbEntity
  8
0
  6
Continuous
 62
     7
370
    25
100
AcDbLine
 10
202.5625277742
 20
161.3502572902
 30
0.0
 11
201.5962105781
 21
160.8670482556
 31
0.0
  0
ARC
  5
1BC
330
1F
100
AcDbEntity
  8
0
  6
Continuous
 62
     7
370
    25
100
AcDbCircle
 10
197.3459137032
 20
23.3417553557
 30
0.0
 40
2.250000000000021
100
AcDbArc
 50
13.8395884069
 51
27.3877999612
  0
LINE
  5
1BD
330
1F
100
AcDbEntity
  8
0
  6
Continuous
 62
     7
370
    25
100
AcDbLine
 10
201.5962105781
 20
24.4160968916
 30
0.0
 11
199.3437187536
 21
24.3767795006
 31
0.0
  0
LINE
  5
1BE
330
1F
100
AcDbEntity
  8
0
  6
Continuous
 62
     7
370
    25
100
AcDbLine
 10
202.5625277742
 20
23.932887857
 30
0.0
 11
201.5962105781
 21
24.4160968916
 31
0.0
  0
LINE
  5
1BF
330
1F
100
AcDbEntity
  8
0
  6
Continuous
 62
     7
370
    25
100
AcDbLine
 10
197.3371875
 20
24.3417553673
 30
0.0
 11
199.3437187536
 21
24.3767795006
 31
0.0
  0
LINE
  5
1C0
330
1F
100
AcDbEntity
  8
0
  6
Continuous
 62
     7
370
    25
100
AcDbLine
 10
197.3371875
 20
24.3417553673
 30
0.0
 11
197.3371875
 21
23.8416792032
 31
0.0
  0
LINE
  5
1C1
330
1F
100
AcDbEntity
  8
0
  6
Continuous
 62
     7
370
    25
100
AcDbLine
 10
203.4970029945
 20
160.8338698005
 30
0.0
 11
205.6513168715
 21
160.7962661119
 31
0.0
  0
LINE
  5
1C2
330
1F
100
AcDbEntity
  8
0
  6
Continuous
 62
     7
370
    25
100
AcDbLine
 10
206.5722573408
 20
161.2802672003
 30
0.0
 11
205.6513168715
 21
160.7962661119
 31
0.0
  0
ARC
  5
1C3
330
1F
100
AcDbEntity
  8
0
  6
Continuous
 62
     7
370
    25
100
AcDbCircle
 10
197.3459137032
 20
23.3417553557
 30
0.0
 40
6.250000000000009
100
AcDbArc
 50
5.5885657358
 51
10.2068962213
  0
LINE
  5
1C4
330
1F
100
AcDbEntity
  8
0
  6
Continuous
 62
     7
370
    25
100
AcDbLine
 10
205.6513168715
 20
24.4868790353
 30
0.0
 11
203.4970029945
 21
24.4492753467
 31
0.0
  0
LINE
  5
1C5
330
1F
100
AcDbEntity
  8
0
  6
Continuous
 62
     7
370
    25
100
AcDbLine
 10
206.5722573408
 20
24.0028779469
 30
0.0
 11
205.6513168715
 21
24.4868790353
 31
0.0
  0
LINE
  5
1C6
330
1F
100
AcDbEntity
  8
0
  6
Continuous
 62
     7
370
    25
100
AcDbLine
 10
201.5962105781
 20
24.4160968916
 30
0.0
 11
203.4970029945
 21
24.4492753467
 31
0.0
  0
LINE
  5
1C7
330
1F
100
AcDbEntity
  8
0
  6
Continuous
 62
     7
370
    25
100
AcDbLine
 10
236.3371875
 20
141.5156184683
 30
0.0
 11
234.6319517781
 21
141.5453834685
 31
0.0
  0
LINE
  5
1C8
330
1F
100
AcDbEntity
  8
0
  6
Continuous
 62
     7
370
    25
100
AcDbLine
 10
234.3371875
 20
145.5450560158
 30
0.0
 11
234.3371875
 21
159.6954609808
 31
0.0
  0
ARC
  5
1C9
330
1F
100
AcDbEntity
  8
0
  6
Continuous
 62
     7
370
    25
100
AcDbCircle
 10
234.6371875
 20
141.8453377771
 30
0.0
 40
0.2999999999999829
100
AcDbArc
 50
180.0
 51
269.0
  0
LINE
  5
1CA
330
1F
100
AcDbEntity
  8
0
  6
Continuous
 62
     7
370
    25
100
AcDbLine
 10
234.3371875
 20
141.8453377771
 30
0.0
 11
234.3371875
 21
145.5450560158
 31
0.0
  0
LINE
  5
1CB
330
1F
100
AcDbEntity
  8
0
  6
Continuous
 62
     7
370
    25
100
AcDbLine
 10
236.3371875
 20
69.1415725736
 30
0.0
 11
236.3371875
 21
116.1415725736
 31
0.0
  0
LINE
  5
1CC
330
1F
100
AcDbEntity
  8
0
  6
Continuous
 62
     7
370
    25
100
AcDbLine
 10
243.5371875
 20
158.8915725736
 30
0.0
 11
243.5371875
 21
157.2003920344
 31
0.0
  0
LINE
  5
1CD
330
1F
100
AcDbEntity
  8
0
  6
Continuous
 62
     7
370
    25
100
AcDbLine
 10
237.8371875
 20
69.1415725736
 30
0.0
 11
237.8371875
 21
116.1415725736
 31
0.0
  0
LINE
  5
1CE
330
1F
100
AcDbEntity
  8
0
  6
Continuous
 62
     7
370
    25
100
AcDbLine
 10
199.3371875
 20
27.7602359348
 30
0.0
 11
199.3371875
 21
25.2446440182
 31
0.0
  0
SPLINE
  5
1CF
330
1F
100
AcDbEntity
  8
0
  6
Continuous
 62
     7
370
    25
100
AcDbSpline
210
0.0
220
0.0
230
1.0
 70
    24
 71
     3
 72
    12
 73
     8
 74
     0
 42
0.00000001
 43
0.00000001
 40
0.0
 40
0.0
 40
0.0
 40
0.0
 40
0.2304284864389392
 40
0.4608584284956537
 40
0.6912566929223958
 40
0.9216466995079683
 40
1.0
 40
1.0
 40
1.0
 40
1.0
 10
199.3371875
 20
25.24464401818931
 30
0.0
 10
199.3371875
 20
25.21146520032037
 30
0.0
 10
199.3371875
 20
25.1451073549918
 30
0.0
 10
199.3371875
 20
25.06129713754877
 30
0.0
 10
199.3371875
 20
25.00185180694538
 30
0.0
 10
199.3371875
 20
24.9787401668934
 30
0.0
 10
199.3371875
 20
24.97715833373199
 30
0.0
 10
199.3371875
 20
24.97675689393983
 30
0.0
  0
LINE
  5
1D0
330
1F
100
AcDbEntity
  8
0
  6
Continuous
 62
     7
370
    25
100
AcDbLine
 10
245.3371875
 20
44.0105834342
 30
0.0
 11
245.3371875
 21
43.5106595866
 31
0.0
  0
LINE
  5
1D1
330
1F
100
AcDbEntity
  8
0
  6
Continuous
 62
     7
370
    25
100
AcDbLine
 10
245.3371875
 20
141.7724855606
 30
0.0
 11
245.3371875
 21
141.272561713
 31
0.0
  0
SPLINE
  5
1D2
330
1F
100
AcDbEntity
  8
0
  6
Continuous
 62
     7
370
    25
100
AcDbSpline
210
0.0
220
0.0
230
1.0
 70
    24
 71
     3
 72
    12
 73
     8
 74
     0
 42
0.00000001
 43
0.00000001
 40
0.0
 40
0.0
 40
0.0
 40
0.0
 40
0.2304284865636784
 40
0.4608584287120223
 40
0.6912566937112077
 40
0.9216466999863411
 40
1.0
 40
1.0
 40
1.0
 40
1.0
 10
199.3371875
 20
28.05847121594048
 30
0.0
 10
199.3371875
 20
28.02474467552357
 30
0.0
 10
199.3371875
 20
27.95729138164385
 30
0.0
 10
199.3371875
 20
27.86743742203185
 30
0.0
 10
199.3371875
 20
27.79946584581841
 30
0.0
 10
199.3371875
 20
27.76823656211763
 30
0.0
 10
199.3371875
 20
27.76185536402621
 30
0.0
 10
199.3371875
 20
27.76023593481652
 30
0.0
  0
LINE
  5
1D3
330
1F
100
AcDbEntity
  8
0
  6
Continuous
 62
     7
370
    25
100
AcDbLine
 10
199.3371875
 20
160.3063882533
 30
0.0
 11
199.3371875
 21
160.0064339447
 31
0.0
  0
CIRCLE
  5
1D4
330
1F
100
AcDbEntity
  8
0
  6
Continuous
 62
     7
370
    25
100
AcDbCircle
 10
241.5871875
 20
136.9415725736
 30
0.0
 40
1.75
  0
LINE
  5
1D5
330
1F
100
AcDbEntity
  8
0
  6
Continuous
 62
     7
370
    25
100
AcDbLine
 10
245.3371875
 20
44.0105834342
 30
0.0
 11
245.3371875
 21
141.272561713
 31
0.0
  0
LINE
  5
1D6
330
1F
100
AcDbEntity
  8
0
  6
Continuous
 62
     7
370
    25
100
AcDbLine
 10
199.3371875
 20
28.0584712159
 30
0.0
 11
199.3371875
 21
146.0584041014
 31
0.0
  0
LINE
  5
1D7
330
1F
100
AcDbEntity
  8
0
  6
Continuous
 62
     7
370
    25
100
AcDbLine
 10
199.3371875
 20
158.4363526622
 30
0.0
 11
199.3371875
 21
160.0064339447
 31
0.0
  0
LINE
  5
1D8
330
1F
100
AcDbEntity
  8
0
  6
Continuous
 62
     7
370
    25
100
AcDbLine
 10
187.3279690803
 20
161.3541967929
 30
0.0
 11
197.3371875
 21
161.4415459187
 31
0.0
  0
LINE
  5
1D9
330
1F
100
AcDbEntity
  8
0
  6
Continuous
 62
     7
370
    25
100
AcDbLine
 10
187.3279690803
 20
160.2541549067
 30
0.0
 11
187.3279690803
 21
161.3541967929
 31
0.0
  0
LINE
  5
1DA
330
1F
100
AcDbEntity
  8
0
  6
Continuous
 62
     7
370
    25
100
AcDbLine
 10
181.8371875
 20
160.2062375818
 30
0.0
 11
187.3279690803
 21
160.2541549067
 31
0.0
  0
LINE
  5
1DB
330
1F
100
AcDbEntity
  8
0
  6
Continuous
 62
     7
370
    25
100
AcDbLine
 10
181.8371875
 20
151.1415725736
 30
0.0
 11
181.8371875
 21
160.2062375818
 31
0.0
  0
ARC
  5
1DC
330
1F
100
AcDbEntity
  8
0
  6
Continuous
 62
     7
370
    25
100
AcDbCircle
 10
181.7371875
 20
148.843747515
 30
0.0
 40
2.30000000000004
100
AcDbArc
 50
0.0
 51
87.508093631
  0
LINE
  5
1DD
330
1F
100
AcDbEntity
  8
0
  6
Continuous
 62
     7
370
    25
100
AcDbLine
 10
184.0371875
 20
148.843747515
 30
0.0
 11
184.0371875
 21
145.2393976322
 31
0.0
  0
ARC
  5
1DE
330
1F
100
AcDbEntity
  8
0
  6
Continuous
 62
     7
370
    25
100
AcDbCircle
 10
181.7371875
 20
145.2393976322
 30
0.0
 40
2.30000000000004
100
AcDbArc
 50
272.491906369
 51
0.0
  0
LINE
  5
1DF
330
1F
100
AcDbEntity
  8
0
  6
Continuous
 62
     7
370
    25
100
AcDbLine
 10
181.8371875
 20
115.1153899762
 30
0.0
 11
181.8371875
 21
142.9415725736
 31
0.0
  0
LINE
  5
1E0
330
1F
100
AcDbEntity
  8
0
  6
Continuous
 62
     7
370
    25
100
AcDbLine
 10
181.8371875
 20
115.1153899762
 30
0.0
 11
180.3371875
 21
115.1415725736
 31
0.0
  0
LINE
  5
1E1
330
1F
100
AcDbEntity
  8
0
  6
Continuous
 62
     7
370
    25
100
AcDbLine
 10
180.3371875
 20
115.1415725736
 30
0.0
 11
180.3371875
 21
135.6415725736
 31
0.0
  0
LINE
  5
1E2
330
1F
100
AcDbEntity
  8
0
  6
Continuous
 62
     7
370
    25
100
AcDbLine
 10
180.3371875
 20
135.6415725736
 30
0.0
 11
180.0371875
 21
135.6415725736
 31
0.0
  0
LINE
  5
1E3
330
1F
100
AcDbEntity
  8
0
  6
Continuous
 62
     7
370
    25
100
AcDbLine
 10
180.0371875
 20
135.6415725736
 30
0.0
 11
180.0371875
 21
136.1415725736
 31
0.0
  0
LINE
  5
1E4
330
1F
100
AcDbEntity
  8
0
  6
Continuous
 62
     7
370
    25
100
AcDbLine
 10
180.0371875
 20
136.1415725736
 30
0.0
 11
180.3371875
 21
136.1415725736
 31
0.0
  0
LINE
  5
1E5
330
1F
100
AcDbEntity
  8
0
  6
Continuous
 62
     7
370
    25
100
AcDbLine
 10
180.3371875
 20
136.1415725736
 30
0.0
 11
180.3371875
 21
144.4031714308
 31
0.0
  0
LINE
  5
1E6
330
1F
100
AcDbEntity
  8
0
  6
Continuous
 62
     7
370
    25
100
AcDbLine
 10
180.3371875
 20
144.4031714308
 30
0.0
 11
182.0459137032
 21
144.4329973576
 31
0.0
  0
ARC
  5
1E7
330
1F
100
AcDbEntity
  8
0
  6
Continuous
 62
     7
370
    25
100
AcDbCircle
 10
182.0371875
 20
144.9329212052
 30
0.0
 40
0.5000000000000058
100
AcDbArc
 50
271.0
 51
0.0
  0
LINE
  5
1E8
330
1F
100
AcDbEntity
  8
0
  6
Continuous
 62
     7
370
    25
100
AcDbLine
 10
182.5371875
 20
144.9329212052
 30
0.0
 11
182.5371875
 21
149.150223942
 31
0.0
  0
ARC
  5
1E9
330
1F
100
AcDbEntity
  8
0
  6
Continuous
 62
     7
370
    25
100
AcDbCircle
 10
182.0371875
 20
149.150223942
 30
0.0
 40
0.5000000000000058
100
AcDbArc
 50
0.0
 51
89.0
  0
LINE
  5
1EA
330
1F
100
AcDbEntity
  8
0
  6
Continuous
 62
     7
370
    25
100
AcDbLine
 10
182.0459137032
 20
149.6501477896
 30
0.0
 11
180.3371875
 21
149.6799737164
 31
0.0
  0
LINE
  5
1EB
330
1F
100
AcDbEntity
  8
0
  6
Continuous
 62
     7
370
    25
100
AcDbLine
 10
180.3371875
 20
149.6799737164
 30
0.0
 11
180.3371875
 21
153.6415725736
 31
0.0
  0
LINE
  5
1EC
330
1F
100
AcDbEntity
  8
0
  6
Continuous
 62
     7
370
    25
100
AcDbLine
 10
180.3371875
 20
153.6415725736
 30
0.0
 11
180.0371875
 21
153.6415725736
 31
0.0
  0
LINE
  5
1ED
330
1F
100
AcDbEntity
  8
0
  6
Continuous
 62
     7
370
    25
100
AcDbLine
 10
180.0371875
 20
154.1415725736
 30
0.0
 11
180.0371875
 21
153.6415725736
 31
0.0
  0
LINE
  5
1EE
330
1F
100
AcDbEntity
  8
0
  6
Continuous
 62
     7
370
    25
100
AcDbLine
 10
180.0371875
 20
154.1415725736
 30
0.0
 11
180.3371875
 21
154.1415725736
 31
0.0
  0
LINE
  5
1EF
330
1F
100
AcDbEntity
  8
0
  6
Continuous
 62
     7
370
    25
100
AcDbLine
 10
180.3371875
 20
154.1415725736
 30
0.0
 11
180.3371875
 21
161.4975602159
 31
0.0
  0
ARC
  5
1F0
330
1F
100
AcDbEntity
  8
0
  6
Continuous
 62
     7
370
    25
100
AcDbCircle
 10
180.8371875
 20
161.4975602159
 30
0.0
 40
0.5000000000000029
100
AcDbArc
 50
90.5
 51
180.0
  0
LINE
  5
1F1
330
1F
100
AcDbEntity
  8
0
  6
Continuous
 62
     7
370
    25
100
AcDbLine
 10
180.8328242323
 20
161.9975411774
 30
0.0
 11
197.3371875
 21
162.1415725736
 31
0.0
  0
LINE
  5
1F2
330
1F
100
AcDbEntity
  8
0
  6
Continuous
 62
     7
370
    25
100
AcDbLine
 10
197.3371875
 20
161.4415459187
 30
0.0
 11
197.3371875
 21
162.1415725736
 31
0.0
  0
LINE
  5
1F3
330
1F
100
AcDbEntity
  8
0
  6
Continuous
 62
     7
370
    25
100
AcDbLine
 10
180.3371875
 20
70.1415725736
 30
0.0
 11
181.8371875
 21
70.167755171
 31
0.0
  0
LINE
  5
1F4
330
1F
100
AcDbEntity
  8
0
  6
Continuous
 62
     7
370
    25
100
AcDbLine
 10
181.8371875
 20
42.3415725736
 30
0.0
 11
181.8371875
 21
70.167755171
 31
0.0
  0
ARC
  5
1F5
330
1F
100
AcDbEntity
  8
0
  6
Continuous
 62
     7
370
    25
100
AcDbCircle
 10
181.7371875
 20
40.043747515
 30
0.0
 40
2.30000000000004
100
AcDbArc
 50
0.0
 51
87.508093631
  0
LINE
  5
1F6
330
1F
100
AcDbEntity
  8
0
  6
Continuous
 62
     7
370
    25
100
AcDbLine
 10
184.0371875
 20
40.043747515
 30
0.0
 11
184.0371875
 21
36.4393976322
 31
0.0
  0
ARC
  5
1F7
330
1F
100
AcDbEntity
  8
0
  6
Continuous
 62
     7
370
    25
100
AcDbCircle
 10
181.7371875
 20
36.4393976322
 30
0.0
 40
2.30000000000004
100
AcDbArc
 50
272.491906369
 51
0.0
  0
LINE
  5
1F8
330
1F
100
AcDbEntity
  8
0
  6
Continuous
 62
     7
370
    25
100
AcDbLine
 10
181.8371875
 20
25.0769075655
 30
0.0
 11
181.8371875
 21
34.1415725736
 31
0.0
  0
LINE
  5
1F9
330
1F
100
AcDbEntity
  8
0
  6
Continuous
 62
     7
370
    25
100
AcDbLine
 10
187.3279690803
 20
25.0289902405
 30
0.0
 11
181.8371875
 21
25.0769075655
 31
0.0
  0
LINE
  5
1FA
330
1F
100
AcDbEntity
  8
0
  6
Continuous
 62
     7
370
    25
100
AcDbLine
 10
187.3279690803
 20
23.9289483543
 30
0.0
 11
187.3279690803
 21
25.0289902405
 31
0.0
  0
LINE
  5
1FB
330
1F
100
AcDbEntity
  8
0
  6
Continuous
 62
     7
370
    25
100
AcDbLine
 10
197.3371875
 20
23.8415992285
 30
0.0
 11
187.3279690803
 21
23.9289483543
 31
0.0
  0
LINE
  5
1FC
330
1F
100
AcDbEntity
  8
0
  6
Continuous
 62
     7
370
    25
100
AcDbLine
 10
197.3371875
 20
23.1415725736
 30
0.0
 11
197.3371875
 21
23.8415992285
 31
0.0
  0
LINE
  5
1FD
330
1F
100
AcDbEntity
  8
0
  6
Continuous
 62
     7
370
    25
100
AcDbLine
 10
197.3371875
 20
23.1415725736
 30
0.0
 11
180.8328242323
 21
23.2856039698
 31
0.0
  0
ARC
  5
1FE
330
1F
100
AcDbEntity
  8
0
  6
Continuous
 62
     7
370
    25
100
AcDbCircle
 10
180.8371875
 20
23.7855849313
 30
0.0
 40
0.5000000000000029
100
AcDbArc
 50
180.0
 51
269.5
  0
LINE
  5
1FF
330
1F
100
AcDbEntity
  8
0
  6
Continuous
 62
     7
370
    25
100
AcDbLine
 10
180.3371875
 20
23.7855849313
 30
0.0
 11
180.3371875
 21
35.6031714308
 31
0.0
  0
LINE
  5
200
330
1F
100
AcDbEntity
  8
0
  6
Continuous
 62
     7
370
    25
100
AcDbLine
 10
180.3371875
 20
35.6031714308
 30
0.0
 11
182.0459137032
 21
35.6329973576
 31
0.0
  0
ARC
  5
201
330
1F
100
AcDbEntity
  8
0
  6
Continuous
 62
     7
370
    25
100
AcDbCircle
 10
182.0371875
 20
36.1329212052
 30
0.0
 40
0.5
100
AcDbArc
 50
271.0
 51
0.0
  0
LINE
  5
202
330
1F
100
AcDbEntity
  8
0
  6
Continuous
 62
     7
370
    25
100
AcDbLine
 10
182.5371875
 20
36.1329212052
 30
0.0
 11
182.5371875
 21
40.350223942
 31
0.0
  0
ARC
  5
203
330
1F
100
AcDbEntity
  8
0
  6
Continuous
 62
     7
370
    25
100
AcDbCircle
 10
182.0371875
 20
40.350223942
 30
0.0
 40
0.5
100
AcDbArc
 50
0.0
 51
89.0
  0
LINE
  5
204
330
1F
100
AcDbEntity
  8
0
  6
Continuous
 62
     7
370
    25
100
AcDbLine
 10
182.0459137032
 20
40.8501477896
 30
0.0
 11
180.3371875
 21
40.8799737164
 31
0.0
  0
LINE
  5
205
330
1F
100
AcDbEntity
  8
0
  6
Continuous
 62
     7
370
    25
100
AcDbLine
 10
180.3371875
 20
40.8799737164
 30
0.0
 11
180.3371875
 21
70.1415725736
 31
0.0
  0
LINE
  5
206
330
1F
100
AcDbEntity
  8
0
  6
Continuous
 62
     7
370
    25
100
AcDbLine
 10
189.5371875
 20
79.2854233318
 30
0.0
 11
189.5371875
 21
75.1415725736
 31
0.0
  0
LINE
  5
207
330
1F
100
AcDbEntity
  8
0
  6
Continuous
 62
     7
370
    25
100
AcDbLine
 10
189.5371875
 20
75.1415725736
 30
0.0
 11
188.8371875
 21
75.1415725736
 31
0.0
  0
LINE
  5
208
330
1F
100
AcDbEntity
  8
0
  6
Continuous
 62
     7
370
    25
100
AcDbLine
 10
188.8371875
 20
75.1415725736
 30
0.0
 11
188.2704597467
 21
78.3556453778
 31
0.0
  0
ARC
  5
209
330
1F
100
AcDbEntity
  8
0
  6
Continuous
 62
     7
370
    25
100
AcDbCircle
 10
187.4826135443
 20
78.2167268356
 30
0.0
 40
0.8000000000000048
100
AcDbArc
 50
10.0
 51
89.0
  0
LINE
  5
20A
330
1F
100
AcDbEntity
  8
0
  6
Continuous
 62
     7
370
    25
100
AcDbLine
 10
187.4965754694
 20
79.0166049918
 30
0.0
 11
183.088320762
 21
79.0935513639
 31
0.0
  0
ARC
  5
20B
330
1F
100
AcDbEntity
  8
0
  6
Continuous
 62
     7
370
    25
100
AcDbCircle
 10
183.1371875
 20
81.8931249103
 30
0.0
 40
2.800000000000002
100
AcDbArc
 50
180.0
 51
269.0
  0
LINE
  5
20C
330
1F
100
AcDbEntity
  8
0
  6
Continuous
 62
     7
370
    25
100
AcDbLine
 10
180.3371875
 20
81.8931249103
 30
0.0
 11
180.3371875
 21
87.667755171
 31
0.0
  0
LINE
  5
20D
330
1F
100
AcDbEntity
  8
0
  6
Continuous
 62
     7
370
    25
100
AcDbLine
 10
180.3371875
 20
87.667755171
 30
0.0
 11
181.8371875
 21
87.6415725736
 31
0.0
  0
LINE
  5
20E
330
1F
100
AcDbEntity
  8
0
  6
Continuous
 62
     7
370
    25
100
AcDbLine
 10
181.8371875
 20
81.7018219772
 30
0.0
 11
181.8371875
 21
87.6415725736
 31
0.0
  0
ARC
  5
20F
330
1F
100
AcDbEntity
  8
0
  6
Continuous
 62
     7
370
    25
100
AcDbCircle
 10
182.6371875
 20
81.7018219772
 30
0.0
 40
0.8000000000000043
100
AcDbArc
 50
180.0
 51
269.0
  0
LINE
  5
210
330
1F
100
AcDbEntity
  8
0
  6
Continuous
 62
     7
370
    25
100
AcDbLine
 10
182.6232255749
 20
80.9019438211
 30
0.0
 11
187.086054238
 21
80.824044857
 31
0.0
  0
ARC
  5
211
330
1F
100
AcDbEntity
  8
0
  6
Continuous
 62
     7
370
    25
100
AcDbCircle
 10
187.0371875
 20
78.0244713105
 30
0.0
 40
2.799999999999991
100
AcDbArc
 50
26.7655005768
 51
89.0
  0
LINE
  5
212
330
1F
100
AcDbEntity
  8
0
  6
Continuous
 62
     7
370
    25
100
AcDbLine
 10
188.8371875
 20
110.1415725736
 30
0.0
 11
189.5371875
 21
110.1415725736
 31
0.0
  0
LINE
  5
213
330
1F
100
AcDbEntity
  8
0
  6
Continuous
 62
     7
370
    25
100
AcDbLine
 10
189.5371875
 20
110.1415725736
 30
0.0
 11
189.5371875
 21
105.9977218154
 31
0.0
  0
ARC
  5
214
330
1F
100
AcDbEntity
  8
0
  6
Continuous
 62
     7
370
    25
100
AcDbCircle
 10
187.0371875
 20
107.2586738367
 30
0.0
 40
2.799999999999991
100
AcDbArc
 50
271.0
 51
333.2344994232
  0
LINE
  5
215
330
1F
100
AcDbEntity
  8
0
  6
Continuous
 62
     7
370
    25
100
AcDbLine
 10
187.086054238
 20
104.4591002902
 30
0.0
 11
182.6232255749
 21
104.3812013262
 31
0.0
  0
ARC
  5
216
330
1F
100
AcDbEntity
  8
0
  6
Continuous
 62
     7
370
    25
100
AcDbCircle
 10
182.6371875
 20
103.58132317
 30
0.0
 40
0.7999999999999902
100
AcDbArc
 50
91.0
 51
180.0
  0
LINE
  5
217
330
1F
100
AcDbEntity
  8
0
  6
Continuous
 62
     7
370
    25
100
AcDbLine
 10
181.8371875
 20
97.6415725736
 30
0.0
 11
181.8371875
 21
103.58132317
 31
0.0
  0
LINE
  5
218
330
1F
100
AcDbEntity
  8
0
  6
Continuous
 62
     7
370
    25
100
AcDbLine
 10
181.8371875
 20
97.6415725736
 30
0.0
 11
180.3371875
 21
97.6153899762
 31
0.0
  0
LINE
  5
219
330
1F
100
AcDbEntity
  8
0
  6
Continuous
 62
     7
370
    25
100
AcDbLine
 10
180.3371875
 20
97.6153899762
 30
0.0
 11
180.3371875
 21
103.3900202369
 31
0.0
  0
ARC
  5
21A
330
1F
100
AcDbEntity
  8
0
  6
Continuous
 62
     7
370
    25
100
AcDbCircle
 10
183.1371875
 20
103.3900202369
 30
0.0
 40
2.800000000000002
100
AcDbArc
 50
91.0
 51
180.0
  0
LINE
  5
21B
330
1F
100
AcDbEntity
  8
0
  6
Continuous
 62
     7
370
    25
100
AcDbLine
 10
183.088320762
 20
106.1895937833
 30
0.0
 11
187.4965754694
 21
106.2665401555
 31
0.0
  0
ARC
  5
21C
330
1F
100
AcDbEntity
  8
0
  6
Continuous
 62
     7
370
    25
100
AcDbCircle
 10
187.4826135443
 20
107.0664183116
 30
0.0
 40
0.8000000000000137
100
AcDbArc
 50
271.0
 51
350.0
  0
LINE
  5
21D
330
1F
100
AcDbEntity
  8
0
  6
Continuous
 62
     7
370
    25
100
AcDbLine
 10
188.2704597467
 20
106.9274997694
 30
0.0
 11
188.8371875
 21
110.1415725736
 31
0.0
  0
LINE
  5
21E
330
1F
100
AcDbEntity
  8
0
  6
Continuous
 62
     7
370
    25
100
AcDbLine
 10
180.3371875
 20
87.667755171
 30
0.0
 11
180.3371875
 21
97.6153899762
 31
0.0
  0
LINE
  5
21F
330
1F
100
AcDbEntity
  8
0
  6
Continuous
 62
     7
370
    25
100
AcDbLine
 10
181.8371875
 20
87.6415725736
 30
0.0
 11
181.8371875
 21
97.6415725736
 31
0.0
  0
LINE
  5
220
330
1F
100
AcDbEntity
  8
0
  6
Continuous
 62
     7
370
    25
100
AcDbLine
 10
189.5825196643
 20
75.1415725736
 30
0.0
 11
189.5371875
 21
75.1415725736
 31
0.0
  0
SPLINE
  5
221
330
1F
100
AcDbEntity
  8
0
  6
Continuous
 62
     7
370
    25
100
AcDbSpline
210
0.0
220
0.0
230
1.0
 70
     8
 71
     3
 72
    10
 73
     6
 74
     0
 42
0.00000001
 43
0.00000001
 40
0.0
 40
0.0
 40
0.0
 40
0.0
 40
0.5
 40
0.5
 40
1.0
 40
1.0
 40
1.0
 40
1.0
 10
189.5825196642646
 20
79.19121214447155
 30
0.0
 10
189.5729447804093
 20
79.21210046785689
 30
0.0
 10
189.5633595306851
 20
79.23230326633906
 30
0.0
 10
189.5457778157412
 20
79.26840771961997
 30
0.0
 10
189.5371874999999
 20
79.28542333183336
 30
0.0
 10
189.5371874999999
 20
79.28542333183334
 30
0.0
  0
LINE
  5
222
330
1F
100
AcDbEntity
  8
0
  6
Continuous
 62
     7
370
    25
100
AcDbLine
 10
189.5371875
 20
110.1415725736
 30
0.0
 11
189.5825196643
 21
110.1415725736
 31
0.0
  0
SPLINE
  5
223
330
1F
100
AcDbEntity
  8
0
  6
Continuous
 62
     7
370
    25
100
AcDbSpline
210
0.0
220
0.0
230
1.0
 70
     8
 71
     3
 72
    10
 73
     6
 74
     0
 42
0.00000001
 43
0.00000001
 40
0.0
 40
0.0
 40
0.0
 40
0.0
 40
0.5
 40
0.5
 40
1.0
 40
1.0
 40
1.0
 40
1.0
 10
189.5371874999999
 20
105.9977218153754
 30
0.0
 10
189.5371874999999
 20
105.9977218153754
 30
0.0
 10
189.545833737524
 20
106.0148531990372
 30
0.0
 10
189.5632532390696
 20
106.0506226765184
 30
0.0
 10
189.5729439438568
 20
106.0710428543502
 30
0.0
 10
189.5825196642646
 20
106.0919330027372
 30
0.0
  0
LINE
  5
224
330
1F
100
AcDbEntity
  8
0
  6
Continuous
 62
     7
370
    25
100
AcDbLine
 10
197.3371875
 20
160.3415040325
 30
0.0
 11
187.3279690803
 21
160.2541549067
 31
0.0
  0
LINE
  5
225
330
1F
100
AcDbEntity
  8
0
  6
Continuous
 62
     7
370
    25
100
AcDbLine
 10
187.3279690803
 20
25.0289902405
 30
0.0
 11
197.3371875
 21
24.9416411147
 31
0.0
  0
LINE
  5
226
330
1F
100
AcDbEntity
  8
0
  6
Continuous
 62
     7
370
    25
100
AcDbLine
 10
189.8371875
 20
107.2586738367
 30
0.0
 11
189.8371875
 21
110.1415725736
 31
0.0
  0
LINE
  5
227
330
1F
100
AcDbEntity
  8
0
  6
Continuous
 62
     7
370
    25
100
AcDbLine
 10
189.5825196643
 20
110.1415725736
 30
0.0
 11
189.8371875
 21
110.1415725736
 31
0.0
  0
ARC
  5
228
330
1F
100
AcDbEntity
  8
0
  6
Continuous
 62
     7
370
    25
100
AcDbCircle
 10
187.0371875
 20
107.2586738367
 30
0.0
 40
2.800000000000002
100
AcDbArc
 50
335.3740121436
 51
0.0
  0
LINE
  5
229
330
1F
100
AcDbEntity
  8
0
  6
Continuous
 62
     7
370
    25
100
AcDbLine
 10
189.8371875
 20
75.1415725736
 30
0.0
 11
189.8371875
 21
78.0244713105
 31
0.0
  0
LINE
  5
22A
330
1F
100
AcDbEntity
  8
0
  6
Continuous
 62
     7
370
    25
100
AcDbLine
 10
189.8371875
 20
75.1415725736
 30
0.0
 11
189.5825196643
 21
75.1415725736
 31
0.0
  0
ARC
  5
22B
330
1F
100
AcDbEntity
  8
0
  6
Continuous
 62
     7
370
    25
100
AcDbCircle
 10
187.0371875
 20
78.0244713105
 30
0.0
 40
2.800000000000002
100
AcDbArc
 50
0.0
 51
24.6259878564
  0
LINE
  5
22C
330
1F
100
AcDbEntity
  8
0
  6
Continuous
 62
     7
370
    25
100
AcDbLine
 10
182.1371875
 20
48.1415725736
 30
0.0
 11
181.8371875
 21
48.1415725736
 31
0.0
  0
LINE
  5
22D
330
1F
100
AcDbEntity
  8
0
  6
Continuous
 62
     7
370
    25
100
AcDbLine
 10
182.1371875
 20
47.6928546249
 30
0.0
 11
182.1371875
 21
48.1415725736
 31
0.0
  0
LINE
  5
22E
330
1F
100
AcDbEntity
  8
0
  6
Continuous
 62
     7
370
    25
100
AcDbLine
 10
182.1371875
 20
47.6928546249
 30
0.0
 11
181.8371875
 21
47.6928546249
 31
0.0
  0
LINE
  5
22F
330
1F
100
AcDbEntity
  8
0
  6
Continuous
 62
     7
370
    25
100
AcDbLine
 10
182.1371875
 20
47.1992648813
 30
0.0
 11
181.8371875
 21
47.1992648813
 31
0.0
  0
LINE
  5
230
330
1F
100
AcDbEntity
  8
0
  6
Continuous
 62
     7
370
    25
100
AcDbLine
 10
182.1371875
 20
44.6415725736
 30
0.0
 11
182.1371875
 21
47.1992648813
 31
0.0
  0
LINE
  5
231
330
1F
100
AcDbEntity
  8
0
  6
Continuous
 62
     7
370
    25
100
AcDbLine
 10
182.1371875
 20
44.6415725736
 30
0.0
 11
181.8371875
 21
44.6415725736
 31
0.0
  0
LINE
  5
232
330
1F
100
AcDbEntity
  8
0
  6
Continuous
 62
     7
370
    25
100
AcDbLine
 10
180.0371875
 20
138.4404507787
 30
0.0
 11
180.3371875
 21
138.4404507787
 31
0.0
  0
SPLINE
  5
233
330
1F
100
AcDbEntity
  8
0
  6
Continuous
 62
     7
370
    25
100
AcDbSpline
210
0.0
220
0.0
230
1.0
 70
    24
 71
     3
 72
    23
 73
    19
 74
     0
 42
0.00000001
 43
0.00000001
 40
0.0
 40
0.0
 40
0.0
 40
0.0
 40
0.0648363736258121
 40
0.1279449161034036
 40
0.1894280196116074
 40
0.2503554464126864
 40
0.310359265353938
 40
0.3704596207746337
 40
0.4311232293228708
 40
0.4928228177782759
 40
0.554756857699506
 40
0.61638123330072
 40
0.6775618660834156
 40
0.7393365758188234
 40
0.8019316697439366
 40
0.8659401578582658
 40
0.9321916958894019
 40
1.0
 40
1.0
 40
1.0
 40
1.0
 10
180.0371875
 20
139.258659913348
 30
0.0
 10
180.0371875
 20
139.2529472979561
 30
0.0
 10
180.0371875
 20
139.2416743032438
 30
0.0
 10
180.0371875
 20
139.2186922390801
 30
0.0
 10
180.0371875
 20
139.1892124526534
 30
0.0
 10
180.0371875
 20
139.1568211171067
 30
0.0
 10
180.0371875
 20
139.1184115771844
 30
0.0
 10
180.0371875
 20
139.0758512830515
 30
0.0
 10
180.0371875
 20
139.0266821619844
 30
0.0
 10
180.0371875
 20
138.9747348387785
 30
0.0
 10
180.0371875
 20
138.9177247589123
 30
0.0
 10
180.0371875
 20
138.8583996639078
 30
0.0
 10
180.0371875
 20
138.7953120879574
 30
0.0
 10
180.0371875
 20
138.7300841232006
 30
0.0
 10
180.0371875
 20
138.6616614675734
 30
0.0
 10
180.0371875
 20
138.5905560315435
 30
0.0
 10
180.0371875
 20
138.5163252344417
 30
0.0
 10
180.0371875
 20
138.4659373067583
 30
0.0
 10
180.0371875
 20
138.4404507787326
 30
0.0
  0
LINE
  5
234
330
1F
100
AcDbEntity
  8
0
  6
Continuous
 62
     7
370
    25
100
AcDbLine
 10
180.0371875
 20
139.2586599133
 30
0.0
 11
180.3371875
 21
139.2586599133
 31
0.0
  0
LINE
  5
235
330
1F
100
AcDbEntity
  8
0
  6
Continuous
 62
     7
370
    25
100
AcDbLine
 10
180.0371875
 20
137.3467007787
 30
0.0
 11
180.3371875
 21
137.3467007787
 31
0.0
  0
SPLINE
  5
236
330
1F
100
AcDbEntity
  8
0
  6
Continuous
 62
     7
370
    25
100
AcDbSpline
210
0.0
220
0.0
230
1.0
 70
    24
 71
     3
 72
    23
 73
    19
 74
     0
 42
0.00000001
 43
0.00000001
 40
0.0
 40
0.0
 40
0.0
 40
0.0
 40
0.0629075118173217
 40
0.1240620716016142
 40
0.1839778251218928
 40
0.2432433840714772
 40
0.3028139496866603
 40
0.3630210379278943
 40
0.4246932892410764
 40
0.4884396049175381
 40
0.552580509798741
 40
0.6148866190330108
 40
0.677395504979019
 40
0.7393205642850744
 40
0.8021920547778542
 40
0.8657714949961198
 40
0.9319586810728181
 40
1.0
 40
1.0
 40
1.0
 40
1.0
 10
180.0371875
 20
138.4404507787326
 30
0.0
 10
180.0371875
 20
138.4032263745352
 30
0.0
 10
180.0371875
 20
138.3298148444103
 30
0.0
 10
180.0371875
 20
138.2220730420269
 30
0.0
 10
180.0371875
 20
138.1185260916533
 30
0.0
 10
180.0371875
 20
138.0187556693085
 30
0.0
 10
180.0371875
 20
137.9239824708698
 30
0.0
 10
180.0371875
 20
137.8328769139853
 30
0.0
 10
180.0371875
 20
137.7463465087175
 30
0.0
 10
180.0371875
 20
137.6650469977577
 30
0.0
 10
180.0371875
 20
137.5906349977827
 30
0.0
 10
180.0371875
 20
137.5252742016279
 30
0.0
 10
180.0371875
 20
137.4699545270301
 30
0.0
 10
180.0371875
 20
137.424720392516
 30
0.0
 10
180.0371875
 20
137.3895251569074
 30
0.0
 10
180.0371875
 20
137.3653356941516
 30
0.0
 10
180.0371875
 20
137.3491975889478
 30
0.0
 10
180.0371875
 20
137.347540677917
 30
0.0
 10
180.0371875
 20
137.3467007787326
 30
0.0
  0
SPLINE
  5
237
330
1F
100
AcDbEntity
  8
0
  6
Continuous
 62
     7
370
    25
100
AcDbSpline
210
0.0
220
0.0
230
1.0
 70
     8
 71
     3
 72
     8
 73
     4
 74
     0
 42
0.00000001
 43
0.00000001
 40
0.0
 40
0.0
 40
0.0
 40
0.0
 40
1.0
 40
1.0
 40
1.0
 40
1.0
 10
188.1010625957712
 20
23.92220166941249
 30
0.0
 10
188.4043626155326
 20
24.08830701777949
 30
0.0
 10
188.7097397513416
 20
24.25248377415697
 30
0.0
 10
189.0177443457904
 20
24.41422094816673
 30
0.0
  0
LINE
  5
238
330
1F
100
AcDbEntity
  8
0
  6
Continuous
 62
     7
370
    25
100
AcDbLine
 10
191.1723043431
 20
24.3954183879
 30
0.0
 11
189.0177443458
 21
24.4142209482
 31
0.0
  0
ARC
  5
239
330
1F
100
AcDbEntity
  8
0
  6
Continuous
 62
     7
370
    25
100
AcDbCircle
 10
197.3328242323
 20
23.3416182669
 30
0.0
 40
6.250000000000023
100
AcDbArc
 50
170.2931037787
 51
174.9114342642
  0
LINE
  5
23A
330
1F
100
AcDbEntity
  8
0
  6
Continuous
 62
     7
370
    25
100
AcDbLine
 10
193.0597673627
 20
24.3789467477
 30
0.0
 11
191.1723043431
 21
24.3954183879
 31
0.0
  0
SPLINE
  5
23B
330
1F
100
AcDbEntity
  8
0
  6
Continuous
 62
     7
370
    25
100
AcDbSpline
210
0.0
220
0.0
230
1.0
 70
     8
 71
     3
 72
     8
 73
     4
 74
     0
 42
0.00000001
 43
0.00000001
 40
0.0
 40
0.0
 40
0.0
 40
0.0
 40
1.0
 40
1.0
 40
1.0
 40
1.0
 10
192.1112502551625
 20
23.88720529189284
 30
0.0
 10
192.4271542670283
 20
24.05574262229007
 30
0.0
 10
192.7471090070089
 20
24.22033164445203
 30
0.0
 10
193.0733139161291
 20
24.37882852871019
 30
0.0
  0
LINE
  5
23C
330
1F
100
AcDbEntity
  8
0
  6
Continuous
 62
     7
370
    25
100
AcDbLine
 10
195.3260630772
 20
24.3591690846
 30
0.0
 11
193.0733139161
 21
24.3788285287
 31
0.0
  0
ARC
  5
23D
330
1F
100
AcDbEntity
  8
0
  6
Continuous
 62
     7
370
    25
100
AcDbCircle
 10
197.3328242323
 20
23.3416182669
 30
0.0
 40
2.250000000000014
100
AcDbArc
 50
153.1122000388
 51
166.6604115931
  0
LINE
  5
23E
330
1F
100
AcDbEntity
  8
0
  6
Continuous
 62
     7
370
    25
100
AcDbLine
 10
197.3371875
 20
24.3416182677
 30
0.0
 11
195.3260630772
 21
24.3591690846
 31
0.0
  0
LINE
  5
23F
330
1F
100
AcDbEntity
  8
0
  6
Continuous
 62
     7
370
    25
100
AcDbLine
 10
197.3371875
 20
24.3416182677
 30
0.0
 11
197.3371875
 21
23.8415992285
 31
0.0
  0
SPLINE
  5
240
330
1F
100
AcDbEntity
  8
0
  6
Continuous
 62
     7
370
    25
100
AcDbSpline
210
0.0
220
0.0
230
1.0
 70
     8
 71
     3
 72
     8
 73
     4
 74
     0
 42
0.00000001
 43
0.00000001
 40
0.0
 40
0.0
 40
0.0
 40
0.0
 40
1.0
 40
1.0
 40
1.0
 40
1.0
 10
189.0177443457904
 20
160.868924199042
 30
0.0
 10
188.7097397513416
 20
161.0306613730517
 30
0.0
 10
188.4043626155326
 20
161.1948381294292
 30
0.0
 10
188.1010625957712
 20
161.3609434777962
 30
0.0
  0
ARC
  5
241
330
1F
100
AcDbEntity
  8
0
  6
Continuous
 62
     7
370
    25
100
AcDbCircle
 10
197.3328242323
 20
161.9415268803
 30
0.0
 40
6.250000000000024
100
AcDbArc
 50
185.0885657358
 51
189.7068962213
  0
LINE
  5
242
330
1F
100
AcDbEntity
  8
0
  6
Continuous
 62
     7
370
    25
100
AcDbLine
 10
189.0177443458
 20
160.868924199
 30
0.0
 11
191.1723043431
 21
160.8877267593
 31
0.0
  0
SPLINE
  5
243
330
1F
100
AcDbEntity
  8
0
  6
Continuous
 62
     7
370
    25
100
AcDbSpline
210
0.0
220
0.0
230
1.0
 70
     8
 71
     3
 72
     8
 73
     4
 74
     0
 42
0.00000001
 43
0.00000001
 40
0.0
 40
0.0
 40
0.0
 40
0.0
 40
1.0
 40
1.0
 40
1.0
 40
1.0
 10
193.0733139161291
 20
160.9043166184985
 30
0.0
 10
192.7471090070089
 20
161.0628135027567
 30
0.0
 10
192.4271542670283
 20
161.2274025249186
 30
0.0
 10
192.1112502551625
 20
161.3959398553159
 30
0.0
  0
ARC
  5
244
330
1F
100
AcDbEntity
  8
0
  6
Continuous
 62
     7
370
    25
100
AcDbCircle
 10
197.3328242323
 20
161.9415268803
 30
0.0
 40
2.25000000000002
100
AcDbArc
 50
193.3395884069
 51
206.8877999612
  0
LINE
  5
245
330
1F
100
AcDbEntity
  8
0
  6
Continuous
 62
     7
370
    25
100
AcDbLine
 10
193.0733139161
 20
160.9043166185
 30
0.0
 11
195.3260630772
 21
160.9239760626
 31
0.0
  0
LINE
  5
246
330
1F
100
AcDbEntity
  8
0
  6
Continuous
 62
     7
370
    25
100
AcDbLine
 10
195.3260630772
 20
160.9239760626
 30
0.0
 11
197.3371875
 21
160.9415268795
 31
0.0
  0
LINE
  5
247
330
1F
100
AcDbEntity
  8
0
  6
Continuous
 62
     7
370
    25
100
AcDbLine
 10
197.3371875
 20
161.4415459187
 30
0.0
 11
197.3371875
 21
160.9415268795
 31
0.0
  0
LINE
  5
248
330
1F
100
AcDbEntity
  8
0
  6
Continuous
 62
     7
370
    25
100
AcDbLine
 10
191.1723043431
 20
160.8877267593
 30
0.0
 11
193.036739788
 21
160.9039974409
 31
0.0
  0
LINE
  5
249
330
1F
100
AcDbEntity
  8
0
  6
Continuous
 62
     7
370
    25
100
AcDbLine
 10
180.0371875
 20
139.9941366762
 30
0.0
 11
180.3371875
 21
139.9941366762
 31
0.0
  0
SPLINE
  5
24A
330
1F
100
AcDbEntity
  8
0
  6
Continuous
 62
     7
370
    25
100
AcDbSpline
210
0.0
220
0.0
230
1.0
 70
    24
 71
     3
 72
    15
 73
    11
 74
     0
 42
0.00000001
 43
0.00000001
 40
0.0
 40
0.0
 40
0.0
 40
0.0
 40
0.1196964719965266
 40
0.2359437583202418
 40
0.3505624285330343
 40
0.4675738794453407
 40
0.5886790971730637
 40
0.7164321348375419
 40
0.8533140436686085
 40
1.0
 40
1.0
 40
1.0
 40
1.0
 10
180.0371875
 20
139.9941366761685
 30
0.0
 10
180.0371875
 20
139.9566107508817
 30
0.0
 10
180.0371875
 20
139.8826402511759
 30
0.0
 10
180.0371875
 20
139.7750351343191
 30
0.0
 10
180.0371875
 20
139.6733144967425
 30
0.0
 10
180.0371875
 20
139.5770897647228
 30
0.0
 10
180.0371875
 20
139.4872538675947
 30
0.0
 10
180.0371875
 20
139.404615135657
 30
0.0
 10
180.0371875
 20
139.3260200349172
 30
0.0
 10
180.0371875
 20
139.281624924598
 30
0.0
 10
180.0371875
 20
139.258659913348
 30
0.0
  0
LINE
  5
24B
330
1F
100
AcDbEntity
  8
0
  6
Continuous
 62
     7
370
    25
100
AcDbLine
 10
180.0371875
 20
140.5767688877
 30
0.0
 11
180.3371875
 21
140.5767688877
 31
0.0
  0
SPLINE
  5
24C
330
1F
100
AcDbEntity
  8
0
  6
Continuous
 62
     7
370
    25
100
AcDbSpline
210
0.0
220
0.0
230
1.0
 70
    24
 71
     3
 72
    15
 73
    11
 74
     0
 42
0.00000001
 43
0.00000001
 40
0.0
 40
0.0
 40
0.0
 40
0.0
 40
0.1331978343624764
 40
0.2630795403811855
 40
0.3876611031449297
 40
0.5115071050662605
 40
0.6323856124295698
 40
0.7532592432015554
 40
0.8761016530293189
 40
1.0
 40
1.0
 40
1.0
 40
1.0
 10
180.0371875
 20
140.576768887707
 30
0.0
 10
180.0371875
 20
140.5553522772386
 30
0.0
 10
180.0371875
 20
140.5130522498732
 30
0.0
 10
180.0371875
 20
140.4452342082434
 30
0.0
 10
180.0371875
 20
140.3747651423578
 30
0.0
 10
180.0371875
 20
140.3031154185086
 30
0.0
 10
180.0371875
 20
140.2286235560487
 30
0.0
 10
180.0371875
 20
140.1524588889401
 30
0.0
 10
180.0371875
 20
140.0739465508458
 30
0.0
 10
180.0371875
 20
140.0208157595245
 30
0.0
 10
180.0371875
 20
139.9941366761685
 30
0.0
  0
LINE
  5
24D
330
1F
100
AcDbEntity
  8
0
  6
Continuous
 62
     7
370
    25
100
AcDbLine
 10
180.0371875
 20
140.8915725736
 30
0.0
 11
180.3371875
 21
140.8915725736
 31
0.0
  0
SPLINE
  5
24E
330
1F
100
AcDbEntity
  8
0
  6
Continuous
 62
     7
370
    25
100
AcDbSpline
210
0.0
220
0.0
230
1.0
 70
    24
 71
     3
 72
    15
 73
    11
 74
     0
 42
0.00000001
 43
0.00000001
 40
0.0
 40
0.0
 40
0.0
 40
0.0
 40
0.1371223374139015
 40
0.2679123640023179
 40
0.3935226983663871
 40
0.5160237818867056
 40
0.6367751505916602
 40
0.7569302398618508
 40
0.8771627914374645
 40
0.9999999999999999
 40
0.9999999999999999
 40
0.9999999999999999
 40
0.9999999999999999
 10
180.0371875
 20
140.8915725736044
 30
0.0
 10
180.0371875
 20
140.8906780428706
 30
0.0
 10
180.0371875
 20
140.8889302908408
 30
0.0
 10
180.0371875
 20
140.8738912326841
 30
0.0
 10
180.0371875
 20
140.8494601154987
 30
0.0
 10
180.0371875
 20
140.8149006058172
 30
0.0
 10
180.0371875
 20
140.770898363651
 30
0.0
 10
180.0371875
 20
140.7155361801139
 30
0.0
 10
180.0371875
 20
140.6516333803373
 30
0.0
 10
180.0371875
 20
140.6019013560167
 30
0.0
 10
180.0371875
 20
140.576768887707
 30
0.0
  0
LINE
  5
24F
330
1F
100
AcDbEntity
  8
0
  6
Continuous
 62
     7
370
    25
100
AcDbLine
 10
182.1371875
 20
47.2441366762
 30
0.0
 11
181.8371875
 21
47.2441366762
 31
0.0
  0
LINE
  5
250
330
1F
100
AcDbEntity
  8
0
  6
Continuous
 62
     7
370
    25
100
AcDbLine
 10
182.1371875
 20
44.5967007787
 30
0.0
 11
181.8371875
 21
44.5967007787
 31
0.0
  0
LINE
  5
251
330
1F
100
AcDbEntity
  8
0
  6
Continuous
 62
     7
370
    25
100
AcDbLine
 10
181.8371875
 20
42.6852102359
 30
0.0
 11
181.8808185161
 21
42.6844486537
 31
0.0
  0
LINE
  5
252
330
1F
100
AcDbEntity
  8
0
  6
Continuous
 62
     7
370
    25
100
AcDbLine
 10
181.8808185161
 20
33.7986964935
 30
0.0
 11
181.8371875
 21
33.7979349113
 31
0.0
  0
LINE
  5
253
330
1F
100
AcDbEntity
  8
0
  6
Continuous
 62
     7
370
    25
100
AcDbLine
 10
181.8371875
 20
151.4852102359
 30
0.0
 11
181.8808185161
 21
151.4844486537
 31
0.0
  0
LINE
  5
254
330
1F
100
AcDbEntity
  8
0
  6
Continuous
 62
     7
370
    25
100
AcDbLine
 10
181.8808185161
 20
142.5986964935
 30
0.0
 11
181.8371875
 21
142.5979349113
 31
0.0
  0
ARC
  5
255
330
1F
100
AcDbEntity
  8
0
  6
Continuous
 62
     7
370
    25
100
AcDbCircle
 10
181.8371875
 20
40.1848294158
 30
0.0
 40
2.500000000000004
100
AcDbArc
 50
0.0
 51
89.0
  0
ARC
  5
256
330
1F
100
AcDbEntity
  8
0
  6
Continuous
 62
     7
370
    25
100
AcDbCircle
 10
181.8371875
 20
148.9848294158
 30
0.0
 40
2.500000000000004
100
AcDbArc
 50
0.0
 51
89.0
  0
ARC
  5
257
330
1F
100
AcDbEntity
  8
0
  6
Continuous
 62
     7
370
    25
100
AcDbCircle
 10
181.8371875
 20
145.0983157314
 30
0.0
 40
2.500000000000033
100
AcDbArc
 50
271.0
 51
0.0
  0
ARC
  5
258
330
1F
100
AcDbEntity
  8
0
  6
Continuous
 62
     7
370
    25
100
AcDbCircle
 10
181.8371875
 20
36.2983157314
 30
0.0
 40
2.500000000000004
100
AcDbArc
 50
271.0
 51
0.0
  0
LINE
  5
259
330
1F
100
AcDbEntity
  8
0
  6
Continuous
 62
     7
370
    25
100
AcDbLine
 10
184.3371875
 20
40.1848294158
 30
0.0
 11
184.3371875
 21
36.2983157314
 31
0.0
  0
LINE
  5
25A
330
1F
100
AcDbEntity
  8
0
  6
Continuous
 62
     7
370
    25
100
AcDbLine
 10
184.3371875
 20
148.9848294158
 30
0.0
 11
184.3371875
 21
145.0983157314
 31
0.0
  0
LINE
  5
25B
330
1F
100
AcDbEntity
  8
0
  6
Continuous
 62
     7
370
    25
100
AcDbLine
 10
180.0371875
 20
31.1415725736
 30
0.0
 11
180.3371875
 21
31.1415725736
 31
0.0
  0
LINE
  5
25C
330
1F
100
AcDbEntity
  8
0
  6
Continuous
 62
     7
370
    25
100
AcDbLine
 10
180.0371875
 20
31.1415725736
 30
0.0
 11
180.0371875
 21
31.6415725736
 31
0.0
  0
LINE
  5
25D
330
1F
100
AcDbEntity
  8
0
  6
Continuous
 62
     7
370
    25
100
AcDbLine
 10
180.0371875
 20
31.6415725736
 30
0.0
 11
180.3371875
 21
31.6415725736
 31
0.0
  0
LINE
  5
25E
330
1F
100
AcDbEntity
  8
0
  6
Continuous
 62
     7
370
    25
100
AcDbLine
 10
180.3371875
 20
144.4031714308
 30
0.0
 11
180.3371875
 21
149.6799737164
 31
0.0
  0
LINE
  5
25F
330
1F
100
AcDbEntity
  8
0
  6
Continuous
 62
     7
370
    25
100
AcDbLine
 10
180.3371875
 20
35.6031714308
 30
0.0
 11
180.3371875
 21
40.8799737164
 31
0.0
  0
LINE
  5
260
330
1F
100
AcDbEntity
  8
0
  6
Continuous
 62
     7
370
    25
100
AcDbLine
 10
181.8371875
 20
149.6537911191
 30
0.0
 11
181.8371875
 21
144.4293540282
 31
0.0
  0
LINE
  5
261
330
1F
100
AcDbEntity
  8
0
  6
Continuous
 62
     7
370
    25
100
AcDbLine
 10
181.8371875
 20
40.8537911191
 30
0.0
 11
181.8371875
 21
35.6293540282
 31
0.0
  0
LINE
  5
262
330
1F
100
AcDbEntity
  8
0
  6
Continuous
 62
     7
370
    25
100
AcDbLine
 10
182.1371875
 20
47.297372105
 30
0.0
 11
182.1371875
 21
47.6928546249
 31
0.0
  0
LINE
  5
263
330
1F
100
AcDbEntity
  8
0
  6
Continuous
 62
     7
370
    25
100
AcDbLine
 10
180.0371875
 20
32.6415725736
 30
0.0
 11
180.3371875
 21
32.6415725736
 31
0.0
  0
LINE
  5
264
330
1F
100
AcDbEntity
  8
0
  6
Continuous
 62
     7
370
    25
100
AcDbLine
 10
180.0371875
 20
35.6415725736
 30
0.0
 11
180.3371875
 21
35.6415725736
 31
0.0
  0
LINE
  5
265
330
1F
100
AcDbEntity
  8
0
  6
Continuous
 62
     7
370
    25
100
AcDbLine
 10
180.0371875
 20
32.6415725736
 30
0.0
 11
180.0371875
 21
35.6415725736
 31
0.0
  0
LINE
  5
266
330
1F
100
AcDbEntity
  8
0
  6
Continuous
 62
     7
370
    25
100
AcDbLine
 10
180.0371875
 20
149.6415725736
 30
0.0
 11
180.0371875
 21
152.6415725736
 31
0.0
  0
LINE
  5
267
330
1F
100
AcDbEntity
  8
0
  6
Continuous
 62
     7
370
    25
100
AcDbLine
 10
180.0371875
 20
152.6415725736
 30
0.0
 11
180.3371875
 21
152.6415725736
 31
0.0
  0
LINE
  5
268
330
1F
100
AcDbEntity
  8
0
  6
Continuous
 62
     7
370
    25
100
AcDbLine
 10
180.0371875
 20
149.6415725736
 30
0.0
 11
180.3371875
 21
149.6415725736
 31
0.0
  0
LINE
  5
269
330
1F
100
AcDbEntity
  8
0
  6
Continuous
 62
     7
370
    25
100
AcDbLine
 10
180.0371875
 20
69.3915725736
 30
0.0
 11
180.3371875
 21
69.3915725736
 31
0.0
  0
LINE
  5
26A
330
1F
100
AcDbEntity
  8
0
  6
Continuous
 62
     7
370
    25
100
AcDbLine
 10
180.0371875
 20
35.6415725736
 30
0.0
 11
180.0371875
 21
69.3915725736
 31
0.0
  0
LINE
  5
26B
330
1F
100
AcDbEntity
  8
0
  6
Continuous
 62
     7
370
    25
100
AcDbLine
 10
180.0371875
 20
82.6415725736
 30
0.0
 11
180.3371875
 21
82.6415725736
 31
0.0
  0
LINE
  5
26C
330
1F
100
AcDbEntity
  8
0
  6
Continuous
 62
     7
370
    25
100
AcDbLine
 10
180.0371875
 20
82.6415725736
 30
0.0
 11
180.0371875
 21
102.6415725736
 31
0.0
  0
LINE
  5
26D
330
1F
100
AcDbEntity
  8
0
  6
Continuous
 62
     7
370
    25
100
AcDbLine
 10
180.0371875
 20
102.6415725736
 30
0.0
 11
180.3371875
 21
102.6415725736
 31
0.0
  0
LINE
  5
26E
330
1F
100
AcDbEntity
  8
0
  6
Continuous
 62
     7
370
    25
100
AcDbLine
 10
180.0371875
 20
115.8915725736
 30
0.0
 11
180.3371875
 21
115.8915725736
 31
0.0
  0
LINE
  5
26F
330
1F
100
AcDbEntity
  8
0
  6
Continuous
 62
     7
370
    25
100
AcDbLine
 10
180.0371875
 20
115.8915725736
 30
0.0
 11
180.0371875
 21
134.8915725736
 31
0.0
  0
LINE
  5
270
330
1F
100
AcDbEntity
  8
0
  6
Continuous
 62
     7
370
    25
100
AcDbLine
 10
180.0371875
 20
134.8915725736
 30
0.0
 11
180.3371875
 21
134.8915725736
 31
0.0
  0
LINE
  5
271
330
1F
100
AcDbEntity
  8
0
  6
Continuous
 62
     7
370
    25
100
AcDbLine
 10
180.0371875
 20
136.8915725736
 30
0.0
 11
180.3371875
 21
136.8915725736
 31
0.0
  0
LINE
  5
272
330
1F
100
AcDbEntity
  8
0
  6
Continuous
 62
     7
370
    25
100
AcDbLine
 10
180.0371875
 20
136.8915725736
 30
0.0
 11
180.0371875
 21
137.2934653499
 31
0.0
  0
LINE
  5
273
330
1F
100
AcDbEntity
  8
0
  6
Continuous
 62
     7
370
    25
100
AcDbLine
 10
180.0371875
 20
140.9448080024
 30
0.0
 11
180.0371875
 21
149.6415725736
 31
0.0
  0
LINE
  5
274
330
1F
100
AcDbEntity
  8
0
  6
Continuous
 62
     7
370
    25
100
AcDbLine
 10
182.1371875
 20
141.267755171
 30
0.0
 11
182.1371875
 21
142.6163810022
 31
0.0
  0
LINE
  5
275
330
1F
100
AcDbEntity
  8
0
  6
Continuous
 62
     7
370
    25
100
AcDbLine
 10
182.1371875
 20
141.267755171
 30
0.0
 11
181.8371875
 21
141.267755171
 31
0.0
  0
ARC
  5
276
330
1F
100
AcDbEntity
  8
0
  6
Continuous
 62
     7
370
    25
100
AcDbCircle
 10
179.8371875
 20
142.8415725736
 30
0.0
 40
0.5
100
AcDbArc
 50
180.0
 51
270.0
  0
LINE
  5
277
330
1F
100
AcDbEntity
  8
0
  6
Continuous
 62
     7
370
    25
100
AcDbLine
 10
179.3371875
 20
142.8415725736
 30
0.0
 11
179.3371875
 21
144.1415725736
 31
0.0
  0
LINE
  5
278
330
1F
100
AcDbEntity
  8
0
  6
Continuous
 62
     7
370
    25
100
AcDbLine
 10
179.3371875
 20
144.1415725736
 30
0.0
 11
179.3371875
 21
157.8418162985
 31
0.0
  0
LINE
  5
279
330
1F
100
AcDbEntity
  8
0
  6
Continuous
 62
     7
370
    25
100
AcDbLine
 10
180.0371875
 20
142.3415725736
 30
0.0
 11
179.8371875
 21
142.3415725736
 31
0.0
  0
LINE
  5
27A
330
1F
100
AcDbEntity
  8
0
  6
Continuous
 62
     7
370
    25
100
AcDbLine
 10
179.3371875
 20
157.8418162985
 30
0.0
 11
179.3371875
 21
159.1418162985
 31
0.0
  0
ARC
  5
27B
330
1F
100
AcDbEntity
  8
0
  6
Continuous
 62
     7
370
    25
100
AcDbCircle
 10
179.8371875
 20
159.1418162985
 30
0.0
 40
0.5
100
AcDbArc
 50
90.0
 51
180.0
  0
LINE
  5
27C
330
1F
100
AcDbEntity
  8
0
  6
Continuous
 62
     7
370
    25
100
AcDbLine
 10
179.8371875
 20
159.6418162985
 30
0.0
 11
180.3371875
 21
159.6418162985
 31
0.0
  0
LINE
  5
27D
330
1F
100
AcDbEntity
  8
0
  6
Continuous
 62
     7
370
    25
100
AcDbLine
 10
186.8371875
 20
38.3129486174
 30
0.0
 11
186.8371875
 21
25.0332732265
 31
0.0
  0
LINE
  5
27E
330
1F
100
AcDbEntity
  8
0
  6
Continuous
 62
     7
370
    25
100
AcDbLine
 10
198.5441687284
 20
24.9311079491
 30
0.0
 11
197.3371875
 21
24.9416411147
 31
0.0
  0
LINE
  5
27F
330
1F
100
AcDbEntity
  8
0
  6
Continuous
 62
     7
370
    25
100
AcDbLine
 10
198.5441687284
 20
160.3520371981
 30
0.0
 11
197.3371875
 21
160.3415040325
 31
0.0
  0
LINE
  5
280
330
1F
100
AcDbEntity
  8
0
  6
Continuous
 62
     7
370
    25
100
AcDbLine
 10
198.5441687284
 20
24.9311079491
 30
0.0
 11
199.3371875
 21
24.9241873791
 31
0.0
  0
LINE
  5
281
330
1F
100
AcDbEntity
  8
0
  6
Continuous
 62
     7
370
    25
100
AcDbLine
 10
199.3371875
 20
160.3589577681
 30
0.0
 11
198.5441687284
 21
160.3520371981
 31
0.0
  0
LINE
  5
282
330
1F
100
AcDbEntity
  8
0
  6
Continuous
 62
     7
370
    25
100
AcDbLine
 10
182.1371875
 20
135.317755171
 30
0.0
 11
181.8371875
 21
135.317755171
 31
0.0
  0
LINE
  5
283
330
1F
100
AcDbEntity
  8
0
  6
Continuous
 62
     7
370
    25
100
AcDbLine
 10
182.1371875
 20
135.317755171
 30
0.0
 11
182.1371875
 21
135.217755171
 31
0.0
  0
LINE
  5
284
330
1F
100
AcDbEntity
  8
0
  6
Continuous
 62
     7
370
    25
100
AcDbLine
 10
182.1371875
 20
135.217755171
 30
0.0
 11
181.8371875
 21
135.217755171
 31
0.0
  0
LINE
  5
285
330
1F
100
AcDbEntity
  8
0
  6
Continuous
 62
     7
370
    25
100
AcDbLine
 10
182.1371875
 20
133.317755171
 30
0.0
 11
181.8371875
 21
133.317755171
 31
0.0
  0
LINE
  5
286
330
1F
100
AcDbEntity
  8
0
  6
Continuous
 62
     7
370
    25
100
AcDbLine
 10
182.1371875
 20
133.317755171
 30
0.0
 11
182.1371875
 21
133.217755171
 31
0.0
  0
LINE
  5
287
330
1F
100
AcDbEntity
  8
0
  6
Continuous
 62
     7
370
    25
100
AcDbLine
 10
182.1371875
 20
133.217755171
 30
0.0
 11
181.8371875
 21
133.217755171
 31
0.0
  0
LINE
  5
288
330
1F
100
AcDbEntity
  8
0
  6
Continuous
 62
     7
370
    25
100
AcDbLine
 10
182.1371875
 20
135.217755171
 30
0.0
 11
182.1371875
 21
133.317755171
 31
0.0
  0
LINE
  5
289
330
1F
100
AcDbEntity
  8
0
  6
Continuous
 62
     7
370
    25
100
AcDbLine
 10
179.3371875
 20
31.3915725736
 30
0.0
 11
179.3371875
 21
37.6312890483
 31
0.0
  0
LINE
  5
28A
330
1F
100
AcDbEntity
  8
0
  6
Continuous
 62
     7
370
    25
100
AcDbLine
 10
179.3371875
 20
25.1518560989
 30
0.0
 11
179.3371875
 21
31.3915725736
 31
0.0
  0
LINE
  5
28B
330
1F
100
AcDbEntity
  8
0
  6
Continuous
 62
     7
370
    25
100
AcDbLine
 10
182.1371875
 20
138.8843817736
 30
0.0
 11
181.8371875
 21
138.8843817736
 31
0.0
  0
LINE
  5
28C
330
1F
100
AcDbEntity
  8
0
  6
Continuous
 62
     7
370
    25
100
AcDbLine
 10
182.1371875
 20
138.5190372223
 30
0.0
 11
182.1371875
 21
138.8843817736
 31
0.0
  0
LINE
  5
28D
330
1F
100
AcDbEntity
  8
0
  6
Continuous
 62
     7
370
    25
100
AcDbLine
 10
182.1371875
 20
138.5190372223
 30
0.0
 11
181.8371875
 21
138.5190372223
 31
0.0
  0
LINE
  5
28E
330
1F
100
AcDbEntity
  8
0
  6
Continuous
 62
     7
370
    25
100
AcDbLine
 10
182.1371875
 20
140.2395500428
 30
0.0
 11
181.8371875
 21
140.2395500428
 31
0.0
  0
LINE
  5
28F
330
1F
100
AcDbEntity
  8
0
  6
Continuous
 62
     7
370
    25
100
AcDbLine
 10
182.1371875
 20
138.8843817736
 30
0.0
 11
182.1371875
 21
140.2395500428
 31
0.0
  0
LINE
  5
290
330
1F
100
AcDbEntity
  8
0
  6
Continuous
 62
     7
370
    25
100
AcDbLine
 10
182.1371875
 20
135.717755171
 30
0.0
 11
181.8371875
 21
135.717755171
 31
0.0
  0
LINE
  5
291
330
1F
100
AcDbEntity
  8
0
  6
Continuous
 62
     7
370
    25
100
AcDbLine
 10
182.1371875
 20
135.717755171
 30
0.0
 11
182.1371875
 21
135.317755171
 31
0.0
  0
LINE
  5
292
330
1F
100
AcDbEntity
  8
0
  6
Continuous
 62
     7
370
    25
100
AcDbLine
 10
226.8372047926
 20
147.6415810078
 30
0.0
 11
226.8371875
 21
147.6415725736
 31
0.0
  0
LINE
  5
293
330
1F
100
AcDbEntity
  8
0
  6
Continuous
 62
     7
370
    25
100
AcDbLine
 10
182.1371875
 20
138.067755171
 30
0.0
 11
181.8371875
 21
138.067755171
 31
0.0
  0
LINE
  5
294
330
1F
100
AcDbEntity
  8
0
  6
Continuous
 62
     7
370
    25
100
AcDbLine
 10
182.1371875
 20
138.067755171
 30
0.0
 11
182.1371875
 21
138.5190372223
 31
0.0
  0
LINE
  5
295
330
1F
100
AcDbEntity
  8
0
  6
Continuous
 62
     7
370
    25
100
AcDbLine
 10
179.3371875
 20
91.6415725736
 30
0.0
 11
179.3371875
 21
93.6415725736
 31
0.0
  0
LINE
  5
296
330
1F
100
AcDbEntity
  8
0
  6
Continuous
 62
     7
370
    25
100
AcDbLine
 10
179.3371875
 20
93.6415725736
 30
0.0
 11
179.3371875
 21
98.1371901005
 31
0.0
  0
LINE
  5
297
330
1F
100
AcDbEntity
  8
0
  6
Continuous
 62
     7
370
    25
100
AcDbLine
 10
179.3371875
 20
87.1459550467
 30
0.0
 11
179.3371875
 21
91.6415725736
 31
0.0
  0
LINE
  5
298
330
1F
100
AcDbEntity
  8
0
  6
Continuous
 62
     7
370
    25
100
AcDbLine
 10
182.1371875
 20
132.817755171
 30
0.0
 11
181.8371875
 21
132.817755171
 31
0.0
  0
LINE
  5
299
330
1F
100
AcDbEntity
  8
0
  6
Continuous
 62
     7
370
    25
100
AcDbLine
 10
182.1371875
 20
133.217755171
 30
0.0
 11
182.1371875
 21
132.817755171
 31
0.0
  0
LINE
  5
29A
330
1F
100
AcDbEntity
  8
0
  6
Continuous
 62
     7
370
    25
100
AcDbLine
 10
180.0371875
 20
134.8915725736
 30
0.0
 11
180.0371875
 21
135.6415725736
 31
0.0
  0
LINE
  5
29B
330
1F
100
AcDbEntity
  8
0
  6
Continuous
 62
     7
370
    25
100
AcDbLine
 10
180.0371875
 20
136.1415725736
 30
0.0
 11
180.0371875
 21
136.8915725736
 31
0.0
  0
LINE
  5
29C
330
1F
100
AcDbEntity
  8
0
  6
Continuous
 62
     7
370
    25
100
AcDbLine
 10
182.1371875
 20
137.7292936325
 30
0.0
 11
181.8371875
 21
137.7292936325
 31
0.0
  0
LINE
  5
29D
330
1F
100
AcDbEntity
  8
0
  6
Continuous
 62
     7
370
    25
100
AcDbLine
 10
182.1371875
 20
137.5600628633
 30
0.0
 11
182.1371875
 21
137.7292936325
 31
0.0
  0
LINE
  5
29E
330
1F
100
AcDbEntity
  8
0
  6
Continuous
 62
     7
370
    25
100
AcDbLine
 10
182.1371875
 20
137.5600628633
 30
0.0
 11
181.8371875
 21
137.5600628633
 31
0.0
  0
SPLINE
  5
29F
330
1F
100
AcDbEntity
  8
0
  6
Continuous
 62
     7
370
    25
100
AcDbSpline
210
0.0
220
0.0
230
1.0
 70
    24
 71
     3
 72
    15
 73
    11
 74
     0
 42
0.00000001
 43
0.00000001
 40
0.0
 40
0.0
 40
0.0
 40
0.0
 40
0.1392449771444388
 40
0.2657021051015583
 40
0.3809368040136024
 40
0.4893585640324721
 40
0.6001902458324805
 40
0.720743413981996
 40
0.8531871022797547
 40
0.9999999999999999
 40
0.9999999999999999
 40
0.9999999999999999
 40
0.9999999999999999
 10
182.1371875
 20
137.7292936325352
 30
0.0
 10
182.1371875
 20
137.737054272946
 30
0.0
 10
182.1371875
 20
137.751862839376
 30
0.0
 10
182.1371875
 20
137.7803894666075
 30
0.0
 10
182.1371875
 20
137.813958344315
 30
0.0
 10
182.1371875
 20
137.8520023186692
 30
0.0
 10
182.1371875
 20
137.8967536456105
 30
0.0
 10
182.1371875
 20
137.9474565974902
 30
0.0
 10
182.1371875
 20
138.0054081451556
 30
0.0
 10
182.1371875
 20
138.046271943783
 30
0.0
 10
182.1371875
 20
138.0677551709967
 30
0.0
  0
LINE
  5
2A0
330
1F
100
AcDbEntity
  8
0
  6
Continuous
 62
     7
370
    25
100
AcDbLine
 10
182.1371875
 20
140.267755171
 30
0.0
 11
181.8371875
 21
140.267755171
 31
0.0
  0
LINE
  5
2A1
330
1F
100
AcDbEntity
  8
0
  6
Continuous
 62
     7
370
    25
100
AcDbLine
 10
182.1371875
 20
141.2395500428
 30
0.0
 11
181.8371875
 21
141.2395500428
 31
0.0
  0
LINE
  5
2A2
330
1F
100
AcDbEntity
  8
0
  6
Continuous
 62
     7
370
    25
100
AcDbLine
 10
189.8371875
 20
77.6415725736
 30
0.0
 11
190.6459137032
 21
77.6274562052
 31
0.0
  0
LINE
  5
2A3
330
1F
100
AcDbEntity
  8
0
  6
Continuous
 62
     7
370
    25
100
AcDbLine
 10
190.6459137032
 20
75.1415725736
 30
0.0
 11
189.8371875
 21
75.1415725736
 31
0.0
  0
LINE
  5
2A4
330
1F
100
AcDbEntity
  8
0
  6
Continuous
 62
     7
370
    25
100
AcDbLine
 10
190.6459137032
 20
107.655688942
 30
0.0
 11
189.8371875
 21
107.6415725736
 31
0.0
  0
LINE
  5
2A5
330
1F
100
AcDbEntity
  8
0
  6
Continuous
 62
     7
370
    25
100
AcDbLine
 10
190.6459137032
 20
110.1415725736
 30
0.0
 11
189.8371875
 21
110.1415725736
 31
0.0
  0
LINE
  5
2A6
330
1F
100
AcDbEntity
  8
0
  6
Continuous
 62
     7
370
    25
100
AcDbLine
 10
191.1371875
 20
77.1275323576
 30
0.0
 11
191.1371875
 21
75.1415725736
 31
0.0
  0
LINE
  5
2A7
330
1F
100
AcDbEntity
  8
0
  6
Continuous
 62
     7
370
    25
100
AcDbLine
 10
191.1371875
 20
75.1415725736
 30
0.0
 11
190.6459137032
 21
75.1415725736
 31
0.0
  0
ARC
  5
2A8
330
1F
100
AcDbEntity
  8
0
  6
Continuous
 62
     7
370
    25
100
AcDbCircle
 10
190.6371875
 20
77.1275323576
 30
0.0
 40
0.5000000000000058
100
AcDbArc
 50
0.0
 51
89.0
  0
LINE
  5
2A9
330
1F
100
AcDbEntity
  8
0
  6
Continuous
 62
     7
370
    25
100
AcDbLine
 10
191.1371875
 20
110.1415725736
 30
0.0
 11
191.1371875
 21
108.1556127896
 31
0.0
  0
LINE
  5
2AA
330
1F
100
AcDbEntity
  8
0
  6
Continuous
 62
     7
370
    25
100
AcDbLine
 10
190.6459137032
 20
110.1415725736
 30
0.0
 11
191.1371875
 21
110.1415725736
 31
0.0
  0
ARC
  5
2AB
330
1F
100
AcDbEntity
  8
0
  6
Continuous
 62
     7
370
    25
100
AcDbCircle
 10
190.6371875
 20
108.1556127896
 30
0.0
 40
0.5000000000000058
100
AcDbArc
 50
271.0
 51
0.0
  0
LINE
  5
2AC
330
1F
100
AcDbEntity
  8
0
  6
Continuous
 62
     7
370
    25
100
AcDbLine
 10
182.1371875
 20
137.067755171
 30
0.0
 11
181.8371875
 21
137.067755171
 31
0.0
  0
LINE
  5
2AD
330
1F
100
AcDbEntity
  8
0
  6
Continuous
 62
     7
370
    25
100
AcDbLine
 10
182.1371875
 20
137.067755171
 30
0.0
 11
182.1371875
 21
135.717755171
 31
0.0
  0
LINE
  5
2AE
330
1F
100
AcDbEntity
  8
0
  6
Continuous
 62
     7
370
    25
100
AcDbLine
 10
182.1371875
 20
131.467755171
 30
0.0
 11
181.8371875
 21
131.467755171
 31
0.0
  0
LINE
  5
2AF
330
1F
100
AcDbEntity
  8
0
  6
Continuous
 62
     7
370
    25
100
AcDbLine
 10
182.1371875
 20
132.817755171
 30
0.0
 11
182.1371875
 21
131.467755171
 31
0.0
  0
LINE
  5
2B0
330
1F
100
AcDbEntity
  8
0
  6
Continuous
 62
     7
370
    25
100
AcDbLine
 10
199.3371875
 20
25.2106346288
 30
0.0
 11
199.3371875
 21
25.0898707706
 31
0.0
  0
SPLINE
  5
2B1
330
1F
100
AcDbEntity
  8
0
  6
Continuous
 62
     7
370
    25
100
AcDbSpline
210
0.0
220
0.0
230
1.0
 70
    24
 71
     3
 72
    10
 73
     6
 74
     0
 42
0.00000001
 43
0.00000001
 40
2.356232566403281
 40
2.356232566403281
 40
2.356232566403281
 40
2.356232566403281
 40
3.141592653589797
 40
3.141592653589797
 40
3.926952740776312
 40
3.926952740776312
 40
3.926952740776312
 40
3.926952740776312
 10
199.3371875
 20
160.3589577680916
 30
0.0
 10
199.3371875
 20
160.358957767327
 30
0.0
 10
199.3371875
 20
160.3247468157018
 30
0.0
 10
199.3371875
 20
160.2072180905388
 30
0.0
 10
199.3371875
 20
160.1248569359322
 30
0.0
 10
199.3371875
 20
160.0415154555908
 30
0.0
  0
LINE
  5
2B2
330
1F
100
AcDbEntity
  8
0
  6
Continuous
 62
     7
370
    25
100
AcDbLine
 10
199.3371875
 20
28.0009624956
 30
0.0
 11
199.3371875
 21
27.7602359348
 31
0.0
  0
LINE
  5
2B3
330
1F
100
AcDbEntity
  8
0
  6
Continuous
 62
     7
370
    25
100
AcDbLine
 10
199.3371875
 20
28.0584712159
 30
0.0
 11
199.3371875
 21
28.0009624956
 31
0.0
  0
LINE
  5
2B4
330
1F
100
AcDbEntity
  8
0
  6
Continuous
 62
     7
370
    25
100
AcDbLine
 10
180.3371875
 20
115.1415725736
 30
0.0
 11
180.3371875
 21
103.3900202369
 31
0.0
  0
LINE
  5
2B5
330
1F
100
AcDbEntity
  8
0
  6
Continuous
 62
     7
370
    25
100
AcDbLine
 10
180.3371875
 20
81.8931249103
 30
0.0
 11
180.3371875
 21
70.1415725736
 31
0.0
  0
LINE
  5
2B6
330
1F
100
AcDbEntity
  8
0
  6
Continuous
 62
     7
370
    25
100
AcDbLine
 10
199.3371875
 20
146.0584041014
 30
0.0
 11
199.3371875
 21
158.4363526622
 31
0.0
  0
HATCH
  5
2B7
330
1F
100
AcDbEntity
  8
0
  6
Continuous
 62
     7
370
    18
100
AcDbHatch
 10
0.0
 20
0.0
 30
0.0
210
0.0
220
0.0
230
1.0
  2
ANSI37
 70
     0
 71
     0
 91
        1
 92
        0
 93
       27
 72
     1
 10
197.3371874999999
 20
161.4415459187344
 11
197.3371874999999
 21
162.1415725736044
 72
     1
 10
197.3371874999999
 20
162.1415725736044
 11
180.8328242322508
 21
161.9975411773961
 72
     2
 10
180.8371875
 20
161.497560215864
 40
0.5
 50
90.50000000000132
 51
180.0
 73
     1
 72
     1
 10
180.3371875
 20
161.497560215864
 11
180.3371875
 21
154.1415725736044
 72
     1
 10
180.3371875
 20
154.1415725736044
 11
180.0371875
 21
154.1415725736044
 72
     1
 10
180.0371875
 20
154.1415725736044
 11
180.0371875
 21
153.6415725736044
 72
     1
 10
180.0371875
 20
153.6415725736044
 11
180.3371875
 21
153.6415725736044
 72
     1
 10
180.3371875
 20
153.6415725736044
 11
180.3371875
 21
149.6799737164465
 72
     1
 10
180.3371875
 20
149.6799737164465
 11
182.0459137032186
 21
149.6501477896247
 72
     2
 10
182.0371875
 20
149.1502239420465
 40
0.5
 50
270.9999999999961
 51
360.0000000000008
 73
     0
 72
     1
 10
182.5371875
 20
149.1502239420465
 11
182.5371875
 21
144.9329212051622
 72
     2
 10
182.0371875
 20
144.9329212051622
 40
0.5
 50
0.0
 51
89.00000000000476
 73
     0
 72
     1
 10
182.0459137032186
 20
144.432997357584
 11
180.3371875
 21
144.4031714307623
 72
     1
 10
180.3371875
 20
144.4031714307623
 11
180.3371875
 21
136.1415725736044
 72
     1
 10
180.3371875
 20
136.1415725736044
 11
180.0371875
 21
136.1415725736044
 72
     1
 10
180.0371875
 20
136.1415725736044
 11
180.0371875
 21
135.6415725736044
 72
     1
 10
180.0371875
 20
135.6415725736044
 11
180.3371875
 21
135.6415725736044
 72
     1
 10
180.3371875
 20
135.6415725736044
 11
180.3371875
 21
115.1415725736044
 72
     1
 10
180.3371875
 20
115.1415725736044
 11
181.8371875
 21
115.115389976212
 72
     1
 10
181.8371875
 20
115.115389976212
 11
181.8371875
 21
142.9415725736044
 72
     2
 10
181.7371874999999
 20
145.2393976322196
 40
2.3
 50
272.4919063689812
 51
360.0000000000008
 73
     1
 72
     1
 10
184.0371875
 20
145.2393976322196
 11
184.0371875
 21
148.8437475149892
 72
     2
 10
181.7371874999999
 20
148.8437475149892
 40
2.3
 50
0.0
 51
87.50809363101955
 73
     1
 72
     1
 10
181.8371875
 20
151.1415725736044
 11
181.8371875
 21
160.2062375817533
 72
     1
 10
181.8371875
 20
160.2062375817533
 11
187.3279690803101
 21
160.2541549066726
 72
     1
 10
187.3279690803101
 20
160.2541549066726
 11
187.3279690803101
 21
161.3541967928969
 72
     1
 10
187.3279690803101
 20
161.3541967928969
 11
197.3371874999999
 21
161.4415459187344
 97
        0
 75
     0
 76
     1
 52
0.0
 41
1.0
 77
     0
 78
     2
 53
45.0
 43
0.0
 44
0.0
 45
-2.245064030267288
 46
2.245064030267288
 79
     0
 53
135.0
 43
0.0
 44
0.0
 45
-2.245064030267288
 46
-2.245064030267288
 79
     0
 98
        1
 10
0.0
 20
0.0
  0
HATCH
  5
2B8
330
1F
100
AcDbEntity
  8
0
  6
Continuous
 62
     7
370
    18
100
AcDbHatch
 10
0.0
 20
0.0
 30
0.0
210
0.0
220
0.0
230
1.0
  2
ANSI37
 70
     0
 71
     0
 91
        1
 92
        0
 93
       12
 72
     2
 10
187.0371875
 20
78.02447131054144
 40
2.8
 50
26.76550057675702
 51
89.00000000000043
 73
     1
 72
     1
 10
187.0860542380244
 20
80.82404485697933
 11
182.6232255748502
 21
80.90194382105852
 72
     2
 10
182.6371875
 20
81.70182197718364
 40
0.8
 50
90.9999999999981
 51
180.0
 73
     0
 72
     1
 10
181.8371875
 20
81.70182197718364
 11
181.8371875
 21
87.64157257360438
 72
     1
 10
181.8371875
 20
87.64157257360438
 11
180.3371875
 21
87.6677551709967
 72
     1
 10
180.3371875
 20
87.6677551709967
 11
180.3371875
 21
81.89312491032832
 72
     2
 10
183.1371875
 20
81.89312491032832
 40
2.8
 50
180.0
 51
269.0000000000013
 73
     1
 72
     1
 10
183.0883207619756
 20
79.09355136389043
 11
187.496575469406
 21
79.01660499175213
 72
     2
 10
187.4826135442562
 20
78.21672683562701
 40
0.8
 50
271.000000000003
 51
350.0000000000005
 73
     0
 72
     1
 10
188.2704597466659
 20
78.35564537776057
 11
188.8371875
 21
75.14157257360438
 72
     1
 10
188.8371875
 20
75.14157257360438
 11
189.5371875
 21
75.14157257360438
 72
     1
 10
189.5371875
 20
75.14157257360438
 11
189.5371875
 21
79.28542333183333
 97
        0
 75
     0
 76
     1
 52
0.0
 41
1.0
 77
     0
 78
     2
 53
45.0
 43
0.0
 44
0.0
 45
-2.245064030267288
 46
2.245064030267288
 79
     0
 53
135.0
 43
0.0
 44
0.0
 45
-2.245064030267288
 46
-2.245064030267288
 79
     0
 98
        1
 10
0.0
 20
0.0
  0
HATCH
  5
2B9
330
1F
100
AcDbEntity
  8
0
  6
Continuous
 62
     7
370
    18
100
AcDbHatch
 10
0.0
 20
0.0
 30
0.0
210
0.0
220
0.0
230
1.0
  2
ANSI37
 70
     0
 71
     0
 91
        1
 92
        0
 93
       12
 72
     1
 10
188.8371875
 20
110.1415725736044
 11
188.2704597466659
 21
106.9274997694482
 72
     2
 10
187.4826135442562
 20
107.0664183115817
 40
0.8
 50
9.999999999999398
 51
88.99999999999783
 73
     0
 72
     1
 10
187.496575469406
 20
106.2665401554566
 11
183.0883207619756
 21
106.1895937833183
 72
     2
 10
183.1371875
 20
103.3900202368804
 40
2.8
 50
90.99999999999957
 51
180.0
 73
     1
 72
     1
 10
180.3371875
 20
103.3900202368804
 11
180.3371875
 21
97.61538997621206
 72
     1
 10
180.3371875
 20
97.61538997621206
 11
181.8371875
 21
97.64157257360438
 72
     1
 10
181.8371875
 20
97.64157257360438
 11
181.8371875
 21
103.5813231700251
 72
     2
 10
182.6371875
 20
103.5813231700251
 40
0.8
 50
180.0
 51
269.0000000000027
 73
     0
 72
     1
 10
182.6232255748502
 20
104.3812013261502
 11
187.0860542380244
 21
104.4591002902294
 72
     2
 10
187.0371875
 20
107.2586738366673
 40
2.8
 50
271.0000000000004
 51
333.2344994232438
 73
     1
 72
     1
 10
189.5371875
 20
105.9977218153754
 11
189.5371875
 21
110.1415725736044
 72
     1
 10
189.5371875
 20
110.1415725736044
 11
188.8371875
 21
110.1415725736044
 97
        0
 75
     0
 76
     1
 52
0.0
 41
1.0
 77
     0
 78
     2
 53
45.0
 43
0.0
 44
0.0
 45
-2.245064030267288
 46
2.245064030267288
 79
     0
 53
135.0
 43
0.0
 44
0.0
 45
-2.245064030267288
 46
-2.245064030267288
 79
     0
 98
        1
 10
0.0
 20
0.0
  0
HATCH
  5
2BA
330
1F
100
AcDbEntity
  8
0
  6
Continuous
 62
     7
370
    18
100
AcDbHatch
 10
0.0
 20
0.0
 30
0.0
210
0.0
220
0.0
230
1.0
  2
ANSI37
 70
     0
 71
     0
 91
        1
 92
        0
 93
       19
 72
     1
 10
180.3371875
 20
70.14157257360438
 11
180.3371875
 21
40.87997371644645
 72
     1
 10
180.3371875
 20
40.87997371644645
 11
182.0459137032186
 21
40.85014778962472
 72
     2
 10
182.0371875
 20
40.35022394204653
 40
0.5
 50
270.9999999999961
 51
359.9999999999992
 73
     0
 72
     1
 10
182.5371875
 20
40.35022394204654
 11
182.5371875
 21
36.13292120516223
 72
     2
 10
182.0371875
 20
36.13292120516222
 40
0.5
 50
359.9999999999992
 51
449.0000000000055
 73
     0
 72
     1
 10
182.0459137032186
 20
35.63299735758402
 11
180.3371875
 21
35.60317143076229
 72
     1
 10
180.3371875
 20
35.60317143076229
 11
180.3371875
 21
23.78558493134476
 72
     2
 10
180.8371875
 20
23.78558493134476
 40
0.5
 50
180.0
 51
269.4999999999995
 73
     1
 72
     1
 10
180.8328242322508
 20
23.28560396981268
 11
197.3371874999999
 21
23.14157257360437
 72
     1
 10
197.3371874999999
 20
23.14157257360437
 11
197.3371874999999
 21
23.84159922847434
 72
     1
 10
197.3371874999999
 20
23.84159922847434
 11
187.3279690803101
 21
23.92894835431184
 72
     1
 10
187.3279690803101
 20
23.92894835431184
 11
187.3279690803101
 21
25.02899024053616
 72
     1
 10
187.3279690803101
 20
25.02899024053616
 11
181.8371875
 21
25.07690756545547
 72
     1
 10
181.8371875
 20
25.07690756545547
 11
181.8371875
 21
34.14157257360437
 72
     2
 10
181.7371874999999
 20
36.43939763221959
 40
2.3
 50
272.4919063689812
 51
360.0000000000008
 73
     1
 72
     1
 10
184.0371875
 20
36.43939763221959
 11
184.0371875
 21
40.04374751498916
 72
     2
 10
181.7371874999999
 20
40.04374751498916
 40
2.3
 50
0.0
 51
87.50809363101955
 73
     1
 72
     1
 10
181.8371875
 20
42.34157257360437
 11
181.8371875
 21
70.16775517099671
 72
     1
 10
181.8371875
 20
70.16775517099671
 11
180.3371875
 21
70.14157257360438
 97
        0
 75
     0
 76
     1
 52
0.0
 41
1.0
 77
     0
 78
     2
 53
45.0
 43
0.0
 44
0.0
 45
-2.245064030267288
 46
2.245064030267288
 79
     0
 53
135.0
 43
0.0
 44
0.0
 45
-2.245064030267288
 46
-2.245064030267288
 79
     0
 98
        1
 10
0.0
 20
0.0
  0
HATCH
  5
2BB
330
1F
100
AcDbEntity
  8
0
  6
Continuous
 62
     7
370
    18
100
AcDbHatch
 10
0.0
 20
0.0
 30
0.0
210
0.0
220
0.0
230
1.0
  2
ANSI37
 70
     0
 71
     0
 91
        1
 92
        0
 93
       14
 72
     1
 10
237.8371875
 20
43.64157257360436
 11
237.8371875
 21
69.14157257360436
 72
     1
 10
237.8371875
 20
69.14157257360436
 11
236.3371875
 21
69.14157257360436
 72
     1
 10
236.3371875
 20
69.14157257360436
 11
236.3371875
 21
42.16752667893083
 72
     1
 10
236.3371875
 20
42.16752667893083
 11
243.5371875
 21
42.04185021144766
 72
     1
 10
243.5371875
 20
42.04185021144766
 11
243.5371875
 21
33.80638832131571
 72
     2
 10
235.3371875
 20
33.80638832131571
 40
8.200000000000001
 50
0.0
 51
89.00000000000006
 73
     0
 72
     1
 10
235.4802972327857
 20
25.60763722103329
 11
207.5856263753529
 21
25.12073393006553
 72
     1
 10
207.5856263753529
 20
25.12073393006553
 11
207.604824022434
 21
24.0209014653935
 72
     1
 10
207.604824022434
 20
24.0209014653935
 11
197.3371874999999
 21
23.84167920323507
 72
     1
 10
197.3371874999999
 20
23.84167920323507
 11
197.3371874999999
 21
23.14157257360436
 72
     1
 10
197.3371874999999
 20
23.14157257360436
 11
235.5117115643728
 21
23.80791136975179
 72
     2
 10
235.3371875
 20
33.80638832131571
 40
10.0
 50
271.0000000000008
 51
360.0000000000008
 73
     1
 72
     1
 10
245.3371875
 20
33.80638832131571
 11
245.3371875
 21
43.51065958664272
 72
     1
 10
245.3371875
 20
43.51065958664272
 11
237.8371875
 21
43.64157257360436
 97
        0
 75
     0
 76
     1
 52
0.0
 41
1.0
 77
     0
 78
     2
 53
45.0
 43
0.0
 44
0.0
 45
-2.245064030267288
 46
2.245064030267288
 79
     0
 53
135.0
 43
0.0
 44
0.0
 45
-2.245064030267288
 46
-2.245064030267288
 79
     0
 98
        1
 10
0.0
 20
0.0
  0
HATCH
  5
2BC
330
1F
100
AcDbEntity
  8
0
  6
Continuous
 62
     7
370
    18
100
AcDbHatch
 10
0.0
 20
0.0
 30
0.0
210
0.0
220
0.0
230
1.0
  2
ANSI37
 70
     0
 71
     0
 91
        1
 92
        0
 93
       14
 72
     1
 10
245.3371875
 20
141.772485560566
 11
245.3371875
 21
151.476756825893
 72
     2
 10
235.3371875
 20
151.476756825893
 40
10.0
 50
0.0
 51
89.00000000000003
 73
     1
 72
     1
 10
235.5117115643728
 20
161.4752337774569
 11
197.3371874999999
 21
162.1415725736044
 72
     1
 10
197.3371874999999
 20
162.1415725736044
 11
197.3371874999999
 21
161.4414659439736
 72
     1
 10
197.3371874999999
 20
161.4414659439736
 11
207.604824022434
 21
161.2622436818152
 72
     1
 10
207.604824022434
 20
161.2622436818152
 11
207.5856263753529
 21
160.1624112171432
 72
     1
 10
207.5856263753529
 20
160.1624112171432
 11
235.4802972327857
 21
159.6755079261754
 72
     2
 10
235.3371875
 20
151.476756825893
 40
8.200000000000001
 50
271.0000000000007
 51
360.0000000000008
 73
     0
 72
     1
 10
243.5371875
 20
151.476756825893
 11
243.5371875
 21
143.2412949357611
 72
     1
 10
243.5371875
 20
143.2412949357611
 11
236.3371875
 21
143.1156184682779
 72
     1
 10
236.3371875
 20
143.1156184682779
 11
236.3371875
 21
116.1415725736043
 72
     1
 10
236.3371875
 20
116.1415725736043
 11
237.8371875
 21
116.1415725736043
 72
     1
 10
237.8371875
 20
116.1415725736043
 11
237.8371875
 21
141.6415725736044
 72
     1
 10
237.8371875
 20
141.6415725736044
 11
245.3371875
 21
141.772485560566
 97
        0
 75
     0
 76
     1
 52
0.0
 41
1.0
 77
     0
 78
     2
 53
45.0
 43
0.0
 44
0.0
 45
-2.245064030267288
 46
2.245064030267288
 79
     0
 53
135.0
 43
0.0
 44
0.0
 45
-2.245064030267288
 46
-2.245064030267288
 79
     0
 98
        1
 10
0.0
 20
0.0
  0
DIMENSION
  5
2BD
330
1F
100
AcDbEntity
  8
0
  6
Continuous
 62
     7
370
    18
100
AcDbDimension
  2
_D_2
 10
181.8371875
 20
59.1952577718
 30
0.0
 11
185.3945700142
 21
59.1952577718
 31
0.0
 70
   160
  1
<>
 71
     2
 42
-1.0
  3
SLDDIMSTYLE1
100
AcDbAlignedDimension
 13
189.8371875
 23
75.1415725736
 33
0.0
 14
181.8371875
 24
70.167755171
 34
0.0
100
AcDbRotatedDimension
  0
DIMENSION
  5
2C9
330
1F
100
AcDbEntity
  8
0
  6
Continuous
 62
     7
370
    18
100
AcDbDimension
  2
_D_3
 10
236.3371875
 20
59.1952577718
 30
0.0
 11
212.5564670734
 21
59.1952577718
 31
0.0
 70
   160
  1
<>
 71
     2
 42
-1.0
  3
SLDDIMSTYLE0
100
AcDbAlignedDimension
 13
189.8371875
 23
75.1415725736
 33
0.0
 14
236.3371875
 24
42.1675266789
 34
0.0
100
AcDbRotatedDimension
  0
LINE
  5
2D2
330
1F
100
AcDbEntity
  8
0
  6
Continuous
 62
     7
370
    25
100
AcDbLine
 10
118.9304797774
 20
180.227475
 30
0.0
 11
119.4813948187
 21
179.4406867818
 31
0.0
  0
LINE
  5
2D3
330
1F
100
AcDbEntity
  8
0
  6
Continuous
 62
     7
370
    25
100
AcDbLine
 10
132.7799798124
 20
179.4406867818
 30
0.0
 11
133.3308948538
 21
180.227475
 31
0.0
  0
ARC
  5
2D4
330
1F
100
AcDbEntity
  8
0
  6
Continuous
 62
     7
370
    25
100
AcDbCircle
 10
132.3704037903
 20
179.727475
 30
0.0
 40
0.5000000000000128
100
AcDbArc
 50
270.0
 51
325.0
  0
ARC
  5
2D5
330
1F
100
AcDbEntity
  8
0
  6
Continuous
 62
     7
370
    25
100
AcDbCircle
 10
119.8909708408
 20
179.727475
 30
0.0
 40
0.5000000000000011
100
AcDbArc
 50
215.0
 51
270.0
  0
LINE
  5
2D6
330
1F
100
AcDbEntity
  8
0
  6
Continuous
 62
     7
370
    25
100
AcDbLine
 10
85.6306873156
 20
180.227475
 30
0.0
 11
85.6350888271
 21
179.7231117323
 31
0.0
  0
ARC
  5
2D7
330
1F
100
AcDbEntity
  8
0
  6
Continuous
 62
     7
370
    25
100
AcDbCircle
 10
86.1350697887
 20
179.727475
 30
0.0
 40
0.5000000000000029
100
AcDbArc
 50
180.5
 51
270.0
  0
LINE
  5
2D8
330
1F
100
AcDbEntity
  8
0
  6
Continuous
 62
     7
370
    25
100
AcDbLine
 10
84.4304797774
 20
180.227475
 30
0.0
 11
84.9813948187
 21
179.4406867818
 31
0.0
  0
ARC
  5
2D9
330
1F
100
AcDbEntity
  8
0
  6
Continuous
 62
     7
370
    25
100
AcDbCircle
 10
85.3909708408
 20
179.727475
 30
0.0
 40
0.5000000000000011
100
AcDbArc
 50
215.0
 51
270.0
  0
LINE
  5
2DA
330
1F
100
AcDbEntity
  8
0
  6
Continuous
 62
     7
370
    25
100
AcDbLine
 10
131.280733007
 20
198.727475
 30
0.0
 11
133.8545808706
 21
198.727475
 31
0.0
  0
LINE
  5
2DB
330
1F
100
AcDbEntity
  8
0
  6
Continuous
 62
     7
370
    25
100
AcDbLine
 10
83.8806111631
 20
197.227475
 30
0.0
 11
133.880763468
 21
197.227475
 31
0.0
  0
LINE
  5
2DC
330
1F
100
AcDbEntity
  8
0
  6
Continuous
 62
     7
370
    25
100
AcDbLine
 10
134.3806873156
 20
197.227475
 30
0.0
 11
133.880763468
 21
197.227475
 31
0.0
  0
LINE
  5
2DD
330
1F
100
AcDbEntity
  8
0
  6
Continuous
 62
     7
370
    25
100
AcDbLine
 10
134.3545047182
 20
198.727475
 30
0.0
 11
133.8545808706
 21
198.727475
 31
0.0
  0
LINE
  5
2DE
330
1F
100
AcDbEntity
  8
0
  6
Continuous
 62
     7
370
    25
100
AcDbLine
 10
134.3545047182
 20
198.727475
 30
0.0
 11
134.3806873156
 21
197.227475
 31
0.0
  0
LINE
  5
2DF
330
1F
100
AcDbEntity
  8
0
  6
Continuous
 62
     7
370
    25
100
AcDbLine
 10
83.8806111631
 20
197.227475
 30
0.0
 11
83.3806873156
 21
197.227475
 31
0.0
  0
LINE
  5
2E0
330
1F
100
AcDbEntity
  8
0
  6
Continuous
 62
     7
370
    25
100
AcDbLine
 10
83.3806873156
 20
197.227475
 30
0.0
 11
84.0470261117
 21
235.4019990644
 31
0.0
  0
LINE
  5
2E1
330
1F
100
AcDbEntity
  8
0
  6
Continuous
 62
     7
370
    25
100
AcDbLine
 10
130.9405311168
 20
235.4019990644
 30
0.0
 11
131.5806873156
 21
198.727475
 31
0.0
  0
LINE
  5
2E2
330
1F
100
AcDbEntity
  8
0
  6
Continuous
 62
     7
370
    25
100
AcDbLine
 10
130.8747542208
 20
239.1703549109
 30
0.0
 11
130.9405311168
 21
235.4019990644
 31
0.0
  0
LINE
  5
2E3
330
1F
100
AcDbEntity
  8
0
  6
Continuous
 62
     7
370
    25
100
AcDbLine
 10
84.7098790637
 20
245.227475
 30
0.0
 11
89.7806873156
 21
245.227475
 31
0.0
  0
LINE
  5
2E4
330
1F
100
AcDbEntity
  8
0
  6
Continuous
 62
     7
370
    25
100
AcDbLine
 10
89.7806873156
 20
245.2245508586
 30
0.0
 11
89.7806873156
 21
245.227475
 31
0.0
  0
LINE
  5
2E5
330
1F
100
AcDbEntity
  8
0
  6
Continuous
 62
     7
370
    25
100
AcDbLine
 10
89.7739021392
 20
245.2245508586
 30
0.0
 11
89.7806873156
 21
245.2245508586
 31
0.0
  0
SPLINE
  5
2E6
330
1F
100
AcDbEntity
  8
0
  6
Continuous
 62
     7
370
    25
100
AcDbSpline
210
0.0
220
0.0
230
1.0
 70
     8
 71
     3
 72
    15
 73
    11
 74
     0
 42
0.00000001
 43
0.00000001
 40
0.0
 40
0.0
 40
0.0
 40
0.0
 40
0.1373284476514341
 40
0.2745706170638265
 40
0.4128774942260861
 40
0.5510416377401102
 40
0.6704334374781794
 40
0.7898013279655655
 40
0.8948917661518858
 40
1.0
 40
1.0
 40
1.0
 40
1.0
 10
89.48731981894885
 20
243.4274749999998
 30
0.0
 10
89.34446085611872
 20
243.566900515809
 30
0.0
 10
89.05883268330976
 20
243.8456639516801
 30
0.0
 10
88.77300343863423
 20
244.2359566741718
 30
0.0
 10
88.61565952006947
 20
244.5772663711152
 30
0.0
 10
88.61058361479053
 20
244.8437962817867
 30
0.0
 10
88.75110616210377
 20
245.0290329730305
 30
0.0
 10
89.00040235278128
 20
245.1428819547759
 30
0.0
 10
89.34195314543464
 20
245.205280139977
 30
0.0
 10
89.62991101499165
 20
245.2181269231748
 30
0.0
 10
89.77390213919269
 20
245.2245508585854
 30
0.0
  0
SPLINE
  5
2E7
330
1F
100
AcDbEntity
  8
0
  6
Continuous
 62
     7
370
    25
100
AcDbSpline
210
0.0
220
0.0
230
1.0
 70
     8
 71
     3
 72
    18
 73
    14
 74
     0
 42
0.00000001
 43
0.00000001
 40
0.0
 40
0.0
 40
0.0
 40
0.0
 40
0.1038141989855448
 40
0.2075650292887058
 40
0.2832793143733857
 40
0.3588868977486672
 40
0.4777667866542643
 40
0.5970155025283771
 40
0.6673744843500887
 40
0.7378373705100548
 40
0.8354509523591078
 40
0.9331730426547689
 40
1.0
 40
1.0
 40
1.0
 40
1.0
 10
96.27405481217814
 20
243.4274749999998
 30
0.0
 10
96.10971642130163
 20
243.2825411780635
 30
0.0
 10
95.78113995248648
 20
242.9927620024874
 30
0.0
 10
95.21143813679882
 20
242.6123565737741
 30
0.0
 10
94.63205370087088
 20
242.3093993729736
 30
0.0
 10
93.95357567889569
 20
242.047922300711
 30
0.0
 10
93.07385172287421
 20
241.8803175029523
 30
0.0
 10
92.18441177272638
 20
241.9591421008678
 30
0.0
 10
91.49672964854936
 20
242.1608659638703
 30
0.0
 10
90.91442297969672
 20
242.4098569440025
 30
0.0
 10
90.33773520661755
 20
242.7444676291661
 30
0.0
 10
89.84567528765061
 20
243.1057488963182
 30
0.0
 10
89.59082150065002
 20
243.3345527602504
 30
0.0
 10
89.48731981894885
 20
243.4274749999998
 30
0.0
  0
SPLINE
  5
2E8
330
1F
100
AcDbEntity
  8
0
  6
Continuous
 62
     7
370
    25
100
AcDbSpline
210
0.0
220
0.0
230
1.0
 70
     8
 71
     3
 72
    16
 73
    12
 74
     0
 42
0.00000001
 43
0.00000001
 40
0.0
 40
0.0
 40
0.0
 40
0.0
 40
0.1075096832480164
 40
0.2150000687138745
 40
0.3228771271310826
 40
0.4307687396774743
 40
0.5377872037349322
 40
0.6448552674521675
 40
0.7597367096909153
 40
0.8746777730728075
 40
1.0
 40
1.0
 40
1.0
 40
1.0
 10
95.98747249193431
 20
245.2245508585854
 30
0.0
 10
96.13462970118063
 20
245.2179185769465
 30
0.0
 10
96.42891770523613
 20
245.2046552041507
 30
0.0
 10
96.76028853357636
 20
245.142052194898
 30
0.0
 10
96.99563375048577
 20
245.0355565203694
 30
0.0
 10
97.12762307237489
 20
244.8821511881555
 30
0.0
 10
97.15530101806314
 20
244.680496045621
 30
0.0
 10
97.08753369449204
 20
244.4324162770711
 30
0.0
 10
96.92005234303616
 20
244.1386775953205
 30
0.0
 10
96.65725871393832
 20
243.7993676751203
 30
0.0
 10
96.40541659778393
 20
243.5549593122241
 30
0.0
 10
96.27405481217814
 20
243.4274749999998
 30
0.0
  0
LINE
  5
2E9
330
1F
100
AcDbEntity
  8
0
  6
Continuous
 62
     7
370
    25
100
AcDbLine
 10
95.9806873156
 20
245.2245508586
 30
0.0
 11
95.9874724919
 21
245.2245508586
 31
0.0
  0
LINE
  5
2EA
330
1F
100
AcDbEntity
  8
0
  6
Continuous
 62
     7
370
    25
100
AcDbLine
 10
95.9806873156
 20
245.2245508586
 30
0.0
 11
95.9806873156
 21
245.227475
 31
0.0
  0
LINE
  5
2EB
330
1F
100
AcDbEntity
  8
0
  6
Continuous
 62
     7
370
    25
100
AcDbLine
 10
95.9806873156
 20
245.227475
 30
0.0
 11
133.0514955675
 21
245.227475
 31
0.0
  0
ARC
  5
2EC
330
1F
100
AcDbEntity
  8
0
  6
Continuous
 62
     7
370
    25
100
AcDbCircle
 10
84.7098790637
 20
244.727475
 30
0.0
 40
0.5
100
AcDbArc
 50
90.0
 51
179.0
  0
LINE
  5
2ED
330
1F
100
AcDbEntity
  8
0
  6
Continuous
 62
     7
370
    25
100
AcDbLine
 10
84.0470261117
 20
235.4019990644
 30
0.0
 11
84.2099552161
 21
244.7362012032
 31
0.0
  0
LINE
  5
2EE
330
1F
100
AcDbEntity
  8
0
  6
Continuous
 62
     7
370
    25
100
AcDbLine
 10
133.6016609823
 20
241.8578637445
 30
0.0
 11
134.3545047182
 21
198.727475
 31
0.0
  0
LINE
  5
2EF
330
1F
100
AcDbEntity
  8
0
  6
Continuous
 62
     7
370
    25
100
AcDbLine
 10
89.4873198189
 20
243.427475
 30
0.0
 11
96.2740548122
 21
243.427475
 31
0.0
  0
ARC
  5
2F0
330
1F
100
AcDbEntity
  8
0
  6
Continuous
 62
     7
370
    25
100
AcDbCircle
 10
133.0514955675
 20
244.727475
 30
0.0
 40
0.5000000000000352
100
AcDbArc
 50
1.0
 51
90.0
  0
LINE
  5
2F1
330
1F
100
AcDbEntity
  8
0
  6
Continuous
 62
     7
370
    25
100
AcDbLine
 10
133.551419415
 20
244.7362012032
 30
0.0
 11
133.6016609823
 21
241.8578637445
 31
0.0
  0
LINE
  5
2F2
330
1F
100
AcDbEntity
  8
0
  6
Continuous
 62
     7
370
    25
100
AcDbLine
 10
95.9874724919
 20
245.2245508586
 30
0.0
 11
95.9806873156
 21
243.427475
 31
0.0
  0
LINE
  5
2F3
330
1F
100
AcDbEntity
  8
0
  6
Continuous
 62
     7
370
    25
100
AcDbLine
 10
89.7739021392
 20
245.2245508586
 30
0.0
 11
89.7806873156
 21
243.427475
 31
0.0
  0
LINE
  5
2F4
330
1F
100
AcDbEntity
  8
0
  6
Continuous
 62
     7
370
    25
100
AcDbLine
 10
95.9806873156
 20
245.2245508586
 30
0.0
 11
95.9806873156
 21
243.427475
 31
0.0
  0
LINE
  5
2F5
330
1F
100
AcDbEntity
  8
0
  6
Continuous
 62
     7
370
    25
100
AcDbLine
 10
89.7806873156
 20
245.2245508586
 30
0.0
 11
89.7806873156
 21
243.427475
 31
0.0
  0
LINE
  5
2F6
330
1F
100
AcDbEntity
  8
0
  6
Continuous
 62
     7
370
    25
100
AcDbLine
 10
95.068304986
 20
245.227475
 30
0.0
 11
95.9806873156
 21
245.227475
 31
0.0
  0
LINE
  5
2F7
330
1F
100
AcDbEntity
  8
0
  6
Continuous
 62
     7
370
    25
100
AcDbLine
 10
89.7806873156
 20
245.227475
 30
0.0
 11
90.6930696451
 21
245.227475
 31
0.0
  0
LINE
  5
2F8
330
1F
100
AcDbEntity
  8
0
  6
Continuous
 62
     7
370
    25
100
AcDbLine
 10
90.6930696451
 20
245.227475
 30
0.0
 11
95.068304986
 21
245.227475
 31
0.0
  0
LINE
  5
2F9
330
1F
100
AcDbEntity
  8
0
  6
Continuous
 62
     7
370
    25
100
AcDbLine
 10
95.85018176
 20
245.527475
 30
0.0
 11
95.85018176
 21
245.227475
 31
0.0
  0
LINE
  5
2FA
330
1F
100
AcDbEntity
  8
0
  6
Continuous
 62
     7
370
    25
100
AcDbLine
 10
97.6444373156
 20
245.527475
 30
0.0
 11
97.6444373156
 21
245.227475
 31
0.0
  0
LINE
  5
2FB
330
1F
100
AcDbEntity
  8
0
  6
Continuous
 62
     7
370
    25
100
AcDbLine
 10
95.85018176
 20
245.527475
 30
0.0
 11
97.6444373156
 21
245.527475
 31
0.0
  0
LINE
  5
2FC
330
1F
100
AcDbEntity
  8
0
  6
Continuous
 62
     7
370
    25
100
AcDbLine
 10
94.6337373156
 20
245.527475
 30
0.0
 11
94.6337373156
 21
245.227475
 31
0.0
  0
LINE
  5
2FD
330
1F
100
AcDbEntity
  8
0
  6
Continuous
 62
     7
370
    25
100
AcDbLine
 10
94.6337373156
 20
245.527475
 30
0.0
 11
95.85018176
 21
245.527475
 31
0.0
  0
LINE
  5
2FE
330
1F
100
AcDbEntity
  8
0
  6
Continuous
 62
     7
370
    25
100
AcDbLine
 10
89.2053539822
 20
245.527475
 30
0.0
 11
89.2053539822
 21
245.227475
 31
0.0
  0
LINE
  5
2FF
330
1F
100
AcDbEntity
  8
0
  6
Continuous
 62
     7
370
    25
100
AcDbLine
 10
89.2053539822
 20
245.527475
 30
0.0
 11
92.3529039822
 21
245.527475
 31
0.0
  0
LINE
  5
300
330
1F
100
AcDbEntity
  8
0
  6
Continuous
 62
     7
370
    25
100
AcDbLine
 10
92.3529039822
 20
245.527475
 30
0.0
 11
92.3529039822
 21
245.227475
 31
0.0
  0
LINE
  5
301
330
1F
100
AcDbEntity
  8
0
  6
Continuous
 62
     7
370
    25
100
AcDbLine
 10
92.8090706489
 20
245.527475
 30
0.0
 11
92.8090706489
 21
245.227475
 31
0.0
  0
LINE
  5
302
330
1F
100
AcDbEntity
  8
0
  6
Continuous
 62
     7
370
    25
100
AcDbLine
 10
94.1775706489
 20
245.527475
 30
0.0
 11
94.1775706489
 21
245.227475
 31
0.0
  0
LINE
  5
303
330
1F
100
AcDbEntity
  8
0
  6
Continuous
 62
     7
370
    25
100
AcDbLine
 10
92.8090706489
 20
245.527475
 30
0.0
 11
94.1775706489
 21
245.527475
 31
0.0
  0
LINE
  5
304
330
1F
100
AcDbEntity
  8
0
  6
Continuous
 62
     7
370
    25
100
AcDbLine
 10
87.3806873156
 20
245.527475
 30
0.0
 11
87.3806873156
 21
245.227475
 31
0.0
  0
LINE
  5
305
330
1F
100
AcDbEntity
  8
0
  6
Continuous
 62
     7
370
    25
100
AcDbLine
 10
87.3806873156
 20
245.527475
 30
0.0
 11
88.7491873156
 21
245.527475
 31
0.0
  0
LINE
  5
306
330
1F
100
AcDbEntity
  8
0
  6
Continuous
 62
     7
370
    25
100
AcDbLine
 10
88.7491873156
 20
245.527475
 30
0.0
 11
88.7491873156
 21
245.227475
 31
0.0
  0
LINE
  5
307
330
1F
100
AcDbEntity
  8
0
  6
Continuous
 62
     7
370
    25
100
AcDbLine
 10
94.1775706489
 20
245.527475
 30
0.0
 11
94.6337373156
 21
245.527475
 31
0.0
  0
LINE
  5
308
330
1F
100
AcDbEntity
  8
0
  6
Continuous
 62
     7
370
    25
100
AcDbLine
 10
83.8806682771
 20
197.227475
 30
0.0
 11
133.880706354
 21
197.227475
 31
0.0
  0
LINE
  5
309
330
1F
100
AcDbEntity
  8
0
  6
Continuous
 62
     7
370
    25
100
AcDbLine
 10
131.2806873138
 20
195.727475
 30
0.0
 11
133.8676160523
 21
195.727475
 31
0.0
  0
LINE
  5
30A
330
1F
100
AcDbEntity
  8
0
  6
Continuous
 62
     7
370
    25
100
AcDbLine
 10
83.3806873156
 20
197.227475
 30
0.0
 11
83.8806682771
 21
197.227475
 31
0.0
  0
LINE
  5
30B
330
1F
100
AcDbEntity
  8
0
  6
Continuous
 62
     7
370
    25
100
AcDbLine
 10
83.5247187118
 20
180.7231117323
 30
0.0
 11
83.3806873156
 21
197.227475
 31
0.0
  0
LINE
  5
30C
330
1F
100
AcDbEntity
  8
0
  6
Continuous
 62
     7
370
    25
100
AcDbLine
 10
133.880706354
 20
197.227475
 30
0.0
 11
134.3806873156
 21
197.227475
 31
0.0
  0
LINE
  5
30D
330
1F
100
AcDbEntity
  8
0
  6
Continuous
 62
     7
370
    25
100
AcDbLine
 10
134.3806873156
 20
197.227475
 30
0.0
 11
134.3675970139
 21
195.727475
 31
0.0
  0
LINE
  5
30E
330
1F
100
AcDbEntity
  8
0
  6
Continuous
 62
     7
370
    25
100
AcDbLine
 10
134.3675970139
 20
195.727475
 30
0.0
 11
133.8676160523
 21
195.727475
 31
0.0
  0
LINE
  5
30F
330
1F
100
AcDbEntity
  8
0
  6
Continuous
 62
     7
370
    25
100
AcDbLine
 10
131.5806873156
 20
195.727475
 30
0.0
 11
131.3187394873
 21
180.720493971
 31
0.0
  0
ARC
  5
310
330
1F
100
AcDbEntity
  8
0
  6
Continuous
 62
     7
370
    25
100
AcDbCircle
 10
131.2437698442
 20
189.3164849965
 30
0.0
 40
8.59631794187441
100
AcDbArc
 50
268.5002713978
 51
270.4996905214
  0
LINE
  5
311
330
1F
100
AcDbEntity
  8
0
  6
Continuous
 62
     7
370
    25
100
AcDbLine
 10
130.8187851776
 20
180.227475
 30
0.0
 11
84.0246996733
 21
180.227475
 31
0.0
  0
LINE
  5
312
330
1F
100
AcDbEntity
  8
0
  6
Continuous
 62
     7
370
    25
100
AcDbLine
 10
131.3187394873
 20
180.720493971
 30
0.0
 11
131.318709024
 21
180.7187487303
 31
0.0
  0
ARC
  5
313
330
1F
100
AcDbEntity
  8
0
  6
Continuous
 62
     7
370
    25
100
AcDbCircle
 10
131.1687328224
 20
185.0172669237
 30
0.0
 40
4.301133748210301
100
AcDbArc
 50
268.0017234297
 51
271.9982511898
  0
ARC
  5
314
330
1F
100
AcDbEntity
  8
0
  6
Continuous
 62
     7
370
    25
100
AcDbCircle
 10
84.0246996733
 20
180.727475
 30
0.0
 40
0.5
100
AcDbArc
 50
180.5
 51
270.0
  0
ARC
  5
315
330
1F
100
AcDbEntity
  8
0
  6
Continuous
 62
     7
370
    25
100
AcDbCircle
 10
130.8187851776
 20
180.727475
 30
0.0
 40
0.5
100
AcDbArc
 50
270.0
 51
358.9999923859
  0
LINE
  5
316
330
1F
100
AcDbEntity
  8
0
  6
Continuous
 62
     7
370
    25
100
AcDbLine
 10
132.3704037181
 20
179.227475
 30
0.0
 11
119.8909708408
 21
179.227475
 31
0.0
  0
LINE
  5
317
330
1F
100
AcDbEntity
  8
0
  6
Continuous
 62
     7
370
    25
100
AcDbLine
 10
132.5806873156
 20
180.227475
 30
0.0
 11
130.8187851776
 21
180.227475
 31
0.0
  0
LINE
  5
318
330
1F
100
AcDbEntity
  8
0
  6
Continuous
 62
     7
370
    25
100
AcDbLine
 10
99.1806873156
 20
180.227475
 30
0.0
 11
99.1806873156
 21
179.727475
 31
0.0
  0
LINE
  5
319
330
1F
100
AcDbEntity
  8
0
  6
Continuous
 62
     7
370
    25
100
AcDbLine
 10
98.6806873156
 20
179.227475
 30
0.0
 11
97.3806873156
 21
179.227475
 31
0.0
  0
ARC
  5
31A
330
1F
100
AcDbEntity
  8
0
  6
Continuous
 62
     7
370
    25
100
AcDbCircle
 10
98.6806873156
 20
179.727475
 30
0.0
 40
0.5
100
AcDbArc
 50
270.0
 51
0.0
  0
LINE
  5
31B
330
1F
100
AcDbEntity
  8
0
  6
Continuous
 62
     7
370
    25
100
AcDbLine
 10
88.3806873156
 20
179.227475
 30
0.0
 11
87.0806873156
 21
179.227475
 31
0.0
  0
ARC
  5
31C
330
1F
100
AcDbEntity
  8
0
  6
Continuous
 62
     7
370
    25
100
AcDbCircle
 10
87.0806873156
 20
179.727475
 30
0.0
 40
0.5
100
AcDbArc
 50
180.0
 51
270.0
  0
LINE
  5
31D
330
1F
100
AcDbEntity
  8
0
  6
Continuous
 62
     7
370
    25
100
AcDbLine
 10
86.5806873156
 20
179.727475
 30
0.0
 11
86.5806873156
 21
180.227475
 31
0.0
  0
LINE
  5
31E
330
1F
100
AcDbEntity
  8
0
  6
Continuous
 62
     7
370
    25
100
AcDbLine
 10
97.3806873156
 20
179.227475
 30
0.0
 11
88.3806873156
 21
179.227475
 31
0.0
  0
LINE
  5
31F
330
1F
100
AcDbEntity
  8
0
  6
Continuous
 62
     7
370
    25
100
AcDbLine
 10
134.3675970139
 20
195.727475
 30
0.0
 11
134.2366559194
 21
180.7231117323
 31
0.0
  0
ARC
  5
320
330
1F
100
AcDbEntity
  8
0
  6
Continuous
 62
     7
370
    25
100
AcDbCircle
 10
133.7366749578
 20
180.727475
 30
0.0
 40
0.5000000000000068
100
AcDbArc
 50
359.0
 51
359.5
  0
ARC
  5
321
330
1F
100
AcDbEntity
  8
0
  6
Continuous
 62
     7
370
    25
100
AcDbCircle
 10
134.086625459
 20
185.0169740189
 30
0.0
 40
4.30084085550138
100
AcDbArc
 50
268.0016507316
 51
271.9983492684
  0
LINE
  5
322
330
1F
100
AcDbEntity
  8
0
  6
Continuous
 62
     7
370
    25
100
AcDbLine
 10
133.7366749578
 20
180.227475
 30
0.0
 11
132.5806873156
 21
180.227475
 31
0.0
  0
ARC
  5
323
330
1F
100
AcDbEntity
  8
0
  6
Continuous
 62
     7
370
    25
100
AcDbCircle
 10
133.7366749578
 20
180.727475
 30
0.0
 40
0.5000000000000068
100
AcDbArc
 50
270.0
 51
359.0
  0
LINE
  5
324
330
1F
100
AcDbEntity
  8
0
  6
Continuous
 62
     7
370
    25
100
AcDbLine
 10
118.1306873156
 20
179.927475
 30
0.0
 11
118.1306873156
 21
180.227475
 31
0.0
  0
LINE
  5
325
330
1F
100
AcDbEntity
  8
0
  6
Continuous
 62
     7
370
    25
100
AcDbLine
 10
112.6306873156
 20
179.927475
 30
0.0
 11
112.6306873156
 21
180.227475
 31
0.0
  0
LINE
  5
326
330
1F
100
AcDbEntity
  8
0
  6
Continuous
 62
     7
370
    25
100
AcDbLine
 10
118.1306873156
 20
179.927475
 30
0.0
 11
112.6306873156
 21
179.927475
 31
0.0
  0
LINE
  5
327
330
1F
100
AcDbEntity
  8
0
  6
Continuous
 62
     7
370
    25
100
AcDbLine
 10
87.0806873156
 20
179.227475
 30
0.0
 11
86.1350697887
 21
179.227475
 31
0.0
  0
LINE
  5
328
330
1F
100
AcDbEntity
  8
0
  6
Continuous
 62
     7
370
    25
100
AcDbLine
 10
118.7332514181
 20
179.927475
 30
0.0
 11
118.7332514181
 21
180.227475
 31
0.0
  0
LINE
  5
329
330
1F
100
AcDbEntity
  8
0
  6
Continuous
 62
     7
370
    25
100
AcDbLine
 10
118.1306873156
 20
179.927475
 30
0.0
 11
118.7332514181
 21
179.927475
 31
0.0
  0
SPLINE
  5
32A
330
1F
100
AcDbEntity
  8
0
  6
Continuous
 62
     7
370
    25
100
AcDbSpline
210
0.0
220
0.0
230
1.0
 70
    24
 71
     3
 72
     9
 73
     5
 74
     0
 42
0.00000001
 43
0.00000001
 40
0.0
 40
0.0
 40
0.0
 40
0.0
 40
0.992163020158321
 40
1.0
 40
1.0
 40
1.0
 40
1.0
 10
118.7332514181276
 20
179.9274749999998
 30
0.0
 10
118.8292440939104
 20
179.9274749999998
 30
0.0
 10
118.9259950046302
 20
179.9274749999998
 30
0.0
 10
119.1388737126732
 20
179.9274749999998
 30
0.0
 10
119.1405420388169
 20
179.9274749999998
 30
0.0
  0
LINE
  5
32B
330
1F
100
AcDbEntity
  8
0
  6
Continuous
 62
     7
370
    25
100
AcDbLine
 10
112.6306873156
 20
179.927475
 30
0.0
 11
99.1806873156
 21
179.927475
 31
0.0
  0
LINE
  5
32C
330
1F
100
AcDbEntity
  8
0
  6
Continuous
 62
     7
370
    25
100
AcDbLine
 10
119.8909708408
 20
179.227475
 30
0.0
 11
119.0806873156
 21
179.227475
 31
0.0
  0
ARC
  5
32D
330
1F
100
AcDbEntity
  8
0
  6
Continuous
 62
     7
370
    25
100
AcDbCircle
 10
119.0806873156
 20
179.727475
 30
0.0
 40
0.5
100
AcDbArc
 50
180.0
 51
270.0
  0
LINE
  5
32E
330
1F
100
AcDbEntity
  8
0
  6
Continuous
 62
     7
370
    25
100
AcDbLine
 10
118.5806873156
 20
179.727475
 30
0.0
 11
118.5806873156
 21
179.927475
 31
0.0
  0
LINE
  5
32F
330
1F
100
AcDbEntity
  8
0
  6
Continuous
 62
     7
370
    25
100
AcDbLine
 10
86.1350697887
 20
179.227475
 30
0.0
 11
85.3909708408
 21
179.227475
 31
0.0
  0
SPLINE
  5
330
330
1F
100
AcDbEntity
  8
0
  6
Continuous
 62
     7
370
    25
100
AcDbSpline
210
0.0
220
0.0
230
1.0
 70
     8
 71
     3
 72
    14
 73
    10
 74
     0
 42
0.00000001
 43
0.00000001
 40
0.0
 40
0.0
 40
0.0
 40
0.0
 40
0.0945883947371583
 40
0.204546985289863
 40
0.3729676577121542
 40
0.5456605361292298
 40
0.7329168415616696
 40
0.920658707664784
 40
1.0
 40
1.0
 40
1.0
 40
1.0
 10
132.5806873155635
 20
242.1431545991817
 30
0.0
 10
132.4458324541436
 20
242.1322725933356
 30
0.0
 10
132.1542094127357
 20
242.1087403038202
 30
0.0
 10
131.6916602530621
 20
241.8871786802543
 30
0.0
 10
131.2971077093826
 20
241.4762460205176
 30
0.0
 10
131.0341584671684
 20
240.8858444584139
 30
0.0
 10
130.90180740606
 20
240.214197274461
 30
0.0
 10
130.8706035931749
 20
239.6285780143876
 30
0.0
 10
130.8738036061713
 20
239.275301351991
 30
0.0
 10
130.8747542208342
 20
239.1703549109264
 30
0.0
  0
LINE
  5
331
330
1F
100
AcDbEntity
  8
0
  6
Continuous
 62
     7
370
    25
100
AcDbLine
 10
133.0991834943
 20
242.1431545992
 30
0.0
 11
132.5806873156
 21
242.1431545992
 31
0.0
  0
SPLINE
  5
332
330
1F
100
AcDbEntity
  8
0
  6
Continuous
 62
     7
370
    25
100
AcDbSpline
210
0.0
220
0.0
230
1.0
 70
     8
 71
     3
 72
    12
 73
     8
 74
     0
 42
0.00000001
 43
0.00000001
 40
0.0
 40
0.0
 40
0.0
 40
0.0
 40
0.2473974769327128
 40
0.5257765741233948
 40
0.7230538266507689
 40
0.8611798617273951
 40
1.0
 40
1.0
 40
1.0
 40
1.0
 10
133.3017066737098
 20
241.8578637444999
 30
0.0
 10
133.2991273015491
 20
241.8894783955872
 30
0.0
 10
133.2936455420954
 20
241.9566668048905
 30
0.0
 10
133.2570703793705
 20
242.044004629595
 30
0.0
 10
133.2054185810098
 20
242.1041763359792
 30
0.0
 10
133.1525725760011
 20
242.1370631500529
 30
0.0
 10
133.1170095651183
 20
242.1411207263385
 30
0.0
 10
133.0991834943392
 20
242.1431545991817
 30
0.0
  0
ARC
  5
333
330
1F
100
AcDbEntity
  8
0
  6
Continuous
 62
     7
370
    25
100
AcDbCircle
 10
133.451683828
 20
237.5596011836
 30
0.0
 40
4.300878304348999
100
AcDbArc
 50
88.0016173803
 51
91.9983826197
  0
DIMENSION
  5
334
330
1F
100
AcDbEntity
  8
0
  6
Continuous
 62
     7
370
    18
100
AcDbDimension
  2
_D_4
 10
67.9809605981
 20
245.227475
 30
0.0
 11
67.9809605981
 21
210.516603155
 31
0.0
 70
   160
  1
<>
 71
     2
 42
-1.0
  3
SLDDIMSTYLE0
100
AcDbAlignedDimension
 13
88.3806873156
 23
179.227475
 33
0.0
 14
84.7098790637
 24
245.227475
 34
0.0
 50
90.0
100
AcDbRotatedDimension
  0
LINE
  5
33E
330
1F
100
AcDbEntity
  8
0
  6
Continuous
 62
     7
370
    25
100
AcDbLine
 10
322.4571916889
 20
35.6091777804
 30
0.0
 11
322.4571916889
 21
40.8739673668
 31
0.0
  0
LINE
  5
33F
330
1F
100
AcDbEntity
  8
0
  6
Continuous
 62
     7
370
    25
100
AcDbLine
 10
322.4571916889
 20
144.4091777804
 30
0.0
 11
322.4571916889
 21
149.6739673668
 31
0.0
  0
LINE
  5
340
330
1F
100
AcDbEntity
  8
0
  6
Continuous
 62
     7
370
    25
100
AcDbLine
 10
330.5791710293
 20
40.8739673668
 30
0.0
 11
330.5791710293
 21
35.6091777804
 31
0.0
  0
LINE
  5
341
330
1F
100
AcDbEntity
  8
0
  6
Continuous
 62
     7
370
    25
100
AcDbLine
 10
330.5791710293
 20
149.6739673668
 30
0.0
 11
330.5791710293
 21
144.4091777804
 31
0.0
  0
LINE
  5
342
330
1F
100
AcDbEntity
  8
0
  6
Continuous
 62
     7
370
    25
100
AcDbLine
 10
301.0181813591
 20
23.6414964212
 30
0.0
 11
301.0181813591
 21
161.641648726
 31
0.0
  0
ELLIPSE
  5
343
330
1F
100
AcDbEntity
  8
0
  6
Continuous
 62
     7
370
    25
100
AcDbEllipse
 10
301.5182575231
 20
161.6414964096
 30
0.0
 11
-0.3536610945847655
 21
0.3536610945847655
 31
0.0
210
0.0
220
0.0
230
0.9999999999999998
 40
0.9996954599
 41
5.497939437029728
 42
7.068431177329516
  0
LINE
  5
344
330
1F
100
AcDbEntity
  8
0
  6
Continuous
 62
     7
370
    25
100
AcDbLine
 10
301.5181052067
 20
162.1415725736
 30
0.0
 11
351.5182575115
 21
162.1415725736
 31
0.0
  0
ELLIPSE
  5
345
330
1F
100
AcDbEntity
  8
0
  6
Continuous
 62
     7
370
    25
100
AcDbEllipse
 10
351.5181051951
 20
161.6414964096
 30
0.0
 11
0.3536610945847655
 21
0.3536610945847655
 31
0.0
210
0.0
220
0.0
230
0.9999999999999998
 40
0.9996954599
 41
5.49793943702963
 42
7.068431177329385
  0
LINE
  5
346
330
1F
100
AcDbEntity
  8
0
  6
Continuous
 62
     7
370
    25
100
AcDbLine
 10
352.0181813591
 20
161.641648726
 30
0.0
 11
352.0181813591
 21
23.6414964212
 31
0.0
  0
ELLIPSE
  5
347
330
1F
100
AcDbEntity
  8
0
  6
Continuous
 62
     7
370
    25
100
AcDbEllipse
 10
351.5181051951
 20
23.6416487376
 30
0.0
 11
0.3536610945847656
 21
-0.3536610945847905
 31
0.0
210
0.0
220
0.0
230
1.0
 40
0.9996954599
 41
5.497939437029876
 42
7.068431177329459
  0
LINE
  5
348
330
1F
100
AcDbEntity
  8
0
  6
Continuous
 62
     7
370
    25
100
AcDbLine
 10
351.5182575115
 20
23.1415725736
 30
0.0
 11
301.5181052067
 21
23.1415725736
 31
0.0
  0
ELLIPSE
  5
349
330
1F
100
AcDbEntity
  8
0
  6
Continuous
 62
     7
370
    25
100
AcDbEllipse
 10
301.5182575231
 20
23.6416487376
 30
0.0
 11
-0.3536610945847656
 21
-0.3536610945847905
 31
0.0
210
0.0
220
0.0
230
1.0
 40
0.9996954599
 41
5.497939437029728
 42
7.068431177329424
  0
LINE
  5
34A
330
1F
100
AcDbEntity
  8
0
  6
Continuous
 62
     7
370
    25
100
AcDbLine
 10
303.4992030818
 20
115.1153899762
 30
0.0
 11
303.4992030818
 21
110.1415725736
 31
0.0
  0
LINE
  5
34B
330
1F
100
AcDbEntity
  8
0
  6
Continuous
 62
     7
370
    25
100
AcDbLine
 10
303.4992030818
 20
75.1415725736
 30
0.0
 11
303.4992030818
 21
70.167755171
 31
0.0
  0
LINE
  5
34C
330
1F
100
AcDbEntity
  8
0
  6
Continuous
 62
     7
370
    25
100
AcDbLine
 10
349.5371596364
 20
115.1153899762
 30
0.0
 11
349.5371596364
 21
110.1415725736
 31
0.0
  0
LINE
  5
34D
330
1F
100
AcDbEntity
  8
0
  6
Continuous
 62
     7
370
    25
100
AcDbLine
 10
349.5371596364
 20
75.1415725736
 30
0.0
 11
349.5371596364
 21
70.167755171
 31
0.0
  0
LINE
  5
34E
330
1F
100
AcDbEntity
  8
0
  6
Continuous
 62
     7
370
    25
100
AcDbLine
 10
307.8311180368
 20
151.2252654954
 30
0.0
 11
307.8311009031
 21
151.2252883413
 31
0.0
  0
LINE
  5
34F
330
1F
100
AcDbEntity
  8
0
  6
Continuous
 62
     7
370
    25
100
AcDbLine
 10
313.2052446814
 20
151.2252654954
 30
0.0
 11
313.2052618151
 21
151.2252883413
 31
0.0
  0
LINE
  5
350
330
1F
100
AcDbEntity
  8
0
  6
Continuous
 62
     7
370
    25
100
AcDbLine
 10
339.8311180368
 20
34.0578796518
 30
0.0
 11
339.8311009031
 21
34.0578568059
 31
0.0
  0
LINE
  5
351
330
1F
100
AcDbEntity
  8
0
  6
Continuous
 62
     7
370
    25
100
AcDbLine
 10
345.2052446814
 20
34.0578796518
 30
0.0
 11
345.2052618151
 21
34.0578568059
 31
0.0
  0
LINE
  5
352
330
1F
100
AcDbEntity
  8
0
  6
Continuous
 62
     7
370
    25
100
AcDbLine
 10
311.3121258604
 20
149.0327582739
 30
0.0
 11
311.3129905453
 21
149.0312830218
 31
0.0
  0
LINE
  5
353
330
1F
100
AcDbEntity
  8
0
  6
Continuous
 62
     7
370
    25
100
AcDbLine
 10
309.7233721729
 20
149.0312830218
 30
0.0
 11
309.7242368578
 21
149.0327582739
 31
0.0
  0
LINE
  5
354
330
1F
100
AcDbEntity
  8
0
  6
Continuous
 62
     7
370
    25
100
AcDbLine
 10
341.7242368578
 20
36.2503868733
 30
0.0
 11
341.7233721729
 21
36.2518621254
 31
0.0
  0
LINE
  5
355
330
1F
100
AcDbEntity
  8
0
  6
Continuous
 62
     7
370
    25
100
AcDbLine
 10
343.3129905453
 20
36.2518621254
 30
0.0
 11
343.3121258604
 21
36.2503868733
 31
0.0
  0
ARC
  5
356
330
1F
100
AcDbEntity
  8
0
  6
Continuous
 62
     7
370
    25
100
AcDbCircle
 10
307.7681813591
 20
31.3915725736
 30
0.0
 40
2.500000000000007
100
AcDbArc
 50
90.0
 51
270.0
  0
LINE
  5
357
330
1F
100
AcDbEntity
  8
0
  6
Continuous
 62
     7
370
    25
100
AcDbLine
 10
310.7681813591
 20
28.8915725736
 30
0.0
 11
307.7681813591
 21
28.8915725736
 31
0.0
  0
ARC
  5
358
330
1F
100
AcDbEntity
  8
0
  6
Continuous
 62
     7
370
    25
100
AcDbCircle
 10
310.7681813591
 20
31.3915725736
 30
0.0
 40
2.500000000000007
100
AcDbArc
 50
270.0
 51
90.0
  0
LINE
  5
359
330
1F
100
AcDbEntity
  8
0
  6
Continuous
 62
     7
370
    25
100
AcDbLine
 10
307.7681813591
 20
33.8915725736
 30
0.0
 11
310.7681813591
 21
33.8915725736
 31
0.0
  0
LINE
  5
35A
330
1F
100
AcDbEntity
  8
0
  6
Continuous
 62
     7
370
    25
100
AcDbLine
 10
304.2181813591
 20
144.1415725736
 30
0.0
 11
304.2181813591
 21
157.8418162985
 31
0.0
  0
ARC
  5
35B
330
1F
100
AcDbEntity
  8
0
  6
Continuous
 62
     7
370
    25
100
AcDbCircle
 10
306.0181813591
 20
144.1415725736
 30
0.0
 40
1.800000000000011
100
AcDbArc
 50
180.0
 51
270.0
  0
ARC
  5
35C
330
1F
100
AcDbEntity
  8
0
  6
Continuous
 62
     7
370
    25
100
AcDbCircle
 10
306.0181813591
 20
157.8418162985
 30
0.0
 40
1.799999999999955
100
AcDbArc
 50
90.0
 51
180.0
  0
ARC
  5
35D
330
1F
100
AcDbEntity
  8
0
  6
Continuous
 62
     7
370
    25
100
AcDbCircle
 10
309.2681813591
 20
93.6415725736
 30
0.0
 40
3.404401511556159
100
AcDbArc
 50
0.0
 51
180.0
  0
ARC
  5
35E
330
1F
100
AcDbEntity
  8
0
  6
Continuous
 62
     7
370
    25
100
AcDbCircle
 10
309.2681813591
 20
91.6415725736
 30
0.0
 40
3.404401511556159
100
AcDbArc
 50
180.0
 51
0.0
  0
LINE
  5
35F
330
1F
100
AcDbEntity
  8
0
  6
Continuous
 62
     7
370
    25
100
AcDbLine
 10
315.0181813591
 20
142.3415725736
 30
0.0
 11
306.0181813591
 21
142.3415725736
 31
0.0
  0
LINE
  5
360
330
1F
100
AcDbEntity
  8
0
  6
Continuous
 62
     7
370
    25
100
AcDbLine
 10
306.0181813591
 20
159.6418162985
 30
0.0
 11
315.0181813591
 21
159.6418162985
 31
0.0
  0
ARC
  5
361
330
1F
100
AcDbEntity
  8
0
  6
Continuous
 62
     7
370
    25
100
AcDbCircle
 10
315.0181813591
 20
144.1415725736
 30
0.0
 40
1.800000000000011
100
AcDbArc
 50
270.0
 51
0.0
  0
ARC
  5
362
330
1F
100
AcDbEntity
  8
0
  6
Continuous
 62
     7
370
    25
100
AcDbCircle
 10
315.0181813591
 20
157.8418162985
 30
0.0
 40
1.800000000000011
100
AcDbArc
 50
0.0
 51
90.0
  0
LINE
  5
363
330
1F
100
AcDbEntity
  8
0
  6
Continuous
 62
     7
370
    25
100
AcDbLine
 10
316.8181813591
 20
157.8418162985
 30
0.0
 11
316.8181813591
 21
144.1415725736
 31
0.0
  0
LINE
  5
364
330
1F
100
AcDbEntity
  8
0
  6
Continuous
 62
     7
370
    25
100
AcDbLine
 10
336.2181813591
 20
27.4413288487
 30
0.0
 11
336.2181813591
 21
41.1415725736
 31
0.0
  0
ARC
  5
365
330
1F
100
AcDbEntity
  8
0
  6
Continuous
 62
     7
370
    25
100
AcDbCircle
 10
338.0181813591
 20
27.4413288487
 30
0.0
 40
1.800000000000011
100
AcDbArc
 50
180.0
 51
270.0
  0
ARC
  5
366
330
1F
100
AcDbEntity
  8
0
  6
Continuous
 62
     7
370
    25
100
AcDbCircle
 10
338.0181813591
 20
41.1415725736
 30
0.0
 40
1.800000000000011
100
AcDbArc
 50
90.0
 51
180.0
  0
ARC
  5
367
330
1F
100
AcDbEntity
  8
0
  6
Continuous
 62
     7
370
    25
100
AcDbCircle
 10
343.7681813591
 20
152.8915725736
 30
0.0
 40
2.5
100
AcDbArc
 50
180.0
 51
0.0
  0
LINE
  5
368
330
1F
100
AcDbEntity
  8
0
  6
Continuous
 62
     7
370
    25
100
AcDbLine
 10
346.2681813591
 20
154.8915725736
 30
0.0
 11
346.2681813591
 21
152.8915725736
 31
0.0
  0
ARC
  5
369
330
1F
100
AcDbEntity
  8
0
  6
Continuous
 62
     7
370
    25
100
AcDbCircle
 10
343.7681813591
 20
154.8915725736
 30
0.0
 40
2.5
100
AcDbArc
 50
0.0
 51
180.0
  0
LINE
  5
36A
330
1F
100
AcDbEntity
  8
0
  6
Continuous
 62
     7
370
    25
100
AcDbLine
 10
341.2681813591
 20
152.8915725736
 30
0.0
 11
341.2681813591
 21
154.8915725736
 31
0.0
  0
LINE
  5
36B
330
1F
100
AcDbEntity
  8
0
  6
Continuous
 62
     7
370
    25
100
AcDbLine
 10
338.0181813591
 20
42.9415725736
 30
0.0
 11
347.0181813591
 21
42.9415725736
 31
0.0
  0
LINE
  5
36C
330
1F
100
AcDbEntity
  8
0
  6
Continuous
 62
     7
370
    25
100
AcDbLine
 10
347.0181813591
 20
25.6413288487
 30
0.0
 11
338.0181813591
 21
25.6413288487
 31
0.0
  0
ARC
  5
36D
330
1F
100
AcDbEntity
  8
0
  6
Continuous
 62
     7
370
    25
100
AcDbCircle
 10
344.7681813591
 20
92.6415725736
 30
0.0
 40
3.404401511554099
100
AcDbArc
 50
270.0
 51
90.0
  0
ARC
  5
36E
330
1F
100
AcDbEntity
  8
0
  6
Continuous
 62
     7
370
    25
100
AcDbCircle
 10
347.0181813591
 20
27.4413288487
 30
0.0
 40
1.800000000000011
100
AcDbArc
 50
270.0
 51
0.0
  0
ARC
  5
36F
330
1F
100
AcDbEntity
  8
0
  6
Continuous
 62
     7
370
    25
100
AcDbCircle
 10
347.0181813591
 20
41.1415725736
 30
0.0
 40
1.800000000000011
100
AcDbArc
 50
0.0
 51
90.0
  0
LINE
  5
370
330
1F
100
AcDbEntity
  8
0
  6
Continuous
 62
     7
370
    25
100
AcDbLine
 10
348.8181813591
 20
41.1415725736
 30
0.0
 11
348.8181813591
 21
27.4413288487
 31
0.0
  0
CIRCLE
  5
371
330
1F
100
AcDbEntity
  8
0
  6
Continuous
 62
     7
370
    25
100
AcDbCircle
 10
309.2681813591
 20
31.3915725736
 30
0.0
 40
7.200207538209668
  0
CIRCLE
  5
372
330
1F
100
AcDbEntity
  8
0
  6
Continuous
 62
     7
370
    25
100
AcDbCircle
 10
343.7681813591
 20
153.8915725736
 30
0.0
 40
7.200207538209668
  0
ARC
  5
373
330
1F
100
AcDbEntity
  8
0
  6
Continuous
 62
     7
370
    25
100
AcDbCircle
 10
309.2681813591
 20
93.6415725736
 30
0.0
 40
5.0
100
AcDbArc
 50
0.0
 51
180.0
  0
LINE
  5
374
330
1F
100
AcDbEntity
  8
0
  6
Continuous
 62
     7
370
    25
100
AcDbLine
 10
304.2681813591
 20
93.6415725736
 30
0.0
 11
304.2681813591
 21
91.6415725736
 31
0.0
  0
ARC
  5
375
330
1F
100
AcDbEntity
  8
0
  6
Continuous
 62
     7
370
    25
100
AcDbCircle
 10
309.2681813591
 20
91.6415725736
 30
0.0
 40
5.0
100
AcDbArc
 50
180.0
 51
0.0
  0
ARC
  5
376
330
1F
100
AcDbEntity
  8
0
  6
Continuous
 62
     7
370
    25
100
AcDbCircle
 10
309.2681813591
 20
91.6415725736
 30
0.0
 40
3.399999999999977
100
AcDbArc
 50
180.0
 51
0.0
  0
LINE
  5
377
330
1F
100
AcDbEntity
  8
0
  6
Continuous
 62
     7
370
    25
100
AcDbLine
 10
305.8681813591
 20
93.6415725736
 30
0.0
 11
305.8681813591
 21
91.6415725736
 31
0.0
  0
ARC
  5
378
330
1F
100
AcDbEntity
  8
0
  6
Continuous
 62
     7
370
    25
100
AcDbCircle
 10
309.2681813591
 20
93.6415725736
 30
0.0
 40
3.399999999999977
100
AcDbArc
 50
0.0
 51
180.0
  0
LINE
  5
379
330
1F
100
AcDbEntity
  8
0
  6
Continuous
 62
     7
370
    25
100
AcDbLine
 10
312.6681813591
 20
91.6415725736
 30
0.0
 11
312.6681813591
 21
93.6415725736
 31
0.0
  0
LINE
  5
37A
330
1F
100
AcDbEntity
  8
0
  6
Continuous
 62
     7
370
    25
100
AcDbLine
 10
314.2681813591
 20
91.6415725736
 30
0.0
 11
314.2681813591
 21
93.6415725736
 31
0.0
  0
ARC
  5
37B
330
1F
100
AcDbEntity
  8
0
  6
Continuous
 62
     7
370
    25
100
AcDbCircle
 10
342.7681813591
 20
92.6415725736
 30
0.0
 40
4.999999999997939
100
AcDbArc
 50
90.0
 51
270.0
  0
ARC
  5
37C
330
1F
100
AcDbEntity
  8
0
  6
Continuous
 62
     7
370
    25
100
AcDbCircle
 10
342.7681813591
 20
92.6415725736
 30
0.0
 40
3.399999999997931
100
AcDbArc
 50
90.0
 51
270.0
  0
LINE
  5
37D
330
1F
100
AcDbEntity
  8
0
  6
Continuous
 62
     7
370
    25
100
AcDbLine
 10
344.7681813591
 20
96.0415725736
 30
0.0
 11
342.7681813591
 21
96.0415725736
 31
0.0
  0
LINE
  5
37E
330
1F
100
AcDbEntity
  8
0
  6
Continuous
 62
     7
370
    25
100
AcDbLine
 10
342.7681813591
 20
87.6415725736
 30
0.0
 11
344.7681813591
 21
87.6415725736
 31
0.0
  0
LINE
  5
37F
330
1F
100
AcDbEntity
  8
0
  6
Continuous
 62
     7
370
    25
100
AcDbLine
 10
342.7681813591
 20
89.2415725736
 30
0.0
 11
344.7681813591
 21
89.2415725736
 31
0.0
  0
LINE
  5
380
330
1F
100
AcDbEntity
  8
0
  6
Continuous
 62
     7
370
    25
100
AcDbLine
 10
344.7681813591
 20
97.6415725736
 30
0.0
 11
342.7681813591
 21
97.6415725736
 31
0.0
  0
ARC
  5
381
330
1F
100
AcDbEntity
  8
0
  6
Continuous
 62
     7
370
    25
100
AcDbCircle
 10
344.7681813591
 20
92.6415725736
 30
0.0
 40
4.999999999997939
100
AcDbArc
 50
270.0
 51
90.0
  0
ARC
  5
382
330
1F
100
AcDbEntity
  8
0
  6
Continuous
 62
     7
370
    25
100
AcDbCircle
 10
344.7681813591
 20
92.6415725736
 30
0.0
 40
3.399999999997931
100
AcDbArc
 50
270.0
 51
90.0
  0
LINE
  5
383
330
1F
100
AcDbEntity
  8
0
  6
Continuous
 62
     7
370
    25
100
AcDbLine
 10
309.5181813591
 20
39.3915725736
 30
0.0
 11
309.5181813591
 21
69.3915725736
 31
0.0
  0
LINE
  5
384
330
1F
100
AcDbEntity
  8
0
  6
Continuous
 62
     7
370
    25
100
AcDbLine
 10
309.0181813591
 20
39.3915725736
 30
0.0
 11
309.5181813591
 21
39.3915725736
 31
0.0
  0
LINE
  5
385
330
1F
100
AcDbEntity
  8
0
  6
Continuous
 62
     7
370
    25
100
AcDbLine
 10
309.5181813591
 20
69.3915725736
 30
0.0
 11
309.0181813591
 21
69.3915725736
 31
0.0
  0
LINE
  5
386
330
1F
100
AcDbEntity
  8
0
  6
Continuous
 62
     7
370
    25
100
AcDbLine
 10
309.0181813591
 20
69.3915725736
 30
0.0
 11
309.0181813591
 21
39.3915725736
 31
0.0
  0
LINE
  5
387
330
1F
100
AcDbEntity
  8
0
  6
Continuous
 62
     7
370
    25
100
AcDbLine
 10
309.5181813591
 20
138.8915725736
 30
0.0
 11
309.0181813591
 21
138.8915725736
 31
0.0
  0
LINE
  5
388
330
1F
100
AcDbEntity
  8
0
  6
Continuous
 62
     7
370
    25
100
AcDbLine
 10
309.5181813591
 20
115.8915725736
 30
0.0
 11
309.5181813591
 21
138.8915725736
 31
0.0
  0
LINE
  5
389
330
1F
100
AcDbEntity
  8
0
  6
Continuous
 62
     7
370
    25
100
AcDbLine
 10
309.0181813591
 20
115.8915725736
 30
0.0
 11
309.5181813591
 21
115.8915725736
 31
0.0
  0
LINE
  5
38A
330
1F
100
AcDbEntity
  8
0
  6
Continuous
 62
     7
370
    25
100
AcDbLine
 10
309.0181813591
 20
138.8915725736
 30
0.0
 11
309.0181813591
 21
115.8915725736
 31
0.0
  0
LINE
  5
38B
330
1F
100
AcDbEntity
  8
0
  6
Continuous
 62
     7
370
    25
100
AcDbLine
 10
309.5181813591
 20
85.6415725736
 30
0.0
 11
309.0181813591
 21
85.6415725736
 31
0.0
  0
LINE
  5
38C
330
1F
100
AcDbEntity
  8
0
  6
Continuous
 62
     7
370
    25
100
AcDbLine
 10
309.5181813591
 20
82.6415725736
 30
0.0
 11
309.5181813591
 21
85.6415725736
 31
0.0
  0
LINE
  5
38D
330
1F
100
AcDbEntity
  8
0
  6
Continuous
 62
     7
370
    25
100
AcDbLine
 10
309.0181813591
 20
82.6415725736
 30
0.0
 11
309.5181813591
 21
82.6415725736
 31
0.0
  0
LINE
  5
38E
330
1F
100
AcDbEntity
  8
0
  6
Continuous
 62
     7
370
    25
100
AcDbLine
 10
309.0181813591
 20
85.6415725736
 30
0.0
 11
309.0181813591
 21
82.6415725736
 31
0.0
  0
LINE
  5
38F
330
1F
100
AcDbEntity
  8
0
  6
Continuous
 62
     7
370
    25
100
AcDbLine
 10
309.5181813591
 20
99.6415725736
 30
0.0
 11
309.5181813591
 21
102.6415725736
 31
0.0
  0
LINE
  5
390
330
1F
100
AcDbEntity
  8
0
  6
Continuous
 62
     7
370
    25
100
AcDbLine
 10
309.5181813591
 20
102.6415725736
 30
0.0
 11
309.0181813591
 21
102.6415725736
 31
0.0
  0
LINE
  5
391
330
1F
100
AcDbEntity
  8
0
  6
Continuous
 62
     7
370
    25
100
AcDbLine
 10
309.0181813591
 20
99.6415725736
 30
0.0
 11
309.5181813591
 21
99.6415725736
 31
0.0
  0
LINE
  5
392
330
1F
100
AcDbEntity
  8
0
  6
Continuous
 62
     7
370
    25
100
AcDbLine
 10
309.0181813591
 20
102.6415725736
 30
0.0
 11
309.0181813591
 21
99.6415725736
 31
0.0
  0
LINE
  5
393
330
1F
100
AcDbEntity
  8
0
  6
Continuous
 62
     7
370
    25
100
AcDbLine
 10
339.5181813591
 20
135.6415725736
 30
0.0
 11
339.5181813591
 21
134.8915725736
 31
0.0
  0
LINE
  5
394
330
1F
100
AcDbEntity
  8
0
  6
Continuous
 62
     7
370
    25
100
AcDbLine
 10
313.5181813591
 20
135.6415725736
 30
0.0
 11
339.5181813591
 21
135.6415725736
 31
0.0
  0
LINE
  5
395
330
1F
100
AcDbEntity
  8
0
  6
Continuous
 62
     7
370
    25
100
AcDbLine
 10
313.5181813591
 20
134.8915725736
 30
0.0
 11
313.5181813591
 21
135.6415725736
 31
0.0
  0
LINE
  5
396
330
1F
100
AcDbEntity
  8
0
  6
Continuous
 62
     7
370
    25
100
AcDbLine
 10
313.5181813591
 20
136.8915725736
 30
0.0
 11
310.5181813591
 21
135.8915725736
 31
0.0
  0
LINE
  5
397
330
1F
100
AcDbEntity
  8
0
  6
Continuous
 62
     7
370
    25
100
AcDbLine
 10
313.5181813591
 20
136.1415725736
 30
0.0
 11
313.5181813591
 21
136.8915725736
 31
0.0
  0
LINE
  5
398
330
1F
100
AcDbEntity
  8
0
  6
Continuous
 62
     7
370
    25
100
AcDbLine
 10
339.5181813591
 20
136.1415725736
 30
0.0
 11
313.5181813591
 21
136.1415725736
 31
0.0
  0
LINE
  5
399
330
1F
100
AcDbEntity
  8
0
  6
Continuous
 62
     7
370
    25
100
AcDbLine
 10
339.5181813591
 20
136.8915725736
 30
0.0
 11
339.5181813591
 21
136.1415725736
 31
0.0
  0
LINE
  5
39A
330
1F
100
AcDbEntity
  8
0
  6
Continuous
 62
     7
370
    25
100
AcDbLine
 10
342.5181813591
 20
135.8915725736
 30
0.0
 11
339.5181813591
 21
136.8915725736
 31
0.0
  0
LINE
  5
39B
330
1F
100
AcDbEntity
  8
0
  6
Continuous
 62
     7
370
    25
100
AcDbLine
 10
339.5181813591
 20
134.8915725736
 30
0.0
 11
342.5181813591
 21
135.8915725736
 31
0.0
  0
LINE
  5
39C
330
1F
100
AcDbEntity
  8
0
  6
Continuous
 62
     7
370
    25
100
AcDbLine
 10
310.5181813591
 20
135.8915725736
 30
0.0
 11
313.5181813591
 21
134.8915725736
 31
0.0
  0
LINE
  5
39D
330
1F
100
AcDbEntity
  8
0
  6
Continuous
 62
     7
370
    25
100
AcDbLine
 10
318.595104436
 20
96.7787520608
 30
0.0
 11
319.2681813591
 21
96.7787520608
 31
0.0
  0
LINE
  5
39E
330
1F
100
AcDbEntity
  8
0
  6
Continuous
 62
     7
370
    25
100
AcDbLine
 10
319.2681813591
 20
96.7787520608
 30
0.0
 11
319.2681813591
 21
94.4902905223
 31
0.0
  0
SPLINE
  5
39F
330
1F
100
AcDbEntity
  8
0
  6
Continuous
 62
     7
370
    25
100
AcDbSpline
210
0.0
220
0.0
230
1.0
 70
     8
 71
     3
 72
    19
 73
    15
 74
     0
 42
0.00000001
 43
0.00000001
 40
0.0
 40
0.0
 40
0.0
 40
0.0
 40
0.0963580426684083
 40
0.1926620560784059
 40
0.2894567021899953
 40
0.388481674951205
 40
0.4419241177646073
 40
0.5015241676347497
 40
0.5678862459121956
 40
0.6406005200831534
 40
0.7203689501142861
 40
0.8066357347208929
 40
0.9000153268180233
 40
1.0
 40
1.0
 40
1.0
 40
1.0
 10
319.2681813591029
 20
94.49029052232233
 30
0.0
 10
319.2106571479046
 20
94.4980386969477
 30
0.0
 10
319.0956409801116
 20
94.51353070169208
 30
0.0
 10
318.9276317101999
 20
94.56142699124058
 30
0.0
 10
318.7636817457421
 20
94.62535011435703
 30
0.0
 10
318.6302715072345
 20
94.69473299044166
 30
0.0
 10
318.5228681084147
 20
94.76372627469145
 30
0.0
 10
318.4349029207781
 20
94.82637343182603
 30
0.0
 10
318.34126333697
 20
94.90077662467246
 30
0.0
 10
318.2418965066288
 20
94.98720264831661
 30
0.0
 10
318.1344916785482
 20
95.08262248190302
 30
0.0
 10
318.0215672417105
 20
95.19042904677676
 30
0.0
 10
317.9027379992592
 20
95.30956370435024
 30
0.0
 10
317.8220981256989
 20
95.39343620519418
 30
0.0
 10
317.780400910385
 20
95.43680494539925
 30
0.0
  0
SPLINE
  5
3A0
330
1F
100
AcDbEntity
  8
0
  6
Continuous
 62
     7
370
    25
100
AcDbSpline
210
0.0
220
0.0
230
1.0
 70
     8
 71
     3
 72
    15
 73
    11
 74
     0
 42
0.00000001
 43
0.00000001
 40
0.0
 40
0.0
 40
0.0
 40
0.0
 40
0.1850866921030266
 40
0.3523505493513773
 40
0.5030703526652797
 40
0.6366244131365991
 40
0.7524777767860198
 40
0.8518884843638644
 40
0.9343406303412674
 40
1.0
 40
1.0
 40
1.0
 40
1.0
 10
317.780400910385
 20
95.43680494539925
 30
0.0
 10
317.7469920022476
 20
95.47140332490858
 30
0.0
 10
317.6833912808683
 20
95.53726844945247
 30
0.0
 10
317.5924106814261
 20
95.631157088536
 30
0.0
 10
317.5085736906489
 20
95.71324926811776
 30
0.0
 10
317.4351565351963
 20
95.78690824245017
 30
0.0
 10
317.367903097591
 20
95.84771957594756
 30
0.0
 10
317.3100381584164
 20
95.89905236558305
 30
0.0
 10
317.260564969577
 20
95.94023793952255
 30
0.0
 10
317.2292008035315
 20
95.96256443145406
 30
0.0
 10
317.2152967437183
 20
95.9724619966813
 30
0.0
  0
SPLINE
  5
3A1
330
1F
100
AcDbEntity
  8
0
  6
Continuous
 62
     7
370
    25
100
AcDbSpline
210
0.0
220
0.0
230
1.0
 70
     8
 71
     3
 72
    11
 73
     7
 74
     0
 42
0.00000001
 43
0.00000001
 40
0.0
 40
0.0
 40
0.0
 40
0.0
 40
0.2727955500866107
 40
0.5261910092278069
 40
0.7669044194616146
 40
1.0
 40
1.0
 40
1.0
 40
1.0
 10
317.2152967437183
 20
95.9724619966813
 30
0.0
 10
317.1816346996076
 20
95.9927268246464
 30
0.0
 10
317.116704516701
 20
96.03181532984892
 30
0.0
 10
317.014600629851
 20
96.07467911865724
 30
0.0
 10
316.912517834039
 20
96.1004075624373
 30
0.0
 10
316.8443066939137
 20
96.10393820097555
 30
0.0
 10
316.8107494680772
 20
96.10567513770694
 30
0.0
  0
SPLINE
  5
3A2
330
1F
100
AcDbEntity
  8
0
  6
Continuous
 62
     7
370
    25
100
AcDbSpline
210
0.0
220
0.0
230
1.0
 70
     8
 71
     3
 72
    15
 73
    11
 74
     0
 42
0.00000001
 43
0.00000001
 40
0.0
 40
0.0
 40
0.0
 40
0.0
 40
0.1490739315748772
 40
0.2820362516314138
 40
0.405387864976452
 40
0.5217900373102213
 40
0.6350463849444408
 40
0.748908221570801
 40
0.8687689701686571
 40
1.0
 40
1.0
 40
1.0
 40
1.0
 10
316.8107494680772
 20
96.10567513770694
 30
0.0
 10
316.775822969772
 20
96.10442674869778
 30
0.0
 10
316.7097447590443
 20
96.1020648940596
 30
0.0
 10
316.6163735055009
 20
96.08186673200001
 30
0.0
 10
316.5358045397645
 20
96.04677994551642
 30
0.0
 10
316.4684365156668
 20
95.99769292455429
 30
0.0
 10
316.4155034010471
 20
95.93619827978897
 30
0.0
 10
316.3775475020604
 20
95.8636079592802
 30
0.0
 10
316.3557717364899
 20
95.780185394156
 30
0.0
 10
316.3529759086209
 20
95.72135713536443
 30
0.0
 10
316.3515146924362
 20
95.69061103514284
 30
0.0
  0
SPLINE
  5
3A3
330
1F
100
AcDbEntity
  8
0
  6
Continuous
 62
     7
370
    25
100
AcDbSpline
210
0.0
220
0.0
230
1.0
 70
     8
 71
     3
 72
    19
 73
    15
 74
     0
 42
0.00000001
 43
0.00000001
 40
0.0
 40
0.0
 40
0.0
 40
0.0
 40
0.1168789425891927
 40
0.2257848828927955
 40
0.3300293635824526
 40
0.4347845767396025
 40
0.4896303961209869
 40
0.5483216779436253
 40
0.6108337112499017
 40
0.6777304768539407
 40
0.7492316971979338
 40
0.826888469077282
 40
0.9101270386610899
 40
1.0
 40
1.0
 40
1.0
 40
1.0
 10
316.3515146924362
 20
95.69061103514284
 30
0.0
 10
316.3529013792227
 20
95.66008617804346
 30
0.0
 10
316.3555801587081
 20
95.60111874445086
 30
0.0
 10
316.3788725238841
 20
95.51726480981941
 30
0.0
 10
316.4193775224123
 20
95.44422427679059
 30
0.0
 10
316.4647390420647
 20
95.3916113697647
 30
0.0
 10
316.5095505462343
 20
95.35621537532944
 30
0.0
 10
316.5490522703439
 20
95.33258140683198
 30
0.0
 10
316.5934747752221
 20
95.31160325739911
 30
0.0
 10
316.6426612496245
 20
95.29328236994822
 30
0.0
 10
316.6971932480733
 20
95.2787585357935
 30
0.0
 10
316.7567035450916
 20
95.2670777758032
 30
0.0
 10
316.8214980267118
 20
95.25766004559799
 30
0.0
 10
316.8665743225022
 20
95.25466562506277
 30
0.0
 10
316.8899762308978
 20
95.25311103514284
 30
0.0
  0
LINE
  5
3A4
330
1F
100
AcDbEntity
  8
0
  6
Continuous
 62
     7
370
    25
100
AcDbLine
 10
316.8899762309
 20
95.2531110351
 30
0.0
 11
316.8240707822
 21
94.5800341121
 31
0.0
  0
SPLINE
  5
3A5
330
1F
100
AcDbEntity
  8
0
  6
Continuous
 62
     7
370
    25
100
AcDbSpline
210
0.0
220
0.0
230
1.0
 70
     8
 71
     3
 72
    23
 73
    19
 74
     0
 42
0.00000001
 43
0.00000001
 40
0.0
 40
0.0
 40
0.0
 40
0.0
 40
0.0794277383747635
 40
0.15399769399933
 40
0.2241189499674192
 40
0.2899050271283502
 40
0.3526968565844613
 40
0.4126842950548494
 40
0.4705649759878921
 40
0.5274252800728538
 40
0.5837531208169116
 40
0.6399844070010032
 40
0.6966154639853039
 40
0.7537516678721112
 40
0.8127258630658217
 40
0.8729762494242101
 40
0.9350413902325088
 40
1.0
 40
1.0
 40
1.0
 40
1.0
 10
316.8240707821798
 20
94.58003411206592
 30
0.0
 10
316.7786295270298
 20
94.58544545425598
 30
0.0
 10
316.6905261937519
 20
94.59593718215558
 30
0.0
 10
316.5639807258534
 20
94.62212116100402
 30
0.0
 10
316.4472321028524
 20
94.65527628598697
 30
0.0
 10
316.340518234882
 20
94.69700808976239
 30
0.0
 10
316.243087099831
 20
94.7455070829114
 30
0.0
 10
316.1565069464451
 20
94.80364608142989
 30
0.0
 10
316.0790966565389
 20
94.86829657026476
 30
0.0
 10
316.0123068534891
 20
94.94111043421681
 30
0.0
 10
315.9549097312704
 20
95.02020336863411
 30
0.0
 10
315.9048227946013
 20
95.10393866917327
 30
0.0
 10
315.8627562349471
 20
95.19251816723674
 30
0.0
 10
315.8283068131246
 20
95.28595603697248
 30
0.0
 10
315.8007049025981
 20
95.38386566624064
 30
0.0
 10
315.7824719152318
 20
95.48676461251624
 30
0.0
 10
315.7696418343967
 20
95.59399987109616
 30
0.0
 10
315.7686755214026
 20
95.6671997983159
 30
0.0
 10
315.7681813591029
 20
95.70463347104027
 30
0.0
  0
SPLINE
  5
3A6
330
1F
100
AcDbEntity
  8
0
  6
Continuous
 62
     7
370
    25
100
AcDbSpline
210
0.0
220
0.0
230
1.0
 70
     8
 71
     3
 72
    23
 73
    19
 74
     0
 42
0.00000001
 43
0.00000001
 40
0.0
 40
0.0
 40
0.0
 40
0.0
 40
0.0756649543381273
 40
0.1473669987359349
 40
0.2160636941106702
 40
0.2816706840027659
 40
0.3454263375445121
 40
0.4074460410080259
 40
0.4684400979196282
 40
0.5294852276222567
 40
0.5897299452606322
 40
0.6485822482776863
 40
0.7059820665192232
 40
0.7631246478545237
 40
0.8203068794187209
 40
0.8784910631301157
 40
0.9382320535526131
 40
0.9999999999999999
 40
0.9999999999999999
 40
0.9999999999999999
 40
0.9999999999999999
 10
315.7681813591029
 20
95.70463347104027
 30
0.0
 10
315.7689633979439
 20
95.7453287144948
 30
0.0
 10
315.7704865167763
 20
95.82458781064017
 30
0.0
 10
315.7830674727996
 20
95.94029085023982
 30
0.0
 10
315.8049967786055
 20
96.0489899014104
 30
0.0
 10
315.8340692920926
 20
96.15161529177226
 30
0.0
 10
315.8727976976172
 20
96.24718376772822
 30
0.0
 10
315.9198559348724
 20
96.33612079006916
 30
0.0
 10
315.9757241192128
 20
96.41808021539165
 30
0.0
 10
316.0394670623211
 20
96.49276581931396
 30
0.0
 10
316.1093256112154
 20
96.560121295546
 30
0.0
 10
316.1845138837238
 20
96.61834732297034
 30
0.0
 10
316.2637191678529
 20
96.66779535215144
 30
0.0
 10
316.3465729548277
 20
96.70902912026827
 30
0.0
 10
316.4343601260015
 20
96.73968828584319
 30
0.0
 10
316.5259211962376
 20
96.76201633835785
 30
0.0
 10
316.6216685639468
 20
96.77682368912775
 30
0.0
 10
316.6870624023939
 20
96.77810216127102
 30
0.0
 10
316.7203047565388
 20
96.77875206078386
 30
0.0
  0
SPLINE
  5
3A7
330
1F
100
AcDbEntity
  8
0
  6
Continuous
 62
     7
370
    25
100
AcDbSpline
210
0.0
220
0.0
230
1.0
 70
     8
 71
     3
 72
    15
 73
    11
 74
     0
 42
0.00000001
 43
0.00000001
 40
0.0
 40
0.0
 40
0.0
 40
0.0
 40
0.1191762436674492
 40
0.2364273787594542
 40
0.352663847856404
 40
0.4690860844274173
 40
0.5894629077907689
 40
0.7176014692905109
 40
0.8541894668533108
 40
0.9999999999999999
 40
0.9999999999999999
 40
0.9999999999999999
 40
0.9999999999999999
 10
316.7203047565388
 20
96.77875206078387
 30
0.0
 10
316.7584563628325
 20
96.7778957471543
 30
0.0
 10
316.8341432950087
 20
96.77619695232234
 30
0.0
 10
316.9460311923664
 20
96.75993225217495
 30
0.0
 10
317.0553389690698
 20
96.73508295680763
 30
0.0
 10
317.1623337629706
 20
96.69835765495206
 30
0.0
 10
317.2695821310573
 20
96.65180548395368
 30
0.0
 10
317.3773248019673
 20
96.5917986191674
 30
0.0
 10
317.4888111034987
 20
96.52212611097605
 30
0.0
 10
317.5608918622041
 20
96.46757528305437
 30
0.0
 10
317.5981092437183
 20
96.43940911206592
 30
0.0
  0
SPLINE
  5
3A8
330
1F
100
AcDbEntity
  8
0
  6
Continuous
 62
     7
370
    25
100
AcDbSpline
210
0.0
220
0.0
230
1.0
 70
     8
 71
     3
 72
    25
 73
    21
 74
     0
 42
0.00000001
 43
0.00000001
 40
0.0
 40
0.0
 40
0.0
 40
0.0
 40
0.0369764070058821
 40
0.0791948934303649
 40
0.1267046896577451
 40
0.1791893757174639
 40
0.2373756600360404
 40
0.3005674250208777
 40
0.3691640488287347
 40
0.4431254775314259
 40
0.5160336440692203
 40
0.5824903983528189
 40
0.642155791145516
 40
0.6946404772052347
 40
0.740701329151295
 40
0.7796120809160726
 40
0.812097798214822
 40
0.8378388636946166
 40
0.9229866473460319
 40
1.0
 40
1.0
 40
1.0
 40
1.0
 10
317.5981092437183
 20
96.43940911206592
 30
0.0
 10
317.6115173782142
 20
96.42876353605033
 30
0.0
 10
317.6402344945727
 20
96.4059631796521
 30
0.0
 10
317.6842677514634
 20
96.36717378194149
 30
0.0
 10
317.7323659489766
 20
96.32222020631473
 30
0.0
 10
317.785429374288
 20
96.27173740218208
 30
0.0
 10
317.8415789064823
 20
96.21405782366033
 30
0.0
 10
317.9031626750382
 20
96.1512567849459
 30
0.0
 10
317.9670304667613
 20
96.08057085867806
 30
0.0
 10
318.034775468476
 20
96.00735736397401
 30
0.0
 10
318.1007107375056
 20
95.93382564845635
 30
0.0
 10
318.1633345869341
 20
95.8662393509897
 30
0.0
 10
318.2187433645254
 20
95.8048486619059
 30
0.0
 10
318.2699953718161
 20
95.75251200190552
 30
0.0
 10
318.3135942484715
 20
95.70615300461037
 30
0.0
 10
318.3517709609808
 20
95.66743656118987
 30
0.0
 10
318.3836147156616
 20
95.63565577056933
 30
0.0
 10
318.4333402493662
 20
95.59168284008601
 30
0.0
 10
318.5009023297967
 20
95.53654283925265
 30
0.0
 10
318.5647716858261
 20
95.49696661801178
 30
0.0
 10
318.595104436026
 20
95.47817113129668
 30
0.0
  0
LINE
  5
3A9
330
1F
100
AcDbEntity
  8
0
  6
Continuous
 62
     7
370
    25
100
AcDbLine
 10
318.595104436
 20
95.4781711313
 30
0.0
 11
318.595104436
 21
96.7787520608
 31
0.0
  0
LINE
  5
3AA
330
1F
100
AcDbEntity
  8
0
  6
Continuous
 62
     7
370
    25
100
AcDbLine
 10
319.2681813591
 20
90.1646494967
 30
0.0
 11
319.2681813591
 21
89.4915725736
 31
0.0
  0
LINE
  5
3AB
330
1F
100
AcDbEntity
  8
0
  6
Continuous
 62
     7
370
    25
100
AcDbLine
 10
319.2681813591
 20
89.4915725736
 30
0.0
 11
316.7763945001
 21
89.4915725736
 31
0.0
  0
SPLINE
  5
3AC
330
1F
100
AcDbEntity
  8
0
  6
Continuous
 62
     7
370
    25
100
AcDbSpline
210
0.0
220
0.0
230
1.0
 70
     8
 71
     3
 72
    15
 73
    11
 74
     0
 42
0.00000001
 43
0.00000001
 40
0.0
 40
0.0
 40
0.0
 40
0.0
 40
0.1265666333059108
 40
0.2514162549880776
 40
0.3764123322389751
 40
0.500467359442921
 40
0.6241933871406624
 40
0.7481419589808745
 40
0.8738732810155251
 40
1.0
 40
1.0
 40
1.0
 40
1.0
 10
316.7763945001285
 20
89.49157257360437
 30
0.0
 10
316.8073601200218
 20
89.46106160017577
 30
0.0
 10
316.8688712780859
 20
89.40045356727563
 30
0.0
 10
316.954761280431
 20
89.30371592426286
 30
0.0
 10
317.0343874187089
 20
89.20293262446553
 30
0.0
 10
317.108535502517
 20
89.098472736593
 30
0.0
 10
317.1748326086696
 20
88.98928841493358
 30
0.0
 10
317.2362187773379
 20
88.87667840834011
 30
0.0
 10
317.2919070655228
 20
88.76012402517665
 30
0.0
 10
317.3230821607839
 20
88.67942255403415
 30
0.0
 10
317.3386941796157
 20
88.63900847104027
 30
0.0
  0
LINE
  5
3AD
330
1F
100
AcDbEntity
  8
0
  6
Continuous
 62
     7
370
    25
100
AcDbLine
 10
317.3386941796
 20
88.639008471
 30
0.0
 11
316.6656172565
 21
88.639008471
 31
0.0
  0
LINE
  5
3AE
330
1F
100
AcDbEntity
  8
0
  6
Continuous
 62
     7
370
    25
100
AcDbLine
 10
315.7681813591
 20
89.6247857146
 30
0.0
 11
315.7681813591
 21
90.1646494967
 31
0.0
  0
LINE
  5
3AF
330
1F
100
AcDbEntity
  8
0
  6
Continuous
 62
     7
370
    25
100
AcDbLine
 10
315.7681813591
 20
90.1646494967
 30
0.0
 11
319.2681813591
 21
90.1646494967
 31
0.0
  0
SPLINE
  5
3B0
330
1F
100
AcDbEntity
  8
0
  6
Continuous
 62
     7
370
    25
100
AcDbSpline
210
0.0
220
0.0
230
1.0
 70
     8
 71
     3
 72
    19
 73
    15
 74
     0
 42
0.00000001
 43
0.00000001
 40
0.0
 40
0.0
 40
0.0
 40
0.0
 40
0.1044728014505088
 40
0.2186534455744872
 40
0.3428558890245158
 40
0.4792694623690658
 40
0.5495409926991598
 40
0.6174241096395703
 40
0.6835351858950321
 40
0.7485971287880193
 40
0.8121759604466018
 40
0.8748692871861434
 40
0.9374294362357427
 40
1.0
 40
1.0
 40
1.0
 40
1.0
 10
316.6656172565388
 20
88.63900847104027
 30
0.0
 10
316.6488098306707
 20
88.6838334028357
 30
0.0
 10
316.6136331959267
 20
88.77764849775642
 30
0.0
 10
316.538810710638
 20
88.91608802876542
 30
0.0
 10
316.4461729249336
 20
89.06058763277981
 30
0.0
 10
316.3553167104416
 20
89.18197554890229
 30
0.0
 10
316.2745382746947
 20
89.2783525641569
 30
0.0
 10
316.2096050874473
 20
89.34571277073353
 30
0.0
 10
316.1431101355224
 20
89.40812587525728
 30
0.0
 10
316.0729072054687
 20
89.46324589315196
 30
0.0
 10
316.0004156457877
 20
89.51251975110024
 30
0.0
 10
315.9257538841045
 20
89.55617853733375
 30
0.0
 10
315.8486860684411
 20
89.59460830525487
 30
0.0
 10
315.7950177511659
 20
89.6147260200346
 30
0.0
 10
315.7681813591029
 20
89.62478571463002
 30
0.0
  0
LINE
  5
3B1
330
1F
100
AcDbEntity
  8
0
  6
Continuous
 62
     7
370
    25
100
AcDbLine
 10
318.595104436
 20
93.7633674454
 30
0.0
 11
319.2681813591
 21
93.7633674454
 31
0.0
  0
LINE
  5
3B2
330
1F
100
AcDbEntity
  8
0
  6
Continuous
 62
     7
370
    25
100
AcDbLine
 10
319.2681813591
 20
93.7633674454
 30
0.0
 11
319.2681813591
 21
91.4749059069
 31
0.0
  0
SPLINE
  5
3B3
330
1F
100
AcDbEntity
  8
0
  6
Continuous
 62
     7
370
    25
100
AcDbSpline
210
0.0
220
0.0
230
1.0
 70
     8
 71
     3
 72
    19
 73
    15
 74
     0
 42
0.00000001
 43
0.00000001
 40
0.0
 40
0.0
 40
0.0
 40
0.0
 40
0.0963580426684083
 40
0.1926620560784059
 40
0.2894567021899953
 40
0.3884816749512051
 40
0.4419241177646073
 40
0.5015241676347496
 40
0.5678862459121956
 40
0.6406005200831535
 40
0.7203689501142861
 40
0.8066357347208931
 40
0.9000153268180234
 40
1.0
 40
1.0
 40
1.0
 40
1.0
 10
319.2681813591029
 20
91.47490590693772
 30
0.0
 10
319.2106571479046
 20
91.48265408156307
 30
0.0
 10
319.0956409801116
 20
91.49814608630744
 30
0.0
 10
318.9276317101999
 20
91.54604237585595
 30
0.0
 10
318.7636817457421
 20
91.60996549897241
 30
0.0
 10
318.6302715072345
 20
91.67934837505703
 30
0.0
 10
318.5228681084147
 20
91.74834165930685
 30
0.0
 10
318.4349029207781
 20
91.81098881644141
 30
0.0
 10
318.34126333697
 20
91.88539200928784
 30
0.0
 10
318.2418965066288
 20
91.971818032932
 30
0.0
 10
318.1344916785482
 20
92.0672378665184
 30
0.0
 10
318.0215672417105
 20
92.17504443139214
 30
0.0
 10
317.9027379992592
 20
92.29417908896563
 30
0.0
 10
317.8220981256989
 20
92.37805158980954
 30
0.0
 10
317.780400910385
 20
92.42142033001463
 30
0.0
  0
SPLINE
  5
3B4
330
1F
100
AcDbEntity
  8
0
  6
Continuous
 62
     7
370
    25
100
AcDbSpline
210
0.0
220
0.0
230
1.0
 70
     8
 71
     3
 72
    15
 73
    11
 74
     0
 42
0.00000001
 43
0.00000001
 40
0.0
 40
0.0
 40
0.0
 40
0.0
 40
0.1850866921030264
 40
0.3523505493513775
 40
0.5030703526652794
 40
0.6366244131365992
 40
0.7524777767860199
 40
0.8518884843638644
 40
0.9343406303412674
 40
1.0
 40
1.0
 40
1.0
 40
1.0
 10
317.780400910385
 20
92.42142033001463
 30
0.0
 10
317.7469920022476
 20
92.45601870952397
 30
0.0
 10
317.6833912808683
 20
92.52188383406785
 30
0.0
 10
317.5924106814261
 20
92.61577247315138
 30
0.0
 10
317.5085736906489
 20
92.69786465273314
 30
0.0
 10
317.4351565351963
 20
92.77152362706555
 30
0.0
 10
317.367903097591
 20
92.83233496056295
 30
0.0
 10
317.3100381584164
 20
92.88366775019844
 30
0.0
 10
317.260564969577
 20
92.92485332413791
 30
0.0
 10
317.2292008035315
 20
92.94717981606944
 30
0.0
 10
317.2152967437183
 20
92.95707738129668
 30
0.0
  0
SPLINE
  5
3B5
330
1F
100
AcDbEntity
  8
0
  6
Continuous
 62
     7
370
    25
100
AcDbSpline
210
0.0
220
0.0
230
1.0
 70
     8
 71
     3
 72
    11
 73
     7
 74
     0
 42
0.00000001
 43
0.00000001
 40
0.0
 40
0.0
 40
0.0
 40
0.0
 40
0.2727955500866104
 40
0.526191009227807
 40
0.7669044194616145
 40
0.9999999999999999
 40
0.9999999999999999
 40
0.9999999999999999
 40
0.9999999999999999
 10
317.2152967437183
 20
92.95707738129668
 30
0.0
 10
317.1816346996076
 20
92.97734220926178
 30
0.0
 10
317.116704516701
 20
93.01643071446429
 30
0.0
 10
317.014600629851
 20
93.05929450327264
 30
0.0
 10
316.912517834039
 20
93.08502294705269
 30
0.0
 10
316.8443066939137
 20
93.08855358559093
 30
0.0
 10
316.8107494680772
 20
93.09029052232233
 30
0.0
  0
SPLINE
  5
3B6
330
1F
100
AcDbEntity
  8
0
  6
Continuous
 62
     7
370
    25
100
AcDbSpline
210
0.0
220
0.0
230
1.0
 70
     8
 71
     3
 72
    15
 73
    11
 74
     0
 42
0.00000001
 43
0.00000001
 40
0.0
 40
0.0
 40
0.0
 40
0.0
 40
0.1490739315748771
 40
0.2820362516314136
 40
0.4053878649764519
 40
0.521790037310221
 40
0.6350463849444404
 40
0.748908221570801
 40
0.8687689701686571
 40
1.0
 40
1.0
 40
1.0
 40
1.0
 10
316.8107494680772
 20
93.09029052232233
 30
0.0
 10
316.775822969772
 20
93.08904213331316
 30
0.0
 10
316.7097447590443
 20
93.08668027867498
 30
0.0
 10
316.6163735055009
 20
93.06648211661539
 30
0.0
 10
316.5358045397645
 20
93.0313953301318
 30
0.0
 10
316.4684365156668
 20
92.98230830916968
 30
0.0
 10
316.4155034010471
 20
92.92081366440435
 30
0.0
 10
316.3775475020604
 20
92.84822334389558
 30
0.0
 10
316.3557717364899
 20
92.76480077877139
 30
0.0
 10
316.3529759086209
 20
92.70597251997982
 30
0.0
 10
316.3515146924362
 20
92.67522641975823
 30
0.0
  0
SPLINE
  5
3B7
330
1F
100
AcDbEntity
  8
0
  6
Continuous
 62
     7
370
    25
100
AcDbSpline
210
0.0
220
0.0
230
1.0
 70
     8
 71
     3
 72
    19
 73
    15
 74
     0
 42
0.00000001
 43
0.00000001
 40
0.0
 40
0.0
 40
0.0
 40
0.0
 40
0.1168789425891922
 40
0.2257848828927956
 40
0.3300293635824525
 40
0.4347845767396026
 40
0.4896303961209868
 40
0.5483216779436252
 40
0.6108337112499017
 40
0.6777304768539406
 40
0.7492316971979338
 40
0.8268884690772821
 40
0.9101270386610899
 40
1.0
 40
1.0
 40
1.0
 40
1.0
 10
316.3515146924362
 20
92.67522641975823
 30
0.0
 10
316.3529013792227
 20
92.64470156265885
 30
0.0
 10
316.3555801587081
 20
92.58573412906625
 30
0.0
 10
316.3788725238841
 20
92.50188019443479
 30
0.0
 10
316.4193775224123
 20
92.42883966140599
 30
0.0
 10
316.4647390420647
 20
92.3762267543801
 30
0.0
 10
316.5095505462343
 20
92.34083075994482
 30
0.0
 10
316.5490522703439
 20
92.31719679144736
 30
0.0
 10
316.5934747752221
 20
92.29621864201448
 30
0.0
 10
316.6426612496245
 20
92.2778977545636
 30
0.0
 10
316.6971932480733
 20
92.26337392040888
 30
0.0
 10
316.7567035450916
 20
92.25169316041858
 30
0.0
 10
316.8214980267118
 20
92.24227543021338
 30
0.0
 10
316.8665743225022
 20
92.23928100967814
 30
0.0
 10
316.8899762308978
 20
92.23772641975822
 30
0.0
  0
LINE
  5
3B8
330
1F
100
AcDbEntity
  8
0
  6
Continuous
 62
     7
370
    25
100
AcDbLine
 10
316.8899762309
 20
92.2377264198
 30
0.0
 11
316.8240707822
 21
91.5646494967
 31
0.0
  0
SPLINE
  5
3B9
330
1F
100
AcDbEntity
  8
0
  6
Continuous
 62
     7
370
    25
100
AcDbSpline
210
0.0
220
0.0
230
1.0
 70
     8
 71
     3
 72
    23
 73
    19
 74
     0
 42
0.00000001
 43
0.00000001
 40
0.0
 40
0.0
 40
0.0
 40
0.0
 40
0.0756649543381274
 40
0.147366998735935
 40
0.2160636941106703
 40
0.2816706840027659
 40
0.3454263375445121
 40
0.4074460410080261
 40
0.4684400979196284
 40
0.529485227622257
 40
0.5897299452606323
 40
0.6485822482776864
 40
0.7059820665192234
 40
0.763124647854524
 40
0.8203068794187212
 40
0.8784910631301158
 40
0.9382320535526132
 40
1.0
 40
1.0
 40
1.0
 40
1.0
 10
315.7681813591029
 20
92.68924885565566
 30
0.0
 10
315.7689633979439
 20
92.72994409911017
 30
0.0
 10
315.7704865167763
 20
92.80920319525553
 30
0.0
 10
315.7830674727996
 20
92.9249062348552
 30
0.0
 10
315.8049967786055
 20
93.03360528602578
 30
0.0
 10
315.8340692920926
 20
93.13623067638764
 30
0.0
 10
315.8727976976172
 20
93.2317991523436
 30
0.0
 10
315.9198559348724
 20
93.32073617468454
 30
0.0
 10
315.9757241192128
 20
93.40269560000704
 30
0.0
 10
316.0394670623211
 20
93.47738120392934
 30
0.0
 10
316.1093256112154
 20
93.54473668016139
 30
0.0
 10
316.1845138837238
 20
93.60296270758572
 30
0.0
 10
316.2637191678529
 20
93.65241073676683
 30
0.0
 10
316.3465729548277
 20
93.69364450488365
 30
0.0
 10
316.4343601260015
 20
93.72430367045857
 30
0.0
 10
316.5259211962376
 20
93.74663172297322
 30
0.0
 10
316.6216685639468
 20
93.76143907374313
 30
0.0
 10
316.6870624023939
 20
93.76271754588639
 30
0.0
 10
316.7203047565388
 20
93.76336744539924
 30
0.0
  0
SPLINE
  5
3BA
330
1F
100
AcDbEntity
  8
0
  6
Continuous
 62
     7
370
    25
100
AcDbSpline
210
0.0
220
0.0
230
1.0
 70
     8
 71
     3
 72
    15
 73
    11
 74
     0
 42
0.00000001
 43
0.00000001
 40
0.0
 40
0.0
 40
0.0
 40
0.0
 40
0.1191762436674492
 40
0.2364273787594542
 40
0.352663847856404
 40
0.4690860844274175
 40
0.589462907790769
 40
0.7176014692905108
 40
0.8541894668533109
 40
0.9999999999999999
 40
0.9999999999999999
 40
0.9999999999999999
 40
0.9999999999999999
 10
316.7203047565388
 20
93.76336744539924
 30
0.0
 10
316.7584563628325
 20
93.76251113176968
 30
0.0
 10
316.8341432950087
 20
93.76081233693773
 30
0.0
 10
316.9460311923664
 20
93.74454763679034
 30
0.0
 10
317.0553389690698
 20
93.71969834142303
 30
0.0
 10
317.1623337629706
 20
93.68297303956744
 30
0.0
 10
317.2695821310573
 20
93.63642086856906
 30
0.0
 10
317.3773248019673
 20
93.57641400378279
 30
0.0
 10
317.4888111034987
 20
93.50674149559141
 30
0.0
 10
317.5608918622041
 20
93.45219066766975
 30
0.0
 10
317.5981092437183
 20
93.4240244966813
 30
0.0
  0
SPLINE
  5
3BB
330
1F
100
AcDbEntity
  8
0
  6
Continuous
 62
     7
370
    25
100
AcDbSpline
210
0.0
220
0.0
230
1.0
 70
     8
 71
     3
 72
    25
 73
    21
 74
     0
 42
0.00000001
 43
0.00000001
 40
0.0
 40
0.0
 40
0.0
 40
0.0
 40
0.0369764070058821
 40
0.0791948934303651
 40
0.1267046896577451
 40
0.1791893757174642
 40
0.2373756600360407
 40
0.3005674250208779
 40
0.3691640488287348
 40
0.4431254775314259
 40
0.5160336440692205
 40
0.5824903983528192
 40
0.6421557911455164
 40
0.6946404772052349
 40
0.7407013291512952
 40
0.7796120809160727
 40
0.812097798214822
 40
0.8378388636946166
 40
0.9229866473460319
 40
1.0
 40
1.0
 40
1.0
 40
1.0
 10
317.5981092437183
 20
93.4240244966813
 30
0.0
 10
317.6115173782142
 20
93.4133789206657
 30
0.0
 10
317.6402344945727
 20
93.3905785642675
 30
0.0
 10
317.6842677514634
 20
93.35178916655687
 30
0.0
 10
317.7323659489766
 20
93.30683559093012
 30
0.0
 10
317.785429374288
 20
93.25635278679748
 30
0.0
 10
317.8415789064823
 20
93.19867320827571
 30
0.0
 10
317.9031626750382
 20
93.1358721695613
 30
0.0
 10
317.9670304667613
 20
93.06518624329345
 30
0.0
 10
318.034775468476
 20
92.99197274858939
 30
0.0
 10
318.1007107375056
 20
92.91844103307172
 30
0.0
 10
318.1633345869341
 20
92.85085473560508
 30
0.0
 10
318.2187433645254
 20
92.78946404652126
 30
0.0
 10
318.2699953718161
 20
92.7371273865209
 30
0.0
 10
318.3135942484715
 20
92.69076838922574
 30
0.0
 10
318.3517709609808
 20
92.65205194580525
 30
0.0
 10
318.3836147156616
 20
92.62027115518471
 30
0.0
 10
318.4333402493662
 20
92.57629822470139
 30
0.0
 10
318.5009023297967
 20
92.52115822386803
 30
0.0
 10
318.5647716858261
 20
92.48158200262716
 30
0.0
 10
318.595104436026
 20
92.46278651591207
 30
0.0
  0
LINE
  5
3BC
330
1F
100
AcDbEntity
  8
0
  6
Continuous
 62
     7
370
    25
100
AcDbLine
 10
318.595104436
 20
92.4627865159
 30
0.0
 11
318.595104436
 21
93.7633674454
 31
0.0
  0
SPLINE
  5
3BD
330
1F
100
AcDbEntity
  8
0
  6
Continuous
 62
     7
370
    25
100
AcDbSpline
210
0.0
220
0.0
230
1.0
 70
     8
 71
     3
 72
    23
 73
    19
 74
     0
 42
0.00000001
 43
0.00000001
 40
0.0
 40
0.0
 40
0.0
 40
0.0
 40
0.0794277383747635
 40
0.15399769399933
 40
0.2241189499674192
 40
0.2899050271283502
 40
0.3526968565844613
 40
0.4126842950548495
 40
0.4705649759878923
 40
0.527425280072854
 40
0.5837531208169117
 40
0.6399844070010033
 40
0.696615463985304
 40
0.7537516678721113
 40
0.8127258630658218
 40
0.8729762494242103
 40
0.9350413902325088
 40
1.0
 40
1.0
 40
1.0
 40
1.0
 10
316.8240707821798
 20
91.56464949668131
 30
0.0
 10
316.7786295270298
 20
91.57006083887136
 30
0.0
 10
316.6905261937519
 20
91.58055256677098
 30
0.0
 10
316.5639807258534
 20
91.60673654561938
 30
0.0
 10
316.4472321028524
 20
91.63989167060234
 30
0.0
 10
316.340518234882
 20
91.68162347437777
 30
0.0
 10
316.243087099831
 20
91.7301224675268
 30
0.0
 10
316.1565069464451
 20
91.78826146604528
 30
0.0
 10
316.0790966565389
 20
91.85291195488014
 30
0.0
 10
316.0123068534891
 20
91.92572581883219
 30
0.0
 10
315.9549097312704
 20
92.00481875324951
 30
0.0
 10
315.9048227946013
 20
92.08855405378866
 30
0.0
 10
315.8627562349471
 20
92.17713355185211
 30
0.0
 10
315.8283068131246
 20
92.27057142158786
 30
0.0
 10
315.8007049025981
 20
92.36848105085603
 30
0.0
 10
315.7824719152318
 20
92.4713799971316
 30
0.0
 10
315.7696418343967
 20
92.57861525571154
 30
0.0
 10
315.7686755214026
 20
92.65181518293127
 30
0.0
 10
315.7681813591029
 20
92.68924885565566
 30
0.0
  0
LINE
  5
3BE
330
1F
100
AcDbEntity
  8
0
  6
Continuous
 62
     7
370
    25
100
AcDbLine
 10
322.7681813591
 20
31.6415725736
 30
0.0
 11
317.2681813591
 21
31.6415725736
 31
0.0
  0
LINE
  5
3BF
330
1F
100
AcDbEntity
  8
0
  6
Continuous
 62
     7
370
    25
100
AcDbLine
 10
322.7681813591
 20
31.1415725736
 30
0.0
 11
322.7681813591
 21
31.6415725736
 31
0.0
  0
LINE
  5
3C0
330
1F
100
AcDbEntity
  8
0
  6
Continuous
 62
     7
370
    25
100
AcDbLine
 10
317.2681813591
 20
31.6415725736
 30
0.0
 11
317.2681813591
 21
31.1415725736
 31
0.0
  0
LINE
  5
3C1
330
1F
100
AcDbEntity
  8
0
  6
Continuous
 62
     7
370
    25
100
AcDbLine
 10
317.2681813591
 20
31.1415725736
 30
0.0
 11
322.7681813591
 21
31.1415725736
 31
0.0
  0
LINE
  5
3C2
330
1F
100
AcDbEntity
  8
0
  6
Continuous
 62
     7
370
    25
100
AcDbLine
 10
335.7681813591
 20
154.1415725736
 30
0.0
 11
318.7681813591
 21
154.1415725736
 31
0.0
  0
LINE
  5
3C3
330
1F
100
AcDbEntity
  8
0
  6
Continuous
 62
     7
370
    25
100
AcDbLine
 10
335.7681813591
 20
153.6415725736
 30
0.0
 11
335.7681813591
 21
154.1415725736
 31
0.0
  0
LINE
  5
3C4
330
1F
100
AcDbEntity
  8
0
  6
Continuous
 62
     7
370
    25
100
AcDbLine
 10
318.7681813591
 20
153.6415725736
 30
0.0
 11
335.7681813591
 21
153.6415725736
 31
0.0
  0
LINE
  5
3C5
330
1F
100
AcDbEntity
  8
0
  6
Continuous
 62
     7
370
    25
100
AcDbLine
 10
318.7681813591
 20
154.1415725736
 30
0.0
 11
318.7681813591
 21
153.6415725736
 31
0.0
  0
LINE
  5
3C6
330
1F
100
AcDbEntity
  8
0
  6
Continuous
 62
     7
370
    25
100
AcDbLine
 10
321.0181813591
 20
149.6415725736
 30
0.0
 11
321.7681813591
 21
149.6415725736
 31
0.0
  0
LINE
  5
3C7
330
1F
100
AcDbEntity
  8
0
  6
Continuous
 62
     7
370
    25
100
AcDbLine
 10
321.0181813591
 20
136.8915725736
 30
0.0
 11
321.0181813591
 21
149.6415725736
 31
0.0
  0
LINE
  5
3C8
330
1F
100
AcDbEntity
  8
0
  6
Continuous
 62
     7
370
    25
100
AcDbLine
 10
320.5181813591
 20
136.8915725736
 30
0.0
 11
321.0181813591
 21
136.8915725736
 31
0.0
  0
LINE
  5
3C9
330
1F
100
AcDbEntity
  8
0
  6
Continuous
 62
     7
370
    25
100
AcDbLine
 10
320.5181813591
 20
149.6415725736
 30
0.0
 11
320.5181813591
 21
136.8915725736
 31
0.0
  0
LINE
  5
3CA
330
1F
100
AcDbEntity
  8
0
  6
Continuous
 62
     7
370
    25
100
AcDbLine
 10
319.7681813591
 20
149.6415725736
 30
0.0
 11
320.5181813591
 21
149.6415725736
 31
0.0
  0
LINE
  5
3CB
330
1F
100
AcDbEntity
  8
0
  6
Continuous
 62
     7
370
    25
100
AcDbLine
 10
320.7681813591
 20
152.6415725736
 30
0.0
 11
319.7681813591
 21
149.6415725736
 31
0.0
  0
LINE
  5
3CC
330
1F
100
AcDbEntity
  8
0
  6
Continuous
 62
     7
370
    25
100
AcDbLine
 10
321.7681813591
 20
149.6415725736
 30
0.0
 11
320.7681813591
 21
152.6415725736
 31
0.0
  0
LINE
  5
3CD
330
1F
100
AcDbEntity
  8
0
  6
Continuous
 62
     7
370
    25
100
AcDbLine
 10
321.0181813591
 20
35.6415725736
 30
0.0
 11
321.0181813591
 21
69.3915725736
 31
0.0
  0
LINE
  5
3CE
330
1F
100
AcDbEntity
  8
0
  6
Continuous
 62
     7
370
    25
100
AcDbLine
 10
321.7681813591
 20
35.6415725736
 30
0.0
 11
321.0181813591
 21
35.6415725736
 31
0.0
  0
LINE
  5
3CF
330
1F
100
AcDbEntity
  8
0
  6
Continuous
 62
     7
370
    25
100
AcDbLine
 10
320.7681813591
 20
32.6415725736
 30
0.0
 11
321.7681813591
 21
35.6415725736
 31
0.0
  0
LINE
  5
3D0
330
1F
100
AcDbEntity
  8
0
  6
Continuous
 62
     7
370
    25
100
AcDbLine
 10
320.5181813591
 20
69.3915725736
 30
0.0
 11
320.5181813591
 21
35.6415725736
 31
0.0
  0
LINE
  5
3D1
330
1F
100
AcDbEntity
  8
0
  6
Continuous
 62
     7
370
    25
100
AcDbLine
 10
321.0181813591
 20
69.3915725736
 30
0.0
 11
320.5181813591
 21
69.3915725736
 31
0.0
  0
LINE
  5
3D2
330
1F
100
AcDbEntity
  8
0
  6
Continuous
 62
     7
370
    25
100
AcDbLine
 10
319.7681813591
 20
35.6415725736
 30
0.0
 11
320.7681813591
 21
32.6415725736
 31
0.0
  0
LINE
  5
3D3
330
1F
100
AcDbEntity
  8
0
  6
Continuous
 62
     7
370
    25
100
AcDbLine
 10
320.5181813591
 20
35.6415725736
 30
0.0
 11
319.7681813591
 21
35.6415725736
 31
0.0
  0
LINE
  5
3D4
330
1F
100
AcDbEntity
  8
0
  6
Continuous
 62
     7
370
    25
100
AcDbLine
 10
321.0181813591
 20
115.8915725736
 30
0.0
 11
321.0181813591
 21
134.8915725736
 31
0.0
  0
LINE
  5
3D5
330
1F
100
AcDbEntity
  8
0
  6
Continuous
 62
     7
370
    25
100
AcDbLine
 10
320.5181813591
 20
115.8915725736
 30
0.0
 11
321.0181813591
 21
115.8915725736
 31
0.0
  0
LINE
  5
3D6
330
1F
100
AcDbEntity
  8
0
  6
Continuous
 62
     7
370
    25
100
AcDbLine
 10
321.0181813591
 20
134.8915725736
 30
0.0
 11
320.5181813591
 21
134.8915725736
 31
0.0
  0
LINE
  5
3D7
330
1F
100
AcDbEntity
  8
0
  6
Continuous
 62
     7
370
    25
100
AcDbLine
 10
320.5181813591
 20
134.8915725736
 30
0.0
 11
320.5181813591
 21
115.8915725736
 31
0.0
  0
LINE
  5
3D8
330
1F
100
AcDbEntity
  8
0
  6
Continuous
 62
     7
370
    25
100
AcDbLine
 10
321.0181813591
 20
82.6415725736
 30
0.0
 11
321.0181813591
 21
102.6415725736
 31
0.0
  0
LINE
  5
3D9
330
1F
100
AcDbEntity
  8
0
  6
Continuous
 62
     7
370
    25
100
AcDbLine
 10
321.0181813591
 20
102.6415725736
 30
0.0
 11
320.5181813591
 21
102.6415725736
 31
0.0
  0
LINE
  5
3DA
330
1F
100
AcDbEntity
  8
0
  6
Continuous
 62
     7
370
    25
100
AcDbLine
 10
320.5181813591
 20
82.6415725736
 30
0.0
 11
321.0181813591
 21
82.6415725736
 31
0.0
  0
LINE
  5
3DB
330
1F
100
AcDbEntity
  8
0
  6
Continuous
 62
     7
370
    25
100
AcDbLine
 10
320.5181813591
 20
102.6415725736
 30
0.0
 11
320.5181813591
 21
82.6415725736
 31
0.0
  0
SPLINE
  5
3DC
330
1F
100
AcDbEntity
  8
0
  6
Continuous
 62
     7
370
    25
100
AcDbSpline
210
0.0
220
0.0
230
1.0
 70
     8
 71
     3
 72
    15
 73
    11
 74
     0
 42
0.00000001
 43
0.00000001
 40
0.0
 40
0.0
 40
0.0
 40
0.0
 40
0.158289867492343
 40
0.3004564688815939
 40
0.4309052803870415
 40
0.5536134903141897
 40
0.6685453581737708
 40
0.7789529920314792
 40
0.8869019756104793
 40
1.0
 40
1.0
 40
1.0
 40
1.0
 10
324.5168993078208
 20
138.4684956505275
 30
0.0
 10
324.5227120254979
 20
138.42710957863
 30
0.0
 10
324.5337453825633
 20
138.3485529835667
 30
0.0
 10
324.5681478304531
 20
138.2398206876075
 30
0.0
 10
324.6130585059189
 20
138.1452001789329
 30
0.0
 10
324.672517987022
 20
138.0676726033213
 30
0.0
 10
324.741263155908
 20
138.0060133752577
 30
0.0
 10
324.8179299121693
 20
137.9620172723608
 30
0.0
 10
324.9018247675111
 20
137.934272492706
 30
0.0
 10
324.9602588831311
 20
137.931468676194
 30
0.0
 10
324.9901565193593
 20
137.930034112066
 30
0.0
  0
SPLINE
  5
3DD
330
1F
100
AcDbEntity
  8
0
  6
Continuous
 62
     7
370
    25
100
AcDbSpline
210
0.0
220
0.0
230
1.0
 70
     8
 71
     3
 72
    23
 73
    19
 74
     0
 42
0.00000001
 43
0.00000001
 40
0.0
 40
0.0
 40
0.0
 40
0.0
 40
0.0594850524583287
 40
0.117830595757898
 40
0.1748645467675663
 40
0.2313233068588292
 40
0.2875648537771769
 40
0.3441810636561516
 40
0.4028499236817961
 40
0.4637522190980704
 40
0.5256272728085237
 40
0.5872620807904974
 40
0.6504421584534599
 40
0.7150617611836808
 40
0.7821428128071739
 40
0.8514002647807353
 40
0.9241625797277093
 40
1.0
 40
1.0
 40
1.0
 40
1.0
 10
324.9901565193593
 20
137.930034112066
 30
0.0
 10
325.0063079754951
 20
137.9303809560405
 30
0.0
 10
325.0383014868091
 20
137.9310679997677
 30
0.0
 10
325.0853327662082
 20
137.938276437158
 30
0.0
 10
325.1305224471668
 20
137.9501253920643
 30
0.0
 10
325.1734246672409
 20
137.9671751551722
 30
0.0
 10
325.2142442335073
 20
137.9883597179456
 30
0.0
 10
325.2535186731524
 20
138.0135876505259
 30
0.0
 10
325.2895981428914
 20
138.0450962889153
 30
0.0
 10
325.3248233588869
 20
138.0795700774162
 30
0.0
 10
325.356082615087
 20
138.1188127836269
 30
0.0
 10
325.383618297202
 20
138.1613894736177
 30
0.0
 10
325.4077891587399
 20
138.2068778499223
 30
0.0
 10
325.4265240537212
 20
138.2564507732013
 30
0.0
 10
325.4411892725534
 20
138.3090344271063
 30
0.0
 10
325.4516735010892
 20
138.3648570671811
 30
0.0
 10
325.4580541936755
 20
138.4237082718597
 30
0.0
 10
325.4588174662865
 20
138.4640388596899
 30
0.0
 10
325.4592070001285
 20
138.4846214518095
 30
0.0
  0
SPLINE
  5
3DE
330
1F
100
AcDbEntity
  8
0
  6
Continuous
 62
     7
370
    25
100
AcDbSpline
210
0.0
220
0.0
230
1.0
 70
     8
 71
     3
 72
    15
 73
    11
 74
     0
 42
0.00000001
 43
0.00000001
 40
0.0
 40
0.0
 40
0.0
 40
0.0
 40
0.1551891076953969
 40
0.2960401486453899
 40
0.4267637504064307
 40
0.5519118562685752
 40
0.6708037237520331
 40
0.78067458907379
 40
0.8891194926079632
 40
1.0
 40
1.0
 40
1.0
 40
1.0
 10
325.4592070001285
 20
138.4846214518095
 30
0.0
 10
325.4577479211912
 20
138.5228215154156
 30
0.0
 10
325.4549645689838
 20
138.5956923030382
 30
0.0
 10
325.4334567195864
 20
138.6990762201439
 30
0.0
 10
325.3961582661668
 20
138.7899548784598
 30
0.0
 10
325.3439013054037
 20
138.8666979590938
 30
0.0
 10
325.2818051657249
 20
138.9284320056132
 30
0.0
 10
325.2122446934134
 20
138.9748362665393
 30
0.0
 10
325.1345624537782
 20
139.0014951655323
 30
0.0
 10
325.080559040762
 20
139.0051230851809
 30
0.0
 10
325.0532574808977
 20
139.006957188989
 30
0.0
  0
SPLINE
  5
3DF
330
1F
100
AcDbEntity
  8
0
  6
Continuous
 62
     7
370
    25
100
AcDbSpline
210
0.0
220
0.0
230
1.0
 70
     8
 71
     3
 72
    11
 73
     7
 74
     0
 42
0.00000001
 43
0.00000001
 40
0.0
 40
0.0
 40
0.0
 40
0.0
 40
0.2136313786717145
 40
0.4528759807056848
 40
0.713602585813261
 40
1.0
 40
1.0
 40
1.0
 40
1.0
 10
325.0532574808977
 20
139.006957188989
 30
0.0
 10
325.0338204672536
 20
139.0064598309869
 30
0.0
 10
324.992616049294
 20
139.005405484503
 30
0.0
 10
324.9285248082238
 20
138.9944507034752
 30
0.0
 10
324.8586330320061
 20
138.9793326112915
 30
0.0
 10
324.8110420445017
 20
138.9647900088867
 30
0.0
 10
324.7861300770516
 20
138.9571775415531
 30
0.0
  0
LINE
  5
3E0
330
1F
100
AcDbEntity
  8
0
  6
Continuous
 62
     7
370
    25
100
AcDbLine
 10
324.7861300771
 20
138.9571775416
 30
0.0
 11
324.8492310386
 21
139.5005469326
 31
0.0
  0
SPLINE
  5
3E1
330
1F
100
AcDbEntity
  8
0
  6
Continuous
 62
     7
370
    25
100
AcDbSpline
210
0.0
220
0.0
230
1.0
 70
     8
 71
     3
 72
    19
 73
    15
 74
     0
 42
0.00000001
 43
0.00000001
 40
0.0
 40
0.0
 40
0.0
 40
0.0
 40
0.0763957990769137
 40
0.1482456825776819
 40
0.2170085330069071
 40
0.2814161838437022
 40
0.3436711434799023
 40
0.4026077297746896
 40
0.4616756899906981
 40
0.5198883364384488
 40
0.6353224899631444
 40
0.7502102534132745
 40
0.8706548390889076
 40
1.0
 40
1.0
 40
1.0
 40
1.0
 10
324.8492310385901
 20
139.5005469325788
 30
0.0
 10
324.8679353982501
 20
139.500226075229
 30
0.0
 10
324.9042311186757
 20
139.499603453077
 30
0.0
 10
324.957233758518
 20
139.503997859324
 30
0.0
 10
325.006845863733
 20
139.5120210634001
 30
0.0
 10
325.0529516731931
 20
139.5250386679676
 30
0.0
 10
325.0955941164652
 20
139.5408316808803
 30
0.0
 10
325.1351461363676
 20
139.5606744249733
 30
0.0
 10
325.1706401153162
 20
139.5853676957403
 30
0.0
 10
325.2138563354841
 20
139.6226420574608
 30
0.0
 10
325.2580704359466
 20
139.6784954564263
 30
0.0
 10
325.2980427801165
 20
139.7550830128895
 30
0.0
 10
325.320314569095
 20
139.842409019889
 30
0.0
 10
325.3231324640442
 20
139.9035715173916
 30
0.0
 10
325.3245916155132
 20
139.9352424453993
 30
0.0
  0
SPLINE
  5
3E2
330
1F
100
AcDbEntity
  8
0
  6
Continuous
 62
     7
370
    25
100
AcDbSpline
210
0.0
220
0.0
230
1.0
 70
     8
 71
     3
 72
    15
 73
    11
 74
     0
 42
0.00000001
 43
0.00000001
 40
0.0
 40
0.0
 40
0.0
 40
0.0
 40
0.143371100535481
 40
0.2749037179736916
 40
0.3990371425867167
 40
0.5191877860943129
 40
0.6363136468940074
 40
0.7521647749624721
 40
0.8714108513940201
 40
1.0
 40
1.0
 40
1.0
 40
1.0
 10
325.3245916155132
 20
139.9352424453993
 30
0.0
 10
325.323607855214
 20
139.9622111512168
 30
0.0
 10
325.321721565977
 20
140.0139216944887
 30
0.0
 10
325.3048002740031
 20
140.0875034046112
 30
0.0
 10
325.2759191462265
 20
140.1524669489423
 30
0.0
 10
325.2355210445517
 20
140.207684684972
 30
0.0
 10
325.1859661267721
 20
140.2525231769595
 30
0.0
 10
325.1280442114593
 20
140.2856555559226
 30
0.0
 10
325.0617003672365
 20
140.304976146779
 30
0.0
 10
325.0150580024211
 20
140.3071245451468
 30
0.0
 10
324.9908576411542
 20
140.3082392402711
 30
0.0
  0
SPLINE
  5
3E3
330
1F
100
AcDbEntity
  8
0
  6
Continuous
 62
     7
370
    25
100
AcDbSpline
210
0.0
220
0.0
230
1.0
 70
     8
 71
     3
 72
    15
 73
    11
 74
     0
 42
0.00000001
 43
0.00000001
 40
0.0
 40
0.0
 40
0.0
 40
0.0
 40
0.1112445267597478
 40
0.2186681940362447
 40
0.3280057699508664
 40
0.4429090160362699
 40
0.5650280044203748
 40
0.6953192066560051
 40
0.8398843030466753
 40
0.9999999999999999
 40
0.9999999999999999
 40
0.9999999999999999
 40
0.9999999999999999
 10
324.9908576411542
 20
140.3082392402711
 30
0.0
 10
324.9665962984749
 20
140.3070399288043
 30
0.0
 10
324.9189069051799
 20
140.304682498015
 30
0.0
 10
324.8506668439862
 20
140.2813637692753
 30
0.0
 10
324.7877117284714
 20
140.2452841087904
 30
0.0
 10
324.7321583619251
 20
140.1936146796842
 30
0.0
 10
324.6840090548825
 20
140.1293511743675
 30
0.0
 10
324.6466968183434
 20
140.0509769226138
 30
0.0
 10
324.6204197576797
 20
139.9597198105721
 30
0.0
 10
324.6113888274611
 20
139.8940382383058
 30
0.0
 10
324.6066428975644
 20
139.8595212915531
 30
0.0
  0
LINE
  5
3E4
330
1F
100
AcDbEntity
  8
0
  6
Continuous
 62
     7
370
    25
100
AcDbLine
 10
324.6066428976
 20
139.8595212916
 30
0.0
 11
323.9335659745
 21
139.96048283
 31
0.0
  0
SPLINE
  5
3E5
330
1F
100
AcDbEntity
  8
0
  6
Continuous
 62
     7
370
    25
100
AcDbSpline
210
0.0
220
0.0
230
1.0
 70
     8
 71
     3
 72
    19
 73
    15
 74
     0
 42
0.00000001
 43
0.00000001
 40
0.0
 40
0.0
 40
0.0
 40
0.0
 40
0.1017340290565209
 40
0.1947417213437009
 40
0.2792788916351178
 40
0.3566660711123614
 40
0.4309560396784032
 40
0.5058196632789111
 40
0.5820998940514596
 40
0.6615079801926976
 40
0.7432594774158033
 40
0.8260386158600269
 40
0.9112078215062793
 40
1.0
 40
1.0
 40
1.0
 40
1.0
 10
323.9335659744875
 20
139.9604828300147
 30
0.0
 10
323.9446642806528
 20
140.0118707803469
 30
0.0
 10
323.9659089248165
 20
140.1102388288437
 30
0.0
 10
324.0093149548237
 20
140.2480598762068
 30
0.0
 10
324.0602454680074
 20
140.3697240589294
 30
0.0
 10
324.119750241086
 20
140.4765947861849
 30
0.0
 10
324.1902348950205
 20
140.5705537376634
 30
0.0
 10
324.273921750717
 20
140.6521100152355
 30
0.0
 10
324.3695587106158
 20
140.723630188217
 30
0.0
 10
324.4769631589101
 20
140.7835578216672
 30
0.0
 10
324.5937428988069
 20
140.831590214341
 30
0.0
 10
324.7180247861749
 20
140.8671402351018
 30
0.0
 10
324.8494918482899
 20
140.8875135859164
 30
0.0
 10
324.9393724337971
 20
140.8902009219484
 30
0.0
 10
324.9852486667952
 20
140.8915725736044
 30
0.0
  0
SPLINE
  5
3E6
330
1F
100
AcDbEntity
  8
0
  6
Continuous
 62
     7
370
    25
100
AcDbSpline
210
0.0
220
0.0
230
1.0
 70
     8
 71
     3
 72
    15
 73
    11
 74
     0
 42
0.00000001
 43
0.00000001
 40
0.0
 40
0.0
 40
0.0
 40
0.0
 40
0.1371223374139015
 40
0.2679123640023179
 40
0.3935226983663871
 40
0.5160237818867056
 40
0.6367751505916602
 40
0.7569302398618508
 40
0.8771627914374645
 40
0.9999999999999999
 40
0.9999999999999999
 40
0.9999999999999999
 40
0.9999999999999999
 10
324.9852486667952
 20
140.8915725736044
 30
0.0
 10
325.0245599396515
 20
140.8906780428706
 30
0.0
 10
325.1013670904155
 20
140.8889302908408
 30
0.0
 10
325.2133701194972
 20
140.8738912326841
 30
0.0
 10
325.3193440504189
 20
140.8494601154987
 30
0.0
 10
325.419436611456
 20
140.8149006058172
 30
0.0
 10
325.5141117985531
 20
140.770898363651
 30
0.0
 10
325.6017890956554
 20
140.7155361801139
 30
0.0
 10
325.6843078218257
 20
140.6516333803373
 30
0.0
 10
325.733184614467
 20
140.6019013560167
 30
0.0
 10
325.7578848847439
 20
140.576768887707
 30
0.0
  0
SPLINE
  5
3E7
330
1F
100
AcDbEntity
  8
0
  6
Continuous
 62
     7
370
    25
100
AcDbSpline
210
0.0
220
0.0
230
1.0
 70
     8
 71
     3
 72
    15
 73
    11
 74
     0
 42
0.00000001
 43
0.00000001
 40
0.0
 40
0.0
 40
0.0
 40
0.0
 40
0.1331978343624764
 40
0.2630795403811855
 40
0.3876611031449297
 40
0.5115071050662605
 40
0.6323856124295698
 40
0.7532592432015554
 40
0.8761016530293189
 40
1.0
 40
1.0
 40
1.0
 40
1.0
 10
325.7578848847439
 20
140.576768887707
 30
0.0
 10
325.7769642789666
 20
140.5553522772386
 30
0.0
 10
325.8146480617915
 20
140.5130522498732
 30
0.0
 10
325.8635753785734
 20
140.4452342082434
 30
0.0
 10
325.9045249099705
 20
140.3747651423578
 30
0.0
 10
325.9392607017151
 20
140.3031154185086
 30
0.0
 10
325.9650923872888
 20
140.2286235560487
 30
0.0
 10
325.9843501151666
 20
140.1524588889401
 30
0.0
 10
325.9957885252235
 20
140.0739465508458
 30
0.0
 10
325.9970400821049
 20
140.0208157595245
 30
0.0
 10
325.9976685385901
 20
139.9941366761685
 30
0.0
  0
SPLINE
  5
3E8
330
1F
100
AcDbEntity
  8
0
  6
Continuous
 62
     7
370
    25
100
AcDbSpline
210
0.0
220
0.0
230
1.0
 70
     8
 71
     3
 72
    15
 73
    11
 74
     0
 42
0.00000001
 43
0.00000001
 40
0.0
 40
0.0
 40
0.0
 40
0.0
 40
0.1196964719965266
 40
0.2359437583202418
 40
0.3505624285330343
 40
0.4675738794453407
 40
0.5886790971730637
 40
0.7164321348375419
 40
0.8533140436686085
 40
1.0
 40
1.0
 40
1.0
 40
1.0
 10
325.9976685385901
 20
139.9941366761685
 30
0.0
 10
325.9962976582901
 20
139.9566107508817
 30
0.0
 10
325.9935954011158
 20
139.8826402511759
 30
0.0
 10
325.9687988985606
 20
139.7750351343191
 30
0.0
 10
325.9289441826264
 20
139.6733144967425
 30
0.0
 10
325.8738365207302
 20
139.5770897647228
 30
0.0
 10
325.8019889301995
 20
139.4872538675947
 30
0.0
 10
325.7135419164082
 20
139.404615135657
 30
0.0
 10
325.6110944265717
 20
139.3260200349172
 30
0.0
 10
325.5340942674169
 20
139.281624924598
 30
0.0
 10
325.4942630898721
 20
139.258659913348
 30
0.0
  0
SPLINE
  5
3E9
330
1F
100
AcDbEntity
  8
0
  6
Continuous
 62
     7
370
    25
100
AcDbSpline
210
0.0
220
0.0
230
1.0
 70
     8
 71
     3
 72
    23
 73
    19
 74
     0
 42
0.00000001
 43
0.00000001
 40
0.0
 40
0.0
 40
0.0
 40
0.0
 40
0.0648363736258121
 40
0.1279449161034036
 40
0.1894280196116074
 40
0.2503554464126864
 40
0.310359265353938
 40
0.3704596207746337
 40
0.4311232293228708
 40
0.4928228177782759
 40
0.554756857699506
 40
0.61638123330072
 40
0.6775618660834156
 40
0.7393365758188234
 40
0.8019316697439366
 40
0.8659401578582658
 40
0.9321916958894019
 40
1.0
 40
1.0
 40
1.0
 40
1.0
 10
325.4942630898721
 20
139.258659913348
 30
0.0
 10
325.5179646650166
 20
139.2529472979561
 30
0.0
 10
325.564736189607
 20
139.2416743032438
 30
0.0
 10
325.6323032901538
 20
139.2186922390801
 30
0.0
 10
325.6955801757038
 20
139.1892124526534
 30
0.0
 10
325.7561166116701
 20
139.1568211171067
 30
0.0
 10
325.8124103188263
 20
139.1184115771844
 30
0.0
 10
325.8655524682654
 20
139.0758512830515
 30
0.0
 10
325.913510692339
 20
139.0266821619844
 30
0.0
 10
325.9594654119961
 20
138.9747348387785
 30
0.0
 10
325.9996357092153
 20
138.9177247589123
 30
0.0
 10
326.0359321668505
 20
138.8583996639078
 30
0.0
 10
326.0650862172133
 20
138.7953120879574
 30
0.0
 10
326.0900217237732
 20
138.7300841232006
 30
0.0
 10
326.1086017254629
 20
138.6616614675734
 30
0.0
 10
326.123151142653
 20
138.5905560315435
 30
0.0
 10
326.1304437924464
 20
138.5163252344417
 30
0.0
 10
326.1316658160478
 20
138.4659373067583
 30
0.0
 10
326.1322839232054
 20
138.4404507787326
 30
0.0
  0
SPLINE
  5
3EA
330
1F
100
AcDbEntity
  8
0
  6
Continuous
 62
     7
370
    25
100
AcDbSpline
210
0.0
220
0.0
230
1.0
 70
     8
 71
     3
 72
    23
 73
    19
 74
     0
 42
0.00000001
 43
0.00000001
 40
0.0
 40
0.0
 40
0.0
 40
0.0
 40
0.0629075118173217
 40
0.1240620716016142
 40
0.1839778251218928
 40
0.2432433840714772
 40
0.3028139496866603
 40
0.3630210379278943
 40
0.4246932892410764
 40
0.4884396049175381
 40
0.552580509798741
 40
0.6148866190330108
 40
0.677395504979019
 40
0.7393205642850744
 40
0.8021920547778542
 40
0.8657714949961198
 40
0.9319586810728181
 40
1.0
 40
1.0
 40
1.0
 40
1.0
 10
326.1322839232054
 20
138.4404507787326
 30
0.0
 10
326.1314984929838
 20
138.4032263745352
 30
0.0
 10
326.129949518981
 20
138.3298148444103
 30
0.0
 10
326.1129359321131
 20
138.2220730420269
 30
0.0
 10
326.0870870848664
 20
138.1185260916533
 30
0.0
 10
326.051465080327
 20
138.0187556693085
 30
0.0
 10
326.0038254034762
 20
137.9239824708698
 30
0.0
 10
325.9468585320037
 20
137.8328769139853
 30
0.0
 10
325.8790128065549
 20
137.7463465087175
 30
0.0
 10
325.801646901908
 20
137.6650469977577
 30
0.0
 10
325.717111050951
 20
137.5906349977827
 30
0.0
 10
325.6262775563198
 20
137.5252742016279
 30
0.0
 10
325.5304921973757
 20
137.4699545270301
 30
0.0
 10
325.429206147281
 20
137.424720392516
 30
0.0
 10
325.323300154254
 20
137.3895251569074
 30
0.0
 10
325.2118625199804
 20
137.3653356941516
 30
0.0
 10
325.0957971852383
 20
137.3491975889478
 30
0.0
 10
325.0163874198892
 20
137.347540677917
 30
0.0
 10
324.9761340834619
 20
137.3467007787326
 30
0.0
  0
SPLINE
  5
3EB
330
1F
100
AcDbEntity
  8
0
  6
Continuous
 62
     7
370
    25
100
AcDbSpline
210
0.0
220
0.0
230
1.0
 70
     8
 71
     3
 72
    23
 73
    19
 74
     0
 42
0.00000001
 43
0.00000001
 40
0.0
 40
0.0
 40
0.0
 40
0.0
 40
0.0673455133324348
 40
0.1322824462207192
 40
0.1952047908892198
 40
0.2567077343438464
 40
0.3172116539569621
 40
0.3772857804954439
 40
0.4378685399479041
 40
0.4990881094029326
 40
0.5604008922052841
 40
0.6212069433372172
 40
0.6816699947735254
 40
0.7426314439894792
 40
0.8044371517266027
 40
0.867639281794357
 40
0.932442191206479
 40
1.0
 40
1.0
 40
1.0
 40
1.0
 10
324.9761340834619
 20
137.3467007787326
 30
0.0
 10
324.9379882550675
 20
137.3473402966164
 30
0.0
 10
324.8630608657965
 20
137.3485964603292
 30
0.0
 10
324.7533734109585
 20
137.3634777565129
 30
0.0
 10
324.648317317965
 20
137.3853698938596
 30
0.0
 10
324.5485057829667
 20
137.4173957357266
 30
0.0
 10
324.4530693681693
 20
137.45684259831
 30
0.0
 10
324.363809400379
 20
137.5076935210714
 30
0.0
 10
324.2784281940763
 20
137.5654898117207
 30
0.0
 10
324.1997152344093
 20
137.6331935513176
 30
0.0
 10
324.1265292071825
 20
137.7069836996754
 30
0.0
 10
324.0622440473181
 20
137.7881322539354
 30
0.0
 10
324.0049574008273
 20
137.8740492315848
 30
0.0
 10
323.9556854021513
 20
137.9654963489354
 30
0.0
 10
323.9148409527924
 20
138.0627112367415
 30
0.0
 10
323.883037898232
 20
138.1654429626998
 30
0.0
 10
323.8576743497835
 20
138.2733769341112
 30
0.0
 10
323.8485033336265
 20
138.3477849317784
 30
0.0
 10
323.8438223847439
 20
138.3857632787326
 30
0.0
  0
LINE
  5
3EC
330
1F
100
AcDbEntity
  8
0
  6
Continuous
 62
     7
370
    25
100
AcDbLine
 10
323.8438223847
 20
138.3857632787
 30
0.0
 11
324.5168993078
 21
138.4684956505
 31
0.0
  0
LINE
  5
3ED
330
1F
100
AcDbEntity
  8
0
  6
Continuous
 62
     7
370
    25
100
AcDbLine
 10
328.1604890514
 20
138.6928546249
 30
0.0
 11
328.1604890514
 21
139.858119048
 31
0.0
  0
LINE
  5
3EE
330
1F
100
AcDbEntity
  8
0
  6
Continuous
 62
     7
370
    25
100
AcDbLine
 10
328.1604890514
 20
139.858119048
 30
0.0
 11
327.3598079617
 21
138.6928546249
 31
0.0
  0
LINE
  5
3EF
330
1F
100
AcDbEntity
  8
0
  6
Continuous
 62
     7
370
    25
100
AcDbLine
 10
327.3598079617
 20
138.6928546249
 30
0.0
 11
328.1604890514
 21
138.6928546249
 31
0.0
  0
LINE
  5
3F0
330
1F
100
AcDbEntity
  8
0
  6
Continuous
 62
     7
370
    25
100
AcDbLine
 10
328.1604890514
 20
137.3915725736
 30
0.0
 11
328.1604890514
 21
138.1095212916
 31
0.0
  0
LINE
  5
3F1
330
1F
100
AcDbEntity
  8
0
  6
Continuous
 62
     7
370
    25
100
AcDbLine
 10
328.1604890514
 20
138.1095212916
 30
0.0
 11
326.7694634104
 21
138.1095212916
 31
0.0
  0
LINE
  5
3F2
330
1F
100
AcDbEntity
  8
0
  6
Continuous
 62
     7
370
    25
100
AcDbLine
 10
326.7694634104
 20
138.1095212916
 30
0.0
 11
326.7694634104
 21
138.6907512595
 31
0.0
  0
LINE
  5
3F3
330
1F
100
AcDbEntity
  8
0
  6
Continuous
 62
     7
370
    25
100
AcDbLine
 10
326.7694634104
 20
138.6907512595
 30
0.0
 11
328.2495315194
 21
140.8467007787
 31
0.0
  0
LINE
  5
3F4
330
1F
100
AcDbEntity
  8
0
  6
Continuous
 62
     7
370
    25
100
AcDbLine
 10
328.2495315194
 20
140.8467007787
 30
0.0
 11
328.8335659745
 21
140.8467007787
 31
0.0
  0
LINE
  5
3F5
330
1F
100
AcDbEntity
  8
0
  6
Continuous
 62
     7
370
    25
100
AcDbLine
 10
328.8335659745
 20
140.8467007787
 30
0.0
 11
328.8335659745
 21
138.6928546249
 31
0.0
  0
LINE
  5
3F6
330
1F
100
AcDbEntity
  8
0
  6
Continuous
 62
     7
370
    25
100
AcDbLine
 10
328.8335659745
 20
138.6928546249
 30
0.0
 11
329.2822839232
 21
138.6928546249
 31
0.0
  0
LINE
  5
3F7
330
1F
100
AcDbEntity
  8
0
  6
Continuous
 62
     7
370
    25
100
AcDbLine
 10
329.2822839232
 20
138.6928546249
 30
0.0
 11
329.2822839232
 21
138.1095212916
 31
0.0
  0
LINE
  5
3F8
330
1F
100
AcDbEntity
  8
0
  6
Continuous
 62
     7
370
    25
100
AcDbLine
 10
329.2822839232
 20
138.1095212916
 30
0.0
 11
328.8335659745
 21
138.1095212916
 31
0.0
  0
LINE
  5
3F9
330
1F
100
AcDbEntity
  8
0
  6
Continuous
 62
     7
370
    25
100
AcDbLine
 10
328.8335659745
 20
138.1095212916
 30
0.0
 11
328.8335659745
 21
137.3915725736
 31
0.0
  0
LINE
  5
3FA
330
1F
100
AcDbEntity
  8
0
  6
Continuous
 62
     7
370
    25
100
AcDbLine
 10
328.8335659745
 20
137.3915725736
 30
0.0
 11
328.1604890514
 21
137.3915725736
 31
0.0
  0
LINE
  5
3FB
330
1F
100
AcDbEntity
  8
0
  6
Continuous
 62
     7
370
    25
100
AcDbLine
 10
344.0181813591
 20
145.8915725736
 30
0.0
 11
343.5181813591
 21
145.8915725736
 31
0.0
  0
LINE
  5
3FC
330
1F
100
AcDbEntity
  8
0
  6
Continuous
 62
     7
370
    25
100
AcDbLine
 10
344.0181813591
 20
133.8915725736
 30
0.0
 11
344.0181813591
 21
145.8915725736
 31
0.0
  0
LINE
  5
3FD
330
1F
100
AcDbEntity
  8
0
  6
Continuous
 62
     7
370
    25
100
AcDbLine
 10
343.5181813591
 20
145.8915725736
 30
0.0
 11
343.5181813591
 21
133.8915725736
 31
0.0
  0
LINE
  5
3FE
330
1F
100
AcDbEntity
  8
0
  6
Continuous
 62
     7
370
    25
100
AcDbLine
 10
343.5181813591
 20
133.8915725736
 30
0.0
 11
344.0181813591
 21
133.8915725736
 31
0.0
  0
CIRCLE
  5
3FF
330
1F
100
AcDbEntity
  8
0
  6
Continuous
 62
     7
370
    25
100
AcDbCircle
 10
326.5181813591
 20
92.6415725736
 30
0.0
 40
4.973817402607665
  0
LINE
  5
400
330
1F
100
AcDbEntity
  8
0
  6
Continuous
 62
     7
370
    25
100
AcDbLine
 10
322.4395696902
 20
144.4031714308
 30
0.0
 11
322.4395696902
 21
149.6799737164
 31
0.0
  0
LINE
  5
401
330
1F
100
AcDbEntity
  8
0
  6
Continuous
 62
     7
370
    25
100
AcDbLine
 10
330.596793028
 20
144.4031714308
 30
0.0
 11
322.4395696902
 21
144.4031714308
 31
0.0
  0
LINE
  5
402
330
1F
100
AcDbEntity
  8
0
  6
Continuous
 62
     7
370
    25
100
AcDbLine
 10
330.596793028
 20
149.6799737164
 30
0.0
 11
330.596793028
 21
144.4031714308
 31
0.0
  0
LINE
  5
403
330
1F
100
AcDbEntity
  8
0
  6
Continuous
 62
     7
370
    25
100
AcDbLine
 10
322.4395696902
 20
149.6799737164
 30
0.0
 11
330.596793028
 21
149.6799737164
 31
0.0
  0
LINE
  5
404
330
1F
100
AcDbEntity
  8
0
  6
Continuous
 62
     7
370
    25
100
AcDbLine
 10
330.596793028
 20
40.8799737164
 30
0.0
 11
330.596793028
 21
35.6031714308
 31
0.0
  0
LINE
  5
405
330
1F
100
AcDbEntity
  8
0
  6
Continuous
 62
     7
370
    25
100
AcDbLine
 10
322.4395696902
 20
40.8799737164
 30
0.0
 11
330.596793028
 21
40.8799737164
 31
0.0
  0
LINE
  5
406
330
1F
100
AcDbEntity
  8
0
  6
Continuous
 62
     7
370
    25
100
AcDbLine
 10
322.4395696902
 20
35.6031714308
 30
0.0
 11
322.4395696902
 21
40.8799737164
 31
0.0
  0
LINE
  5
407
330
1F
100
AcDbEntity
  8
0
  6
Continuous
 62
     7
370
    25
100
AcDbLine
 10
330.596793028
 20
35.6031714308
 30
0.0
 11
322.4395696902
 21
35.6031714308
 31
0.0
  0
LINE
  5
408
330
1F
100
AcDbEntity
  8
0
  6
Continuous
 62
     7
370
    25
100
AcDbLine
 10
350.0697560656
 20
115.1415725736
 30
0.0
 11
350.0697560656
 21
103.3900202369
 31
0.0
  0
LINE
  5
409
330
1F
100
AcDbEntity
  8
0
  6
Continuous
 62
     7
370
    25
100
AcDbLine
 10
350.0697560656
 20
115.1415725736
 30
0.0
 11
302.9666066526
 21
115.1415725736
 31
0.0
  0
LINE
  5
40A
330
1F
100
AcDbEntity
  8
0
  6
Continuous
 62
     7
370
    25
100
AcDbLine
 10
302.9666066526
 20
115.1415725736
 30
0.0
 11
302.9666066526
 21
103.3900202369
 31
0.0
  0
LINE
  5
40B
330
1F
100
AcDbEntity
  8
0
  6
Continuous
 62
     7
370
    25
100
AcDbLine
 10
350.0697560656
 20
81.8931249103
 30
0.0
 11
350.0697560656
 21
70.1415725736
 31
0.0
  0
LINE
  5
40C
330
1F
100
AcDbEntity
  8
0
  6
Continuous
 62
     7
370
    25
100
AcDbLine
 10
302.9666066526
 20
81.8931249103
 30
0.0
 11
302.9666066526
 21
70.1415725736
 31
0.0
  0
LINE
  5
40D
330
1F
100
AcDbEntity
  8
0
  6
Continuous
 62
     7
370
    25
100
AcDbLine
 10
350.0697560656
 20
70.1415725736
 30
0.0
 11
302.9666066526
 21
70.1415725736
 31
0.0
  0
ARC
  5
40E
330
1F
100
AcDbEntity
  8
0
  6
Continuous
 62
     7
370
    25
100
AcDbCircle
 10
302.8181813591
 20
24.9415725736
 30
0.0
 40
1.261978290367018
100
AcDbArc
 50
0.0
 51
90.0
  0
LINE
  5
40F
330
1F
100
AcDbEntity
  8
0
  6
Continuous
 62
     7
370
    25
100
AcDbLine
 10
350.0697560656
 20
70.167755171
 30
0.0
 11
302.9666066526
 21
70.167755171
 31
0.0
  0
LINE
  5
410
330
1F
100
AcDbEntity
  8
0
  6
Continuous
 62
     7
370
    25
100
AcDbLine
 10
350.0697560656
 20
115.1153899762
 30
0.0
 11
302.9666066526
 21
115.1153899762
 31
0.0
  0
ARC
  5
411
330
1F
100
AcDbEntity
  8
0
  6
Continuous
 62
     7
370
    25
100
AcDbCircle
 10
309.2681813591
 20
93.6415725736
 30
0.0
 40
2.513090301686134
100
AcDbArc
 50
0.0
 51
180.0
  0
LINE
  5
412
330
1F
100
AcDbEntity
  8
0
  6
Continuous
 62
     7
370
    25
100
AcDbLine
 10
306.7550910574
 20
91.6415725736
 30
0.0
 11
306.7550910574
 21
93.6415725736
 31
0.0
  0
ARC
  5
413
330
1F
100
AcDbEntity
  8
0
  6
Continuous
 62
     7
370
    25
100
AcDbCircle
 10
309.2681813591
 20
91.6415725736
 30
0.0
 40
2.513090301686134
100
AcDbArc
 50
180.0
 51
0.0
  0
LINE
  5
414
330
1F
100
AcDbEntity
  8
0
  6
Continuous
 62
     7
370
    25
100
AcDbLine
 10
311.7812716608
 20
93.6415725736
 30
0.0
 11
311.7812716608
 21
91.6415725736
 31
0.0
  0
ARC
  5
415
330
1F
100
AcDbEntity
  8
0
  6
Continuous
 62
     7
370
    25
100
AcDbCircle
 10
309.2681813591
 20
93.6415725736
 30
0.0
 40
2.5
100
AcDbArc
 50
0.0
 51
180.0
  0
ARC
  5
416
330
1F
100
AcDbEntity
  8
0
  6
Continuous
 62
     7
370
    25
100
AcDbCircle
 10
309.2681813591
 20
91.6415725736
 30
0.0
 40
2.5
100
AcDbArc
 50
180.0
 51
0.0
  0
LINE
  5
417
330
1F
100
AcDbEntity
  8
0
  6
Continuous
 62
     7
370
    25
100
AcDbLine
 10
306.7681813591
 20
91.6415725736
 30
0.0
 11
306.7681813591
 21
93.6415725736
 31
0.0
  0
LINE
  5
418
330
1F
100
AcDbEntity
  8
0
  6
Continuous
 62
     7
370
    25
100
AcDbLine
 10
311.7681813591
 20
93.6415725736
 30
0.0
 11
311.7681813591
 21
91.6415725736
 31
0.0
  0
LINE
  5
419
330
1F
100
AcDbEntity
  8
0
  6
Continuous
 62
     7
370
    25
100
AcDbLine
 10
322.4571916889
 20
40.8537911191
 30
0.0
 11
323.5181813591
 21
40.8537911191
 31
0.0
  0
LINE
  5
41A
330
1F
100
AcDbEntity
  8
0
  6
Continuous
 62
     7
370
    25
100
AcDbLine
 10
322.4395696902
 20
40.8799737164
 30
0.0
 11
322.4567805493
 21
40.874241425
 31
0.0
  0
LINE
  5
41B
330
1F
100
AcDbEntity
  8
0
  6
Continuous
 62
     7
370
    25
100
AcDbLine
 10
330.596793028
 20
40.8799737164
 30
0.0
 11
330.5795821689
 21
40.874241425
 31
0.0
  0
LINE
  5
41C
330
1F
100
AcDbEntity
  8
0
  6
Continuous
 62
     7
370
    25
100
AcDbLine
 10
329.5181813591
 20
40.8537911191
 30
0.0
 11
330.5791710293
 21
40.8537911191
 31
0.0
  0
LINE
  5
41D
330
1F
100
AcDbEntity
  8
0
  6
Continuous
 62
     7
370
    25
100
AcDbLine
 10
329.5181813591
 20
40.8537911191
 30
0.0
 11
329.5072424823
 21
40.8501477896
 31
0.0
  0
LINE
  5
41E
330
1F
100
AcDbEntity
  8
0
  6
Continuous
 62
     7
370
    25
100
AcDbLine
 10
323.5291202359
 20
40.8501477896
 30
0.0
 11
323.5181813591
 21
40.8537911191
 31
0.0
  0
LINE
  5
41F
330
1F
100
AcDbEntity
  8
0
  6
Continuous
 62
     7
370
    25
100
AcDbLine
 10
322.4571916889
 20
149.6537911191
 30
0.0
 11
323.5181813591
 21
149.6537911191
 31
0.0
  0
LINE
  5
420
330
1F
100
AcDbEntity
  8
0
  6
Continuous
 62
     7
370
    25
100
AcDbLine
 10
322.4395696902
 20
149.6799737164
 30
0.0
 11
322.4567805493
 21
149.674241425
 31
0.0
  0
LINE
  5
421
330
1F
100
AcDbEntity
  8
0
  6
Continuous
 62
     7
370
    25
100
AcDbLine
 10
330.596793028
 20
149.6799737164
 30
0.0
 11
330.5795821689
 21
149.674241425
 31
0.0
  0
LINE
  5
422
330
1F
100
AcDbEntity
  8
0
  6
Continuous
 62
     7
370
    25
100
AcDbLine
 10
329.5181813591
 20
149.6537911191
 30
0.0
 11
330.5791710293
 21
149.6537911191
 31
0.0
  0
LINE
  5
423
330
1F
100
AcDbEntity
  8
0
  6
Continuous
 62
     7
370
    25
100
AcDbLine
 10
329.5181813591
 20
149.6537911191
 30
0.0
 11
329.5072424823
 21
149.6501477896
 31
0.0
  0
LINE
  5
424
330
1F
100
AcDbEntity
  8
0
  6
Continuous
 62
     7
370
    25
100
AcDbLine
 10
323.5291202359
 20
149.6501477896
 30
0.0
 11
323.5181813591
 21
149.6537911191
 31
0.0
  0
LINE
  5
425
330
1F
100
AcDbEntity
  8
0
  6
Continuous
 62
     7
370
    25
100
AcDbLine
 10
330.5791710293
 20
35.6293540282
 30
0.0
 11
329.5181813591
 21
35.6293540282
 31
0.0
  0
LINE
  5
426
330
1F
100
AcDbEntity
  8
0
  6
Continuous
 62
     7
370
    25
100
AcDbLine
 10
330.596793028
 20
35.6031714308
 30
0.0
 11
330.5795821689
 21
35.6089037222
 31
0.0
  0
LINE
  5
427
330
1F
100
AcDbEntity
  8
0
  6
Continuous
 62
     7
370
    25
100
AcDbLine
 10
322.4395696902
 20
35.6031714308
 30
0.0
 11
322.4567805493
 21
35.6089037222
 31
0.0
  0
LINE
  5
428
330
1F
100
AcDbEntity
  8
0
  6
Continuous
 62
     7
370
    25
100
AcDbLine
 10
323.5181813591
 20
35.6293540282
 30
0.0
 11
322.4571916889
 21
35.6293540282
 31
0.0
  0
LINE
  5
429
330
1F
100
AcDbEntity
  8
0
  6
Continuous
 62
     7
370
    25
100
AcDbLine
 10
323.5181813591
 20
35.6293540282
 30
0.0
 11
323.5291202359
 21
35.6329973576
 31
0.0
  0
LINE
  5
42A
330
1F
100
AcDbEntity
  8
0
  6
Continuous
 62
     7
370
    25
100
AcDbLine
 10
329.5072424823
 20
35.6329973576
 30
0.0
 11
329.5181813591
 21
35.6293540282
 31
0.0
  0
LINE
  5
42B
330
1F
100
AcDbEntity
  8
0
  6
Continuous
 62
     7
370
    25
100
AcDbLine
 10
330.5791710293
 20
144.4293540282
 30
0.0
 11
329.5181813591
 21
144.4293540282
 31
0.0
  0
LINE
  5
42C
330
1F
100
AcDbEntity
  8
0
  6
Continuous
 62
     7
370
    25
100
AcDbLine
 10
330.596793028
 20
144.4031714308
 30
0.0
 11
330.5795821689
 21
144.4089037222
 31
0.0
  0
LINE
  5
42D
330
1F
100
AcDbEntity
  8
0
  6
Continuous
 62
     7
370
    25
100
AcDbLine
 10
322.4395696902
 20
144.4031714308
 30
0.0
 11
322.4567805493
 21
144.4089037222
 31
0.0
  0
LINE
  5
42E
330
1F
100
AcDbEntity
  8
0
  6
Continuous
 62
     7
370
    25
100
AcDbLine
 10
323.5181813591
 20
144.4293540282
 30
0.0
 11
322.4571916889
 21
144.4293540282
 31
0.0
  0
LINE
  5
42F
330
1F
100
AcDbEntity
  8
0
  6
Continuous
 62
     7
370
    25
100
AcDbLine
 10
323.5181813591
 20
144.4293540282
 30
0.0
 11
323.5291202359
 21
144.4329973576
 31
0.0
  0
LINE
  5
430
330
1F
100
AcDbEntity
  8
0
  6
Continuous
 62
     7
370
    25
100
AcDbLine
 10
329.5072424823
 20
144.4329973576
 30
0.0
 11
329.5181813591
 21
144.4293540282
 31
0.0
  0
ARC
  5
431
330
1F
100
AcDbEntity
  8
0
  6
Continuous
 62
     7
370
    25
100
AcDbCircle
 10
342.7681813591
 20
92.6415725736
 30
0.0
 40
2.513090301688223
100
AcDbArc
 50
90.0
 51
270.0
  0
LINE
  5
432
330
1F
100
AcDbEntity
  8
0
  6
Continuous
 62
     7
370
    25
100
AcDbLine
 10
344.7681813591
 20
90.1284822719
 30
0.0
 11
342.7681813591
 21
90.1284822719
 31
0.0
  0
ARC
  5
433
330
1F
100
AcDbEntity
  8
0
  6
Continuous
 62
     7
370
    25
100
AcDbCircle
 10
344.7681813591
 20
92.6415725736
 30
0.0
 40
2.513090301690283
100
AcDbArc
 50
270.0
 51
90.0
  0
LINE
  5
434
330
1F
100
AcDbEntity
  8
0
  6
Continuous
 62
     7
370
    25
100
AcDbLine
 10
342.7681813591
 20
95.1546628753
 30
0.0
 11
344.7681813591
 21
95.1546628753
 31
0.0
  0
ARC
  5
435
330
1F
100
AcDbEntity
  8
0
  6
Continuous
 62
     7
370
    25
100
AcDbCircle
 10
342.7681813591
 20
92.6415725736
 30
0.0
 40
2.50000000000415
100
AcDbArc
 50
90.0
 51
270.0
  0
LINE
  5
436
330
1F
100
AcDbEntity
  8
0
  6
Continuous
 62
     7
370
    25
100
AcDbLine
 10
344.7681813591
 20
90.1415725736
 30
0.0
 11
342.7681813591
 21
90.1415725736
 31
0.0
  0
LINE
  5
437
330
1F
100
AcDbEntity
  8
0
  6
Continuous
 62
     7
370
    25
100
AcDbLine
 10
342.7681813591
 20
95.1415725736
 30
0.0
 11
344.7681813591
 21
95.1415725736
 31
0.0
  0
ARC
  5
438
330
1F
100
AcDbEntity
  8
0
  6
Continuous
 62
     7
370
    25
100
AcDbCircle
 10
344.7681813591
 20
92.6415725736
 30
0.0
 40
2.50000000000415
100
AcDbArc
 50
270.0
 51
90.0
  0
ARC
  5
439
330
1F
100
AcDbEntity
  8
0
  6
Continuous
 62
     7
370
    25
100
AcDbCircle
 10
350.2181813591
 20
160.3415725736
 30
0.0
 40
1.261978290367011
100
AcDbArc
 50
180.0
 51
270.0
  0
LINE
  5
43A
330
1F
100
AcDbEntity
  8
0
  6
Continuous
 62
     7
370
    25
100
AcDbLine
 10
303.8181813591
 20
24.9415725736
 30
0.0
 11
303.8181813591
 21
23.4546286074
 31
0.0
  0
LINE
  5
43B
330
1F
100
AcDbEntity
  8
0
  6
Continuous
 62
     7
370
    25
100
AcDbLine
 10
301.3312373929
 20
25.9415725736
 30
0.0
 11
302.8181813591
 21
25.9415725736
 31
0.0
  0
ARC
  5
43C
330
1F
100
AcDbEntity
  8
0
  6
Continuous
 62
     7
370
    25
100
AcDbCircle
 10
302.8181813591
 20
24.9415725736
 30
0.0
 40
1.0
100
AcDbArc
 50
0.0
 51
90.0
  0
LINE
  5
43D
330
1F
100
AcDbEntity
  8
0
  6
Continuous
 62
     7
370
    25
100
AcDbLine
 10
349.2181813591
 20
160.3415725736
 30
0.0
 11
349.2181813591
 21
161.8285165399
 31
0.0
  0
ARC
  5
43E
330
1F
100
AcDbEntity
  8
0
  6
Continuous
 62
     7
370
    25
100
AcDbCircle
 10
350.2181813591
 20
160.3415725736
 30
0.0
 40
1.0
100
AcDbArc
 50
180.0
 51
270.0
  0
LINE
  5
43F
330
1F
100
AcDbEntity
  8
0
  6
Continuous
 62
     7
370
    25
100
AcDbLine
 10
351.7051253254
 20
159.3415725736
 30
0.0
 11
350.2181813591
 21
159.3415725736
 31
0.0
  0
ELLIPSE
  5
440
330
1F
100
AcDbEntity
  8
0
  6
Continuous
 62
     7
370
    25
100
AcDbEllipse
 10
301.3312830843
 20
26.241618272
 30
0.0
 11
-0.1341814476738818
 21
-0.26838333494522
 31
0.0
210
0.0
220
0.0
230
0.9999999999999997
 40
0.9998096356
 41
5.176082279505001
 42
6.746726307255033
  0
ELLIPSE
  5
441
330
1F
100
AcDbEntity
  8
0
  6
Continuous
 62
     7
370
    25
100
AcDbEllipse
 10
304.1182270575
 20
23.4546742988
 30
0.0
 11
0.2683833349452129
 21
0.1341814476738818
 31
0.0
210
0.0
220
0.0
230
1.0
 40
0.9998096356
 41
2.678051653514351
 42
4.248695681264415
  0
ELLIPSE
  5
442
330
1F
100
AcDbEntity
  8
0
  6
Continuous
 62
     7
370
    25
100
AcDbEllipse
 10
348.9181356607
 20
161.8284708484
 30
0.0
 11
-0.2683833349452129
 21
-0.1341814476738535
 31
0.0
210
0.0
220
0.0
230
1.0
 40
0.9998096356
 41
2.678051653514448
 42
4.248695681264488
  0
ELLIPSE
  5
443
330
1F
100
AcDbEntity
  8
0
  6
Continuous
 62
     7
370
    25
100
AcDbEllipse
 10
351.7050796339
 20
159.0415268752
 30
0.0
 11
0.1341814476739387
 21
0.2683833349452129
 31
0.0
210
0.0
220
0.0
230
1.0
 40
0.9998096356
 41
5.176082279505191
 42
6.746726307255168
  0
ELLIPSE
  5
444
330
1F
100
AcDbEntity
  8
0
  6
Continuous
 62
     7
370
    25
100
AcDbEllipse
 10
301.5182003983
 20
161.6415535344
 30
0.0
 11
0.3535803155654662
 21
-0.3535803155654377
 31
0.0
210
0.0
220
0.0
230
0.9999999999999998
 40
0.9999238505
 41
2.356232566403126
 42
3.926952740776281
  0
ELLIPSE
  5
445
330
1F
100
AcDbEntity
  8
0
  6
Continuous
 62
     7
370
    25
100
AcDbEllipse
 10
351.5181623199
 20
23.6415916128
 30
0.0
 11
-0.3535803155654094
 21
0.3535803155654413
 31
0.0
210
0.0
220
0.0
230
1.0
 40
0.9999238505
 41
2.356232566403401
 42
3.926952740776354
  0
LINE
  5
446
330
1F
100
AcDbEntity
  8
0
  6
Continuous
 62
     7
370
    25
100
AcDbLine
 10
301.0312716608
 20
23.6546438368
 30
0.0
 11
301.0312716608
 21
26.2415725753
 31
0.0
  0
LINE
  5
447
330
1F
100
AcDbEntity
  8
0
  6
Continuous
 62
     7
370
    25
100
AcDbLine
 10
301.0181813591
 20
23.6415535351
 30
0.0
 11
301.0181813591
 21
161.6415916121
 31
0.0
  0
LINE
  5
448
330
1F
100
AcDbEntity
  8
0
  6
Continuous
 62
     7
370
    25
100
AcDbLine
 10
301.5181623206
 20
162.1415725736
 30
0.0
 11
351.5182003976
 21
162.1415725736
 31
0.0
  0
LINE
  5
449
330
1F
100
AcDbEntity
  8
0
  6
Continuous
 62
     7
370
    25
100
AcDbLine
 10
348.9181813574
 20
162.1284822719
 30
0.0
 11
351.5051100959
 21
162.1284822719
 31
0.0
  0
LINE
  5
44A
330
1F
100
AcDbEntity
  8
0
  6
Continuous
 62
     7
370
    25
100
AcDbLine
 10
351.5182003976
 20
23.1415725736
 30
0.0
 11
301.5181623206
 21
23.1415725736
 31
0.0
  0
LINE
  5
44B
330
1F
100
AcDbEntity
  8
0
  6
Continuous
 62
     7
370
    25
100
AcDbLine
 10
304.1181813608
 20
23.1546628753
 30
0.0
 11
301.5312526223
 21
23.1546628753
 31
0.0
  0
LINE
  5
44C
330
1F
100
AcDbEntity
  8
0
  6
Continuous
 62
     7
370
    25
100
AcDbLine
 10
352.0050910574
 20
161.6285013104
 30
0.0
 11
352.0050910574
 21
159.0415725719
 31
0.0
  0
LINE
  5
44D
330
1F
100
AcDbEntity
  8
0
  6
Continuous
 62
     7
370
    25
100
AcDbLine
 10
352.0181813591
 20
161.6415916121
 30
0.0
 11
352.0181813591
 21
23.6415535351
 31
0.0
  0
ELLIPSE
  5
44E
330
1F
100
AcDbEntity
  8
0
  6
Continuous
 62
     7
370
    25
100
AcDbEllipse
 10
329.5076998032
 20
149.150223942
 30
0.0
 11
0.0
 21
0.5
 31
0.0
210
0.0
220
0.0
230
1.0
 40
0.0524077793
 41
0.0174532925213502
 42
1.570796326794897
  0
ELLIPSE
  5
44F
330
1F
100
AcDbEntity
  8
0
  6
Continuous
 62
     7
370
    25
100
AcDbEllipse
 10
323.528662915
 20
149.150223942
 30
0.0
 11
0.0
 21
0.5
 31
0.0
210
0.0
220
0.0
230
1.0
 40
0.0524077793
 41
4.712388980384691
 42
6.265732014658458
  0
ELLIPSE
  5
450
330
1F
100
AcDbEntity
  8
0
  6
Continuous
 62
     7
370
    25
100
AcDbEllipse
 10
329.5076998032
 20
36.1329212052
 30
0.0
 11
0.0
 21
0.5
 31
0.0
210
0.0
220
0.0
230
1.0
 40
0.0524077793
 41
1.570796326794868
 42
3.124139361068443
  0
ELLIPSE
  5
451
330
1F
100
AcDbEntity
  8
0
  6
Continuous
 62
     7
370
    25
100
AcDbEllipse
 10
323.528662915
 20
36.1329212052
 30
0.0
 11
0.0
 21
0.5
 31
0.0
210
0.0
220
0.0
230
1.0
 40
0.0524077793
 41
3.159045946111447
 42
4.712388980384719
  0
ELLIPSE
  5
452
330
1F
100
AcDbEntity
  8
0
  6
Continuous
 62
     7
370
    25
100
AcDbEllipse
 10
329.5076998032
 20
40.350223942
 30
0.0
 11
0.0
 21
0.5
 31
0.0
210
0.0
220
0.0
230
1.0
 40
0.0524077793
 41
0.0174532925213505
 42
1.570796326794868
  0
ELLIPSE
  5
453
330
1F
100
AcDbEntity
  8
0
  6
Continuous
 62
     7
370
    25
100
AcDbEllipse
 10
323.528662915
 20
40.350223942
 30
0.0
 11
0.0
 21
0.5
 31
0.0
210
0.0
220
0.0
230
1.0
 40
0.0524077793
 41
4.712388980384719
 42
6.265732014658458
  0
ELLIPSE
  5
454
330
1F
100
AcDbEntity
  8
0
  6
Continuous
 62
     7
370
    25
100
AcDbEllipse
 10
329.5076998032
 20
144.9329212052
 30
0.0
 11
0.0
 21
0.5
 31
0.0
210
0.0
220
0.0
230
1.0
 40
0.0524077793
 41
1.570796326794897
 42
3.124139361068443
  0
ELLIPSE
  5
455
330
1F
100
AcDbEntity
  8
0
  6
Continuous
 62
     7
370
    25
100
AcDbEllipse
 10
323.528662915
 20
144.9329212052
 30
0.0
 11
0.0
 21
0.5
 31
0.0
210
0.0
220
0.0
230
1.0
 40
0.0524077793
 41
3.159045946111447
 42
4.712388980384691
  0
LINE
  5
456
330
1F
100
AcDbEntity
  8
0
  6
Continuous
 62
     7
370
    25
100
AcDbLine
 10
329.4814959136
 20
40.350223942
 30
0.0
 11
329.4814959136
 21
36.1329212052
 31
0.0
  0
LINE
  5
457
330
1F
100
AcDbEntity
  8
0
  6
Continuous
 62
     7
370
    25
100
AcDbLine
 10
323.5548668046
 20
36.1329212052
 30
0.0
 11
323.5548668046
 21
40.350223942
 31
0.0
  0
LINE
  5
458
330
1F
100
AcDbEntity
  8
0
  6
Continuous
 62
     7
370
    25
100
AcDbLine
 10
329.4814959136
 20
149.150223942
 30
0.0
 11
329.4814959136
 21
144.9329212052
 31
0.0
  0
LINE
  5
459
330
1F
100
AcDbEntity
  8
0
  6
Continuous
 62
     7
370
    25
100
AcDbLine
 10
323.5548668046
 20
144.9329212052
 30
0.0
 11
323.5548668046
 21
149.150223942
 31
0.0
  0
LINE
  5
45A
330
1F
100
AcDbEntity
  8
0
  6
Continuous
 62
     7
370
    25
100
AcDbLine
 10
302.9666066526
 20
75.1415725736
 30
0.0
 11
350.0697560656
 21
75.1415725736
 31
0.0
  0
LINE
  5
45B
330
1F
100
AcDbEntity
  8
0
  6
Continuous
 62
     7
370
    25
100
AcDbLine
 10
302.9666066526
 20
110.1415725736
 30
0.0
 11
350.0697560656
 21
110.1415725736
 31
0.0
  0
ELLIPSE
  5
45C
330
1F
100
AcDbEntity
  8
0
  6
Continuous
 62
     7
370
    25
100
AcDbEllipse
 10
301.5182003983
 20
23.6415916128
 30
0.0
 11
0.3535803155654662
 21
0.3535803155654413
 31
0.0
210
0.0
220
0.0
230
1.0
 40
0.9999238505
 41
2.356232566403283
 42
3.926952740776437
  0
ELLIPSE
  5
45D
330
1F
100
AcDbEntity
  8
0
  6
Continuous
 62
     7
370
    25
100
AcDbEllipse
 10
301.5312907
 20
23.6546819145
 30
0.0
 11
0.3535803155654093
 21
0.3535803155654378
 31
0.0
210
0.0
220
0.0
230
0.9999999999999998
 40
0.9999238505
 41
2.356232566403286
 42
3.926952740776205
  0
CIRCLE
  5
45E
330
1F
100
AcDbEntity
  8
0
  6
Continuous
 62
     7
370
    25
100
AcDbCircle
 10
302.4181813591
 20
24.5415725736
 30
0.0
 40
0.5999999999999659
  0
ELLIPSE
  5
45F
330
1F
100
AcDbEntity
  8
0
  6
Continuous
 62
     7
370
    25
100
AcDbEllipse
 10
351.5050720182
 20
161.6284632327
 30
0.0
 11
-0.3535803155654662
 21
-0.3535803155654377
 31
0.0
210
0.0
220
0.0
230
0.9999999999999998
 40
0.9999238505
 41
2.356232566403303
 42
3.926952740776434
  0
CIRCLE
  5
460
330
1F
100
AcDbEntity
  8
0
  6
Continuous
 62
     7
370
    25
100
AcDbCircle
 10
350.6181813591
 20
160.7415725736
 30
0.0
 40
0.5999999999999659
  0
ELLIPSE
  5
461
330
1F
100
AcDbEntity
  8
0
  6
Continuous
 62
     7
370
    25
100
AcDbEllipse
 10
351.5181623199
 20
161.6415535344
 30
0.0
 11
-0.3535803155654093
 21
-0.3535803155654662
 31
0.0
210
0.0
220
0.0
230
0.9999999999999998
 40
0.9999238505
 41
2.356232566403182
 42
3.9269527407762
  0
LINE
  5
462
330
1F
100
AcDbEntity
  8
0
  6
Continuous
 62
     7
370
    25
100
AcDbLine
 10
302.9666066526
 20
106.9274997694
 30
0.0
 11
350.0697560656
 21
106.9274997694
 31
0.0
  0
LINE
  5
463
330
1F
100
AcDbEntity
  8
0
  6
Continuous
 62
     7
370
    25
100
AcDbLine
 10
350.0697560656
 20
78.3556453778
 30
0.0
 11
302.9666066526
 21
78.3556453778
 31
0.0
  0
ENDSEC
  0
SECTION
  2
OBJECTS
  0
DICTIONARY
  5
C
330
0
100
AcDbDictionary
281
     1
  3
ACAD_GROUP
350
D
  3
ACAD_LAYOUT
350
1A
  3
ACAD_MLINESTYLE
350
17
  3
ACAD_PLOTSETTINGS
350
19
  3
ACAD_PLOTSTYLENAME
350
E
  3
ACAD_SCALELIST
350
47
  3
DWGPROPS
350
464
  0
DICTIONARY
  5
D
102
{ACAD_REACTORS
330
C
102
}
330
C
100
AcDbDictionary
281
     1
  0
DICTIONARY
  5
1A
102
{ACAD_REACTORS
330
C
102
}
330
C
100
AcDbDictionary
281
     1
  3
Layout1
350
1E
  3
Layout2
350
26
  3
Model
350
22
  0
DICTIONARY
  5
17
102
{ACAD_REACTORS
330
C
102
}
330
C
100
AcDbDictionary
281
     1
  3
Standard
350
18
  0
DICTIONARY
  5
19
102
{ACAD_REACTORS
330
C
102
}
330
C
100
AcDbDictionary
281
     1
  0
ACDBDICTIONARYWDFLT
  5
E
102
{ACAD_REACTORS
330
C
102
}
330
C
100
AcDbDictionary
281
     1
  3
Normal
350
F
100
AcDbDictionaryWithDefault
340
F
  0
DICTIONARY
  5
47
102
{ACAD_REACTORS
330
C
102
}
330
C
100
AcDbDictionary
281
     1
  3
A0
350
48
  3
A1
350
49
  3
A2
350
4A
  3
A3
350
4B
  3
A4
350
4C
  3
A5
350
4D
  3
A6
350
4E
  3
A7
350
4F
  3
A8
350
50
  3
A9
350
51
  3
B0
350
52
  3
B1
350
53
  3
B2
350
54
  3
B3
350
55
  3
B4
350
56
  3
B5
350
57
  3
B6
350
58
  0
XRECORD
  5
464
102
{ACAD_REACTORS
330
C
102
}
330
C
100
AcDbXrecord
280
     1
  1
DWGPROPS COOKIE
  2

  3

  4

  6

  7

  8
grigorievsin
  9

300
=
301
=
302
=
303
=
304
=
305
=
306
=
307
=
308
=
309
=
 40
0.0
 41
2460398.391502234
 42
2460398.391503785
  1

 90
        0
  0
LAYOUT
  5
1E
102
{ACAD_REACTORS
330
1A
102
}
330
1A
100
AcDbPlotSettings
  1

  2
none_device
  4

  6

 40
0.0
 41
0.0
 42
0.0
 43
0.0
 44
0.0
 45
0.0
 46
0.0
 47
0.0
 48
0.0
 49
0.0
140
0.0
141
0.0
142
1.0
143
1.0
 70
   688
 72
     1
 73
     0
 74
     5
  7

 75
    16
147
1.0
148
0.0
149
0.0
100
AcDbLayout
  1
Layout1
 70
     1
 71
     1
 10
0.0
 20
0.0
 11
420.0
 21
297.0
 12
0.0
 22
0.0
 32
0.0
 14
1.0000000000E+20
 24
1.0000000000E+20
 34
1.0000000000E+20
 15
-1.0000000000E+20
 25
-1.0000000000E+20
 35
-1.0000000000E+20
146
0.0
 13
0.0
 23
0.0
 33
0.0
 16
1.0
 26
0.0
 36
0.0
 17
0.0
 27
1.0
 37
0.0
 76
     0
330
1B
  0
LAYOUT
  5
26
102
{ACAD_REACTORS
330
1A
102
}
330
1A
100
AcDbPlotSettings
  1

  2
none_device
  4

  6

 40
0.0
 41
0.0
 42
0.0
 43
0.0
 44
0.0
 45
0.0
 46
0.0
 47
0.0
 48
0.0
 49
0.0
140
0.0
141
0.0
142
1.0
143
1.0
 70
   688
 72
     1
 73
     0
 74
     5
  7

 75
    16
147
1.0
148
0.0
149
0.0
100
AcDbLayout
  1
Layout2
 70
     1
 71
     2
 10
0.0
 20
0.0
 11
0.0
 21
0.0
 12
0.0
 22
0.0
 32
0.0
 14
0.0
 24
0.0
 34
0.0
 15
0.0
 25
0.0
 35
0.0
146
0.0
 13
0.0
 23
0.0
 33
0.0
 16
1.0
 26
0.0
 36
0.0
 17
0.0
 27
1.0
 37
0.0
 76
     0
330
23
  0
LAYOUT
  5
22
102
{ACAD_REACTORS
330
1A
102
}
330
1A
100
AcDbPlotSettings
  1

  2
none_device
  4
Letter_(8.50_x_11.00_Inches)
  6

 40
6.35
 41
6.35
 42
6.35000508
 43
6.35000508
 44
215.9
 45
279.4
 46
0.0
 47
0.0
 48
0.0
 49
0.0
140
0.0
141
0.0
142
1.0
143
1.0
 70
  1712
 72
     1
 73
     0
 74
     0
  7

 75
     0
147
1.0
148
0.0
149
0.0
100
AcDbLayout
  1
Model
 70
     1
 71
     0
 10
0.0
 20
0.0
 11
420.0
 21
297.0
 12
0.0
 22
0.0
 32
0.0
 14
0.0
 24
0.0
 34
0.0
 15
420.0
 25
297.0
 35
0.0
146
0.0
 13
0.0
 23
0.0
 33
0.0
 16
1.0
 26
0.0
 36
0.0
 17
0.0
 27
1.0
 37
0.0
 76
     0
330
1F
331
29
  0
MLINESTYLE
  5
18
102
{ACAD_REACTORS
330
17
102
}
330
17
100
AcDbMlineStyle
  2
Standard
 70
     0
  3

 62
   256
 51
90.0
 52
90.0
 71
     2
 49
0.5
 62
   256
  6
BYLAYER
 49
-0.5
 62
   256
  6
BYLAYER
  0
ACDBPLACEHOLDER
  5
F
102
{ACAD_REACTORS
330
E
102
}
330
E
  0
SCALE
  5
48
102
{ACAD_REACTORS
330
47
102
}
330
47
100
AcDbScale
 70
     0
300
1:1
140
1.0
141
1.0
290
     1
  0
SCALE
  5
49
102
{ACAD_REACTORS
330
47
102
}
330
47
100
AcDbScale
 70
     0
300
1:2
140
1.0
141
2.0
290
     0
  0
SCALE
  5
4A
102
{ACAD_REACTORS
330
47
102
}
330
47
100
AcDbScale
 70
     0
300
1:4
140
1.0
141
4.0
290
     0
  0
SCALE
  5
4B
102
{ACAD_REACTORS
330
47
102
}
330
47
100
AcDbScale
 70
     0
300
1:5
140
1.0
141
5.0
290
     0
  0
SCALE
  5
4C
102
{ACAD_REACTORS
330
47
102
}
330
47
100
AcDbScale
 70
     0
300
1:8
140
1.0
141
8.0
290
     0
  0
SCALE
  5
4D
102
{ACAD_REACTORS
330
47
102
}
330
47
100
AcDbScale
 70
     0
300
1:10
140
1.0
141
10.0
290
     0
  0
SCALE
  5
4E
102
{ACAD_REACTORS
330
47
102
}
330
47
100
AcDbScale
 70
     0
300
1:16
140
1.0
141
16.0
290
     0
  0
SCALE
  5
4F
102
{ACAD_REACTORS
330
47
102
}
330
47
100
AcDbScale
 70
     0
300
1:20
140
1.0
141
20.0
290
     0
  0
SCALE
  5
50
102
{ACAD_REACTORS
330
47
102
}
330
47
100
AcDbScale
 70
     0
300
1:30
140
1.0
141
30.0
290
     0
  0
SCALE
  5
51
102
{ACAD_REACTORS
330
47
102
}
330
47
100
AcDbScale
 70
     0
300
1:40
140
1.0
141
40.0
290
     0
  0
SCALE
  5
52
102
{ACAD_REACTORS
330
47
102
}
330
47
100
AcDbScale
 70
     0
300
1:50
140
1.0
141
50.0
290
     0
  0
SCALE
  5
53
102
{ACAD_REACTORS
330
47
102
}
330
47
100
AcDbScale
 70
     0
300
1:100
140
1.0
141
100.0
290
     0
  0
SCALE
  5
54
102
{ACAD_REACTORS
330
47
102
}
330
47
100
AcDbScale
 70
     0
300
2:1
140
2.0
141
1.0
290
     0
  0
SCALE
  5
55
102
{ACAD_REACTORS
330
47
102
}
330
47
100
AcDbScale
 70
     0
300
4:1
140
4.0
141
1.0
290
     0
  0
SCALE
  5
56
102
{ACAD_REACTORS
330
47
102
}
330
47
100
AcDbScale
 70
     0
300
8:1
140
8.0
141
1.0
290
     0
  0
SCALE
  5
57
102
{ACAD_REACTORS
330
47
102
}
330
47
100
AcDbScale
 70
     0
300
10:1
140
10.0
141
1.0
290
     0
  0
SCALE
  5
58
102
{ACAD_REACTORS
330
47
102
}
330
47
100
AcDbScale
 70
     0
300
100:1
140
100.0
141
1.0
290
     0
  0
ENDSEC
  0
EOF
