  0
SECTION
  2
HEADER
  9
$ACADVER
  1
AC1015
  9
$ACADMAINTVER
 70
     6
  9
$DWGCODEPAGE
  3
ANSI_1251
  9
$INSBASE
 10
0.0
 20
0.0
 30
0.0
  9
$EXTMIN
 10
0.0
 20
0.0
 30
0.0
  9
$EXTMAX
 10
279.4
 20
215.9
 30
0.0
  9
$LIMMIN
 10
0.0
 20
0.0
  9
$LIMMAX
 10
279.4
 20
215.9
  9
$ORTHOMODE
 70
     0
  9
$REGENMODE
 70
     1
  9
$FILLMODE
 70
     1
  9
$QTEXTMODE
 70
     0
  9
$MIRRTEXT
 70
     1
  9
$LTSCALE
 40
1.0
  9
$ATTMODE
 70
     1
  9
$TEXTSIZE
 40
5.0
  9
$TRACEWID
 40
1.0
  9
$TEXTSTYLE
  7
Standard
  9
$CLAYER
  8
0
  9
$CELTYPE
  6
ByLayer
  9
$CECOLOR
 62
   256
  9
$CELTSCALE
 40
1.0
  9
$DISPSILH
 70
     0
  9
$DIMSCALE
 40
1.0
  9
$DIMASZ
 40
5.0
  9
$DIMEXO
 40
1.0
  9
$DIMDLI
 40
3.75
  9
$DIMRND
 40
0.0
  9
$DIMDLE
 40
0.0
  9
$DIMEXE
 40
1.0
  9
$DIMTP
 40
0.0
  9
$DIMTM
 40
0.0
  9
$DIMTXT
 40
5.0
  9
$DIMCEN
 40
2.5
  9
$DIMTSZ
 40
0.0
  9
$DIMTOL
 70
     0
  9
$DIMLIM
 70
     0
  9
$DIMTIH
 70
     1
  9
$DIMTOH
 70
     1
  9
$DIMSE1
 70
     0
  9
$DIMSE2
 70
     0
  9
$DIMTAD
 70
     1
  9
$DIMZIN
 70
     0
  9
$DIMBLK
  1

  9
$DIMASO
 70
     1
  9
$DIMSHO
 70
     1
  9
$DIMPOST
  1

  9
$DIMAPOST
  1

  9
$DIMALT
 70
     0
  9
$DIMALTD
 70
     3
  9
$DIMALTF
 40
0.0393700787
  9
$DIMLFAC
 40
50.0
  9
$DIMTOFL
 70
     1
  9
$DIMTVP
 40
0.0
  9
$DIMTIX
 70
     0
  9
$DIMSOXD
 70
     0
  9
$DIMSAH
 70
     0
  9
$DIMBLK1
  1

  9
$DIMBLK2
  1

  9
$DIMSTYLE
  2
ISO-25
  9
$DIMCLRD
 70
     0
  9
$DIMCLRE
 70
     0
  9
$DIMCLRT
 70
     0
  9
$DIMTFAC
 40
1.0
  9
$DIMGAP
 40
1.524
  9
$DIMJUST
 70
     0
  9
$DIMSD1
 70
     0
  9
$DIMSD2
 70
     0
  9
$DIMTOLJ
 70
     0
  9
$DIMTZIN
 70
     0
  9
$DIMALTZ
 70
     0
  9
$DIMALTTZ
 70
     0
  9
$DIMUPT
 70
     0
  9
$DIMDEC
 70
     2
  9
$DIMTDEC
 70
     2
  9
$DIMALTU
 70
     2
  9
$DIMALTTD
 70
     3
  9
$DIMTXSTY
  7
Standard
  9
$DIMAUNIT
 70
     0
  9
$DIMADEC
 70
     2
  9
$DIMALTRND
 40
0.0
  9
$DIMAZIN
 70
     0
  9
$DIMDSEP
 70
    44
  9
$DIMATFIT
 70
     3
  9
$DIMFRAC
 70
     0
  9
$DIMLDRBLK
  1

  9
$DIMLUNIT
 70
     2
  9
$DIMLWD
 70
    -2
  9
$DIMLWE
 70
    -2
  9
$DIMTMOVE
 70
     0
  9
$LUNITS
 70
     2
  9
$LUPREC
 70
     2
  9
$SKETCHINC
 40
1.0
  9
$FILLETRAD
 40
10.0
  9
$AUNITS
 70
     0
  9
$AUPREC
 70
     2
  9
$MENU
  1
.
  9
$ELEVATION
 40
0.0
  9
$PELEVATION
 40
0.0
  9
$THICKNESS
 40
0.0
  9
$LIMCHECK
 70
     0
  9
$CHAMFERA
 40
0.0
  9
$CHAMFERB
 40
0.0
  9
$CHAMFERC
 40
0.0
  9
$CHAMFERD
 40
0.0
  9
$SKPOLY
 70
     0
  9
$TDCREATE
 40
2457948.418591077
  9
$TDUCREATE
 40
2457948.293591077
  9
$TDUPDATE
 40
2457948.418591887
  9
$TDUUPDATE
 40
2457948.293591887
  9
$TDINDWG
 40
0.0000000116
  9
$TDUSRTIMER
 40
0.0000000116
  9
$USRTIMER
 70
     1
  9
$ANGBASE
 50
0.0
  9
$ANGDIR
 70
     0
  9
$PDMODE
 70
     0
  9
$PDSIZE
 40
-1.0
  9
$PLINEWID
 40
0.0
  9
$SPLFRAME
 70
     0
  9
$SPLINETYPE
 70
     6
  9
$SPLINESEGS
 70
     8
  9
$HANDSEED
  5
334
  9
$SURFTAB1
 70
     6
  9
$SURFTAB2
 70
     6
  9
$SURFTYPE
 70
     6
  9
$SURFU
 70
     6
  9
$SURFV
 70
     6
  9
$UCSBASE
  2

  9
$UCSNAME
  2

  9
$UCSORG
 10
0.0
 20
0.0
 30
0.0
  9
$UCSXDIR
 10
1.0
 20
0.0
 30
0.0
  9
$UCSYDIR
 10
0.0
 20
1.0
 30
0.0
  9
$UCSORTHOREF
  2

  9
$UCSORTHOVIEW
 70
     0
  9
$UCSORGTOP
 10
0.0
 20
0.0
 30
0.0
  9
$UCSORGBOTTOM
 10
0.0
 20
0.0
 30
0.0
  9
$UCSORGLEFT
 10
0.0
 20
0.0
 30
0.0
  9
$UCSORGRIGHT
 10
0.0
 20
0.0
 30
0.0
  9
$UCSORGFRONT
 10
0.0
 20
0.0
 30
0.0
  9
$UCSORGBACK
 10
0.0
 20
0.0
 30
0.0
  9
$PUCSBASE
  2

  9
$PUCSNAME
  2

  9
$PUCSORG
 10
0.0
 20
0.0
 30
0.0
  9
$PUCSXDIR
 10
1.0
 20
0.0
 30
0.0
  9
$PUCSYDIR
 10
0.0
 20
1.0
 30
0.0
  9
$PUCSORTHOREF
  2

  9
$PUCSORTHOVIEW
 70
     0
  9
$PUCSORGTOP
 10
0.0
 20
0.0
 30
0.0
  9
$PUCSORGBOTTOM
 10
0.0
 20
0.0
 30
0.0
  9
$PUCSORGLEFT
 10
0.0
 20
0.0
 30
0.0
  9
$PUCSORGRIGHT
 10
0.0
 20
0.0
 30
0.0
  9
$PUCSORGFRONT
 10
0.0
 20
0.0
 30
0.0
  9
$PUCSORGBACK
 10
0.0
 20
0.0
 30
0.0
  9
$USERI1
 70
     0
  9
$USERI2
 70
     0
  9
$USERI3
 70
     0
  9
$USERI4
 70
     0
  9
$USERI5
 70
     0
  9
$USERR1
 40
0.0
  9
$USERR2
 40
0.0
  9
$USERR3
 40
0.0
  9
$USERR4
 40
0.0
  9
$USERR5
 40
0.0
  9
$WORLDVIEW
 70
     1
  9
$SHADEDGE
 70
     3
  9
$SHADEDIF
 70
    70
  9
$TILEMODE
 70
     1
  9
$MAXACTVP
 70
    64
  9
$PINSBASE
 10
0.0
 20
0.0
 30
0.0
  9
$PLIMCHECK
 70
     0
  9
$PEXTMIN
 10
1.0000000000E+20
 20
1.0000000000E+20
 30
1.0000000000E+20
  9
$PEXTMAX
 10
-1.0000000000E+20
 20
-1.0000000000E+20
 30
-1.0000000000E+20
  9
$PLIMMIN
 10
0.0
 20
0.0
  9
$PLIMMAX
 10
420.0
 20
297.0
  9
$UNITMODE
 70
     0
  9
$VISRETAIN
 70
     1
  9
$PLINEGEN
 70
     0
  9
$PSLTSCALE
 70
     1
  9
$TREEDEPTH
 70
  3020
  9
$CMLSTYLE
  2
Standard
  9
$CMLJUST
 70
     0
  9
$CMLSCALE
 40
20.0
  9
$PROXYGRAPHICS
 70
     1
  9
$MEASUREMENT
 70
     1
  9
$CELWEIGHT
370
    -1
  9
$ENDCAPS
280
     0
  9
$JOINSTYLE
280
     0
  9
$LWDISPLAY
290
     1
  9
$INSUNITS
 70
     4
  9
$HYPERLINKBASE
  1

  9
$STYLESHEET
  1

  9
$XEDIT
290
     1
  9
$CEPSNTYPE
380
     0
  9
$PSTYLEMODE
290
     1
  9
$FINGERPRINTGUID
  2
{FB8CF844-B628-4574-B1AD-4EAE80275580}
  9
$VERSIONGUID
  2
{FAEB1C32-E019-11D5-929B-00C0DF256EC4}
  9
$EXTNAMES
290
     1
  9
$PSVPSCALE
 40
0.0
  9
$OLESTARTUP
290
     0
  0
ENDSEC
  0
SECTION
  2
CLASSES
  0
CLASS
  1
ACDBDICTIONARYWDFLT
  2
AcDbDictionaryWithDefault
  3
ObjectDBX Classes
 90
        0
280
     0
281
     0
  0
CLASS
  1
VISUALSTYLE
  2
AcDbVisualStyle
  3
ObjectDBX Classes
 90
     4095
280
     0
281
     0
  0
CLASS
  1
MATERIAL
  2
AcDbMaterial
  3
ObjectDBX Classes
 90
     1153
280
     0
281
     0
  0
CLASS
  1
SCALE
  2
AcDbScale
  3
ObjectDBX Classes
 90
     1153
280
     0
281
     0
  0
CLASS
  1
SUN
  2
AcDbSun
  3
SCENEOE
 90
     1153
280
     0
281
     0
  0
CLASS
  1
ACDBPLACEHOLDER
  2
AcDbPlaceHolder
  3
ObjectDBX Classes
 90
        0
280
     0
281
     0
  0
CLASS
  1
LAYOUT
  2
AcDbLayout
  3
ObjectDBX Classes
 90
        0
280
     0
281
     0
  0
ENDSEC
  0
SECTION
  2
TABLES
  0
TABLE
  2
VPORT
  5
8
330
0
100
AcDbSymbolTable
 70
     1
  0
VPORT
  5
29
330
8
100
AcDbSymbolTableRecord
100
AcDbViewportTableRecord
  2
*Active
 70
     0
 10
0.0
 20
0.0
 11
1.0
 21
1.0
 12
139.7
 22
107.95
 13
0.0
 23
0.0
 14
10.0
 24
10.0
 15
10.0
 25
10.0
 16
0.0
 26
0.0
 36
1.0
 17
0.0
 27
0.0
 37
0.0
 40
215.9
 41
1.2941176471
 42
50.0
 43
0.0
 44
0.0
 50
0.0
 51
0.0
 71
     0
 72
  2000
 73
     1
 74
     3
 75
     0
 76
     0
 77
     0
 78
     0
281
     0
 65
     1
110
0.0
120
0.0
130
0.0
111
1.0
121
0.0
131
0.0
112
0.0
122
1.0
132
0.0
 79
     0
146
0.0
  0
ENDTAB
  0
TABLE
  2
LTYPE
  5
5
330
0
100
AcDbSymbolTable
 70
     6
  0
LTYPE
  5
14
330
5
100
AcDbSymbolTableRecord
100
AcDbLinetypeTableRecord
  2
ByBlock
 70
     0
  3

 72
    65
 73
     0
 40
0.0
  0
LTYPE
  5
15
330
5
100
AcDbSymbolTableRecord
100
AcDbLinetypeTableRecord
  2
ByLayer
 70
     0
  3

 72
    65
 73
     0
 40
0.0
  0
LTYPE
  5
16
330
5
100
AcDbSymbolTableRecord
100
AcDbLinetypeTableRecord
  2
Continuous
 70
     0
  3
Solid line
 72
    65
 73
     0
 40
0.0
  0
LTYPE
  5
6A
330
5
100
AcDbSymbolTableRecord
100
AcDbLinetypeTableRecord
  2
HIDDEN
 70
     0
  3
Hidden __ __ __ __ __ __ __ __ __ __ __ __ __ __
 72
    65
 73
     2
 40
1.905
 49
1.27
 74
     0
 49
-0.635
 74
     0
  0
LTYPE
  5
6B
330
5
100
AcDbSymbolTableRecord
100
AcDbLinetypeTableRecord
  2
PHANTOM
 70
     0
  3
Phantom ______  __  __  ______  __  __  ______
 72
    65
 73
     6
 40
12.7
 49
6.35
 74
     0
 49
-1.27
 74
     0
 49
1.27
 74
     0
 49
-1.27
 74
     0
 49
1.27
 74
     0
 49
-1.27
 74
     0
  0
LTYPE
  5
6C
330
5
100
AcDbSymbolTableRecord
100
AcDbLinetypeTableRecord
  2
CENTER
 70
     0
  3
Center ____ _ ____ _ ____ _ ____ _ ____ _ ____
 72
    65
 73
     4
 40
10.16
 49
6.35
 74
     0
 49
-1.27
 74
     0
 49
1.27
 74
     0
 49
-1.27
 74
     0
  0
LTYPE
  5
6D
330
5
100
AcDbSymbolTableRecord
100
AcDbLinetypeTableRecord
  2
CENTERX2
 70
     0
  3
Center (2x) ________  __  ________  __  _____
 72
    65
 73
     4
 40
20.32
 49
12.7
 74
     0
 49
-2.54
 74
     0
 49
2.54
 74
     0
 49
-2.54
 74
     0
  0
LTYPE
  5
6E
330
5
100
AcDbSymbolTableRecord
100
AcDbLinetypeTableRecord
  2
DOT2
 70
     0
  3
Dot (.5x) ........................................
 72
    65
 73
     2
 40
0.635
 49
0.0
 74
     0
 49
-0.635
 74
     0
  0
ENDTAB
  0
TABLE
  2
LAYER
  5
2
330
0
100
AcDbSymbolTable
 70
     1
  0
LAYER
  5
10
330
2
100
AcDbSymbolTableRecord
100
AcDbLayerTableRecord
  2
0
 70
     0
 62
     7
  6
Continuous
370
    -3
390
F
  0
ENDTAB
  0
TABLE
  2
STYLE
  5
3
330
0
100
AcDbSymbolTable
 70
     2
  0
STYLE
  5
11
330
3
100
AcDbSymbolTableRecord
100
AcDbTextStyleTableRecord
  2
Standard
 70
     0
 40
0.0
 41
1.0
 50
0.0
 71
     0
 42
5.0
  3
txt
  4

  0
STYLE
  5
A1
330
3
100
AcDbSymbolTableRecord
100
AcDbTextStyleTableRecord
  2
SLDTEXTSTYLE0
 70
     0
 40
0.0
 41
0.7
 50
0.0
 71
     0
 42
5.0
  3
TXT
  4

  0
ENDTAB
  0
TABLE
  2
VIEW
  5
6
330
0
100
AcDbSymbolTable
 70
     0
  0
ENDTAB
  0
TABLE
  2
UCS
  5
7
330
0
100
AcDbSymbolTable
 70
     0
  0
ENDTAB
  0
TABLE
  2
APPID
  5
9
330
0
100
AcDbSymbolTable
 70
     1
  0
APPID
  5
12
330
9
100
AcDbSymbolTableRecord
100
AcDbRegAppTableRecord
  2
ACAD
 70
     0
  0
ENDTAB
  0
TABLE
  2
DIMSTYLE
  5
A
330
0
100
AcDbSymbolTable
 70
     3
100
AcDbDimStyleTable
  0
DIMSTYLE
105
27
330
A
100
AcDbSymbolTableRecord
100
AcDbDimStyleTableRecord
  2
ISO-25
 70
     0
 41
2.5
 42
0.625
 43
3.75
 44
1.25
 73
     0
 74
     0
 77
     1
 78
     8
140
2.5
141
2.5
143
0.0393700787
147
0.625
171
     3
172
     1
178
     0
271
     2
272
     2
274
     3
278
    44
283
     0
284
     8
340
11
  0
DIMSTYLE
105
A2
102
{ACAD_REACTORS
330
A0
330
AC
330
B6
330
295
330
31F
102
}
330
A
100
AcDbSymbolTableRecord
100
AcDbDimStyleTableRecord
  2
SLDDIMSTYLE0
 70
     0
 41
5.0
 44
0.0
 45
0.000000001
 73
     0
 74
     0
 77
     1
 78
    12
 79
     3
140
28.0
147
7.0
173
     1
178
     0
271
     2
272
     2
276
     2
284
    12
340
A1
  0
DIMSTYLE
105
32A
102
{ACAD_REACTORS
330
329
102
}
330
A
100
AcDbSymbolTableRecord
100
AcDbDimStyleTableRecord
  2
SLDDIMSTYLE1
 70
     0
 41
5.0
 44
0.0
 45
0.000000001
 73
     0
 74
     0
 77
     1
 78
    12
 79
     3
140
28.0
147
7.0
173
     1
178
     0
271
     0
272
     0
276
     2
284
    12
340
A1
  0
ENDTAB
  0
TABLE
  2
BLOCK_RECORD
  5
1
330
0
100
AcDbSymbolTable
 70
     7
  0
BLOCK_RECORD
  5
1F
330
1
100
AcDbSymbolTableRecord
100
AcDbBlockTableRecord
  2
*Model_Space
340
22
  0
BLOCK_RECORD
  5
1B
330
1
100
AcDbSymbolTableRecord
100
AcDbBlockTableRecord
  2
*Paper_Space
340
1E
  0
BLOCK_RECORD
  5
23
330
1
100
AcDbSymbolTableRecord
100
AcDbBlockTableRecord
  2
*Paper_Space0
340
26
  0
BLOCK_RECORD
  5
A3
330
1
100
AcDbSymbolTableRecord
100
AcDbBlockTableRecord
  2
_D
340
0
  0
BLOCK_RECORD
  5
AD
330
1
100
AcDbSymbolTableRecord
100
AcDbBlockTableRecord
  2
_D_1
340
0
  0
BLOCK_RECORD
  5
B7
330
1
100
AcDbSymbolTableRecord
100
AcDbBlockTableRecord
  2
_D_2
340
0
  0
BLOCK_RECORD
  5
296
330
1
100
AcDbSymbolTableRecord
100
AcDbBlockTableRecord
  2
_D_3
340
0
  0
BLOCK_RECORD
  5
320
330
1
100
AcDbSymbolTableRecord
100
AcDbBlockTableRecord
  2
_D_4
340
0
  0
BLOCK_RECORD
  5
32B
330
1
100
AcDbSymbolTableRecord
100
AcDbBlockTableRecord
  2
_D_5
340
0
  0
ENDTAB
  0
ENDSEC
  0
SECTION
  2
BLOCKS
  0
BLOCK
  5
20
330
1F
100
AcDbEntity
  8
0
100
AcDbBlockBegin
  2
*Model_Space
 70
     0
 10
0.0
 20
0.0
 30
0.0
  3
*Model_Space
  1
*Model_Space
  0
ENDBLK
  5
21
330
1F
100
AcDbEntity
  8
0
100
AcDbBlockEnd
  0
BLOCK
  5
1C
330
1B
100
AcDbEntity
 67
     1
  8
0
100
AcDbBlockBegin
  2
*Paper_Space
 70
     0
 10
0.0
 20
0.0
 30
0.0
  3
*Paper_Space
  1
*Paper_Space
  0
ENDBLK
  5
1D
330
1B
100
AcDbEntity
 67
     1
  8
0
100
AcDbBlockEnd
  0
BLOCK
  5
24
330
23
100
AcDbEntity
  8
0
100
AcDbBlockBegin
  2
*Paper_Space0
 70
     0
 10
0.0
 20
0.0
 30
0.0
  3
*Paper_Space0
  1
*Paper_Space0
  0
ENDBLK
  5
25
330
23
100
AcDbEntity
  8
0
100
AcDbBlockEnd
  0
BLOCK
  5
A4
330
A3
100
AcDbEntity
  8
0
100
AcDbBlockBegin
  2
_D
 70
     0
 10
0.0
 20
0.0
 30
0.0
  3
_D
  1
_D
  0
SOLID
  5
A6
330
A3
100
AcDbEntity
  8
0
  6
Continuous
 62
     7
370
     0
100
AcDbTrace
 10
-373.4415273489
 20
1337.1758411686
 30
0.0
 11
-345.4415273489
 21
1332.8681488609
 31
0.0
 12
-345.4415273489
 22
1341.4835334763
 32
0.0
 13
-345.4415273489
 23
1341.4835334763
 33
0.0
  0
SOLID
  5
A7
330
A3
100
AcDbEntity
  8
0
  6
Continuous
 62
     7
370
     0
100
AcDbTrace
 10
626.5584726512
 20
1337.1758411687
 30
0.0
 11
598.5584726512
 21
1341.4835334764
 31
0.0
 12
598.5584726512
 22
1332.868148861
 32
0.0
 13
598.5584726512
 23
1332.868148861
 33
0.0
  0
LINE
  5
A8
330
A3
100
AcDbEntity
  8
0
  6
Continuous
 62
     7
370
     0
100
AcDbLine
 10
-373.4415273489
 20
1460.1758661687
 30
0.0
 11
-373.4415273489
 21
1336.1758411686
 31
0.0
  0
LINE
  5
A9
330
A3
100
AcDbEntity
  8
0
  6
Continuous
 62
     7
370
     0
100
AcDbLine
 10
626.5584726512
 20
1460.1758661686
 30
0.0
 11
626.5584726512
 21
1336.1758411687
 31
0.0
  0
LINE
  5
AA
330
A3
100
AcDbEntity
  8
0
  6
Continuous
 62
     7
370
     0
100
AcDbLine
 10
-373.4415273489
 20
1337.1758411686
 30
0.0
 11
626.5584726512
 21
1337.1758411687
 31
0.0
  0
MTEXT
  5
AB
330
A3
100
AcDbEntity
  8
0
  6
Continuous
 62
     7
370
     0
100
AcDbMText
 10
116.0079282868
 20
1373.2697388136
 30
0.0
 40
28.0
 41
0.0
 71
     1
 72
     1
  1
1000
  7
SLDTEXTSTYLE0
 73
     1
 44
1.0
  0
ENDBLK
  5
A5
330
A3
100
AcDbEntity
  8
0
100
AcDbBlockEnd
  0
BLOCK
  5
AE
330
AD
100
AcDbEntity
  8
0
100
AcDbBlockBegin
  2
_D_1
 70
     0
 10
0.0
 20
0.0
 30
0.0
  3
_D_1
  1
_D_1
  0
SOLID
  5
B0
330
AD
100
AcDbEntity
  8
0
  6
Continuous
 62
     7
370
     0
100
AcDbTrace
 10
-485.4416305018
 20
1461.1758661687
 30
0.0
 11
-481.1339381941
 21
1489.1758661687
 31
0.0
 12
-489.7493228095
 22
1489.1758661687
 32
0.0
 13
-489.7493228095
 23
1489.1758661687
 33
0.0
  0
SOLID
  5
B1
330
AD
100
AcDbEntity
  8
0
  6
Continuous
 62
     7
370
     0
100
AcDbTrace
 10
-485.4416305018
 20
3261.1758661687
 30
0.0
 11
-489.7493228095
 21
3233.1758661687
 31
0.0
 12
-481.1339381941
 22
3233.1758661687
 32
0.0
 13
-481.1339381941
 23
3233.1758661687
 33
0.0
  0
LINE
  5
B2
330
AD
100
AcDbEntity
  8
0
  6
Continuous
 62
     7
370
     0
100
AcDbLine
 10
-374.4415273489
 20
1461.1758661687
 30
0.0
 11
-486.4416305018
 21
1461.1758661687
 31
0.0
  0
LINE
  5
B3
330
AD
100
AcDbEntity
  8
0
  6
Continuous
 62
     7
370
     0
100
AcDbLine
 10
-374.4415273489
 20
3261.1758661687
 30
0.0
 11
-486.4416305018
 21
3261.1758661687
 31
0.0
  0
LINE
  5
B4
330
AD
100
AcDbEntity
  8
0
  6
Continuous
 62
     7
370
     0
100
AcDbLine
 10
-485.4416305018
 20
1461.1758661687
 30
0.0
 11
-485.4416305018
 21
3261.1758661687
 31
0.0
  0
MTEXT
  5
B5
330
AD
100
AcDbEntity
  8
0
  6
Continuous
 62
     7
370
     0
100
AcDbMText
 10
-521.5355281467
 20
2404.3116771635
 30
0.0
 40
28.0
 41
0.0
 71
     1
 72
     1
  1
1800
  7
SLDTEXTSTYLE0
 11
2.270978204231056E-14
 21
1.0
 31
0.0
 73
     1
 44
1.0
  0
ENDBLK
  5
AF
330
AD
100
AcDbEntity
  8
0
100
AcDbBlockEnd
  0
BLOCK
  5
B8
330
B7
100
AcDbEntity
  8
0
100
AcDbBlockBegin
  2
_D_2
 70
     0
 10
0.0
 20
0.0
 30
0.0
  3
_D_2
  1
_D_2
  0
SOLID
  5
BA
330
B7
100
AcDbEntity
  8
0
  6
Continuous
 62
     7
370
     0
100
AcDbTrace
 10
-583.2677730628
 20
1461.1758661687
 30
0.0
 11
-578.9600807551
 21
1489.1758661687
 31
0.0
 12
-587.5754653705
 22
1489.1758661687
 32
0.0
 13
-587.5754653705
 23
1489.1758661687
 33
0.0
  0
SOLID
  5
BB
330
B7
100
AcDbEntity
  8
0
  6
Continuous
 62
     7
370
     0
100
AcDbTrace
 10
-583.2677730628
 20
3461.1758661686
 30
0.0
 11
-587.5754653705
 21
3433.1758661686
 31
0.0
 12
-578.9600807551
 22
3433.1758661686
 32
0.0
 13
-578.9600807551
 23
3433.1758661686
 33
0.0
  0
LINE
  5
BC
330
B7
100
AcDbEntity
  8
0
  6
Continuous
 62
     7
370
     0
100
AcDbLine
 10
-374.4415273489
 20
1461.1758661687
 30
0.0
 11
-584.2677730628
 21
1461.1758661687
 31
0.0
  0
LINE
  5
BD
330
B7
100
AcDbEntity
  8
0
  6
Continuous
 62
     7
370
     0
100
AcDbLine
 10
-374.4415273489
 20
3461.1758661686
 30
0.0
 11
-584.2677730628
 21
3461.1758661686
 31
0.0
  0
LINE
  5
BE
330
B7
100
AcDbEntity
  8
0
  6
Continuous
 62
     7
370
     0
100
AcDbLine
 10
-583.2677730628
 20
1461.1758661687
 30
0.0
 11
-583.2677730628
 21
3461.1758661686
 31
0.0
  0
MTEXT
  5
BF
330
B7
100
AcDbEntity
  8
0
  6
Continuous
 62
     7
370
     0
100
AcDbMText
 10
-619.3616707077
 20
2401.3172329422
 30
0.0
 40
28.0
 41
0.0
 71
     1
 72
     1
  1
2000
  7
SLDTEXTSTYLE0
 11
2.270978204231056E-14
 21
1.0
 31
0.0
 73
     1
 44
1.0
  0
ENDBLK
  5
B9
330
B7
100
AcDbEntity
  8
0
100
AcDbBlockEnd
  0
BLOCK
  5
297
330
296
100
AcDbEntity
  8
0
100
AcDbBlockBegin
  2
_D_3
 70
     0
 10
0.0
 20
0.0
 30
0.0
  3
_D_3
  1
_D_3
  0
SOLID
  5
299
330
296
100
AcDbEntity
  8
0
  6
Continuous
 62
     7
370
     0
100
AcDbTrace
 10
1134.9899018896
 20
1355.1758411686
 30
0.0
 11
1162.9899018896
 21
1350.8681488609
 31
0.0
 12
1162.9899018896
 22
1359.4835334763
 32
0.0
 13
1162.9899018896
 23
1359.4835334763
 33
0.0
  0
SOLID
  5
29A
330
296
100
AcDbEntity
  8
0
  6
Continuous
 62
     7
370
     0
100
AcDbTrace
 10
1734.9899018896
 20
1355.1758411686
 30
0.0
 11
1706.9899018896
 21
1359.4835334763
 31
0.0
 12
1706.9899018896
 22
1350.868148861
 32
0.0
 13
1706.9899018896
 23
1350.868148861
 33
0.0
  0
LINE
  5
29B
330
296
100
AcDbEntity
  8
0
  6
Continuous
 62
     7
370
     0
100
AcDbLine
 10
1134.9899018896
 20
1460.1758661686
 30
0.0
 11
1134.9899018896
 21
1354.1758411686
 31
0.0
  0
LINE
  5
29C
330
296
100
AcDbEntity
  8
0
  6
Continuous
 62
     7
370
     0
100
AcDbLine
 10
1734.9899018896
 20
1460.1758661687
 30
0.0
 11
1734.9899018896
 21
1354.1758411686
 31
0.0
  0
LINE
  5
29D
330
296
100
AcDbEntity
  8
0
  6
Continuous
 62
     7
370
     0
100
AcDbLine
 10
1134.9899018896
 20
1355.1758411686
 30
0.0
 11
1734.9899018896
 21
1355.1758411686
 31
0.0
  0
MTEXT
  5
29E
330
296
100
AcDbEntity
  8
0
  6
Continuous
 62
     7
370
     0
100
AcDbMText
 10
1422.7118289301
 20
1391.2697388136
 30
0.0
 40
28.0
 41
0.0
 71
     1
 72
     1
  1
600
  7
SLDTEXTSTYLE0
 73
     1
 44
1.0
  0
ENDBLK
  5
298
330
296
100
AcDbEntity
  8
0
100
AcDbBlockEnd
  0
BLOCK
  5
321
330
320
100
AcDbEntity
  8
0
100
AcDbBlockBegin
  2
_D_4
 70
     0
 10
0.0
 20
0.0
 30
0.0
  3
_D_4
  1
_D_4
  0
SOLID
  5
323
330
320
100
AcDbEntity
  8
0
  6
Continuous
 62
     7
370
     0
100
AcDbTrace
 10
-323.4415273489
 20
365.2987686908
 30
0.0
 11
-295.4415273489
 21
360.9910763831
 31
0.0
 12
-295.4415273489
 22
369.6064609985
 32
0.0
 13
-295.4415273489
 23
369.6064609985
 33
0.0
  0
SOLID
  5
324
330
320
100
AcDbEntity
  8
0
  6
Continuous
 62
     7
370
     0
100
AcDbTrace
 10
576.5584726511
 20
365.2987686908
 30
0.0
 11
548.5584726511
 21
369.6064609985
 31
0.0
 12
548.5584726511
 22
360.9910763831
 32
0.0
 13
548.5584726511
 23
360.9910763831
 33
0.0
  0
LINE
  5
325
330
320
100
AcDbEntity
  8
0
  6
Continuous
 62
     7
370
     0
100
AcDbLine
 10
-323.4415273489
 20
488.2987686909
 30
0.0
 11
-323.4415273489
 21
364.2987686908
 31
0.0
  0
LINE
  5
326
330
320
100
AcDbEntity
  8
0
  6
Continuous
 62
     7
370
     0
100
AcDbLine
 10
576.5584726511
 20
488.2987686909
 30
0.0
 11
576.5584726511
 21
364.2987686908
 31
0.0
  0
LINE
  5
327
330
320
100
AcDbEntity
  8
0
  6
Continuous
 62
     7
370
     0
100
AcDbLine
 10
-323.4415273489
 20
365.2987686908
 30
0.0
 11
576.5584726511
 21
365.2987686908
 31
0.0
  0
MTEXT
  5
328
330
320
100
AcDbEntity
  8
0
  6
Continuous
 62
     7
370
     0
100
AcDbMText
 10
82.4325891074
 20
401.3926663358
 30
0.0
 40
28.0
 41
0.0
 71
     1
 72
     1
  1
900
  7
SLDTEXTSTYLE0
 73
     1
 44
1.0
  0
ENDBLK
  5
322
330
320
100
AcDbEntity
  8
0
100
AcDbBlockEnd
  0
BLOCK
  5
32C
330
32B
100
AcDbEntity
  8
0
100
AcDbBlockBegin
  2
_D_5
 70
     0
 10
0.0
 20
0.0
 30
0.0
  3
_D_5
  1
_D_5
  0
SOLID
  5
32E
330
32B
100
AcDbEntity
  8
0
  6
Continuous
 62
     7
370
     0
100
AcDbTrace
 10
-467.4416305018
 20
1049.0487686909
 30
0.0
 11
-471.7493228095
 21
1021.0487686909
 31
0.0
 12
-463.1339381941
 22
1021.0487686909
 32
0.0
 13
-463.1339381941
 23
1021.0487686909
 33
0.0
  0
SOLID
  5
32F
330
32B
100
AcDbEntity
  8
0
  6
Continuous
 62
     7
370
     0
100
AcDbTrace
 10
-467.4416305018
 20
489.2987686909
 30
0.0
 11
-463.1339381941
 21
517.2987686909
 31
0.0
 12
-471.7493228095
 22
517.2987686909
 32
0.0
 13
-471.7493228095
 23
517.2987686909
 33
0.0
  0
LINE
  5
330
330
32B
100
AcDbEntity
  8
0
  6
Continuous
 62
     7
370
     0
100
AcDbLine
 10
-324.1915273489
 20
1049.0487686909
 30
0.0
 11
-468.4416305018
 21
1049.0487686909
 31
0.0
  0
LINE
  5
331
330
32B
100
AcDbEntity
  8
0
  6
Continuous
 62
     7
370
     0
100
AcDbLine
 10
-324.4415273489
 20
489.2987686909
 30
0.0
 11
-468.4416305018
 21
489.2987686909
 31
0.0
  0
LINE
  5
332
330
32B
100
AcDbEntity
  8
0
  6
Continuous
 62
     7
370
     0
100
AcDbLine
 10
-467.4416305018
 20
1049.0487686909
 30
0.0
 11
-467.4416305018
 21
489.2987686909
 31
0.0
  0
MTEXT
  5
333
330
32B
100
AcDbEntity
  8
0
  6
Continuous
 62
     7
370
     0
100
AcDbMText
 10
-503.5355281467
 20
756.1036337132
 30
0.0
 40
28.0
 41
0.0
 71
     1
 72
     1
  1
560
  7
SLDTEXTSTYLE0
 11
-7.044195017643634E-15
 21
1.0
 31
0.0
 73
     1
 44
1.0
  0
ENDBLK
  5
32D
330
32B
100
AcDbEntity
  8
0
100
AcDbBlockEnd
  0
ENDSEC
  0
SECTION
  2
ENTITIES
  0
LINE
  5
6F
330
1F
100
AcDbEntity
  8
0
  6
Continuous
 62
     7
370
    15
100
AcDbLine
 10
-171.941523618
 20
2398.1758588527
 30
0.0
 11
-171.941523618
 21
2325.1758599256
 31
0.0
  0
LWPOLYLINE
  5
70
330
1F
100
AcDbEntity
  8
0
  6
Continuous
 62
     7
370
    15
100
AcDbPolyline
 90
       10
 70
   128
 43
0.0
 10
-171.941523618
 20
2325.1758599256
 10
-171.9491232102
 20
2325.1834595178
 10
-171.9716835682
 20
2325.2060198759
 10
-172.0085192387
 20
2325.2428555464
 10
-172.0584977334
 20
2325.2928489422
 10
-172.1201289361
 20
2325.3544652437
 10
-172.1915203993
 20
2325.4258716081
 10
-172.2705114548
 20
2325.5048626636
 10
-172.3547030156
 20
2325.5890393232
 10
-172.4415320819
 20
2325.6758683895
  0
LINE
  5
71
330
1F
100
AcDbEntity
  8
0
  6
Continuous
 62
     7
370
    15
100
AcDbLine
 10
-191.9415343468
 20
2325.1758599256
 30
0.0
 11
-191.9415343468
 21
2398.1758588527
 31
0.0
  0
LINE
  5
72
330
1F
100
AcDbEntity
  8
0
  6
Continuous
 62
     7
370
    15
100
AcDbLine
 10
-191.9415343468
 20
2325.1758599256
 30
0.0
 11
-191.441525883
 21
2325.6758683895
 31
0.0
  0
ARC
  5
73
330
1F
100
AcDbEntity
  8
0
  6
Continuous
 62
     7
370
    15
100
AcDbCircle
 10
-181.9415273489
 20
2398.1758661684
 30
0.0
 40
10.0
100
AcDbArc
 50
0.0
 51
180.0
  0
LINE
  5
74
330
1F
100
AcDbEntity
  8
0
  6
Continuous
 62
     7
370
    15
100
AcDbLine
 10
-165.9415263598
 20
2306.1758661245
 30
0.0
 11
-197.941531605
 21
2306.1758661245
 31
0.0
  0
LINE
  5
75
330
1F
100
AcDbEntity
  8
0
  6
Continuous
 62
     7
370
    15
100
AcDbLine
 10
-164.9415243332
 20
2415.1758635019
 30
0.0
 11
-164.9415243332
 21
2307.1758681511
 31
0.0
  0
LINE
  5
76
330
1F
100
AcDbEntity
  8
0
  6
Continuous
 62
     7
370
    15
100
AcDbLine
 10
-198.9415336316
 20
2307.1758681511
 30
0.0
 11
-198.9415336316
 21
2415.1758635019
 31
0.0
  0
LWPOLYLINE
  5
77
330
1F
100
AcDbEntity
  8
0
  6
Continuous
 62
     7
370
    15
100
AcDbPolyline
 90
        9
 70
   128
 43
0.0
 10
-191.441525883
 20
2324.1758728002
 10
-191.5390688841
 20
2324.2734158014
 10
-191.6328716939
 20
2324.36720371
 10
-191.7193133299
 20
2324.453645346
 10
-191.7950857346
 20
2324.5294177507
 10
-191.8572682803
 20
2324.5916002964
 10
-191.90346188
 20
2324.6378087972
 10
-191.9319230979
 20
2324.666255114
 10
-191.9415343468
 20
2324.6758663629
  0
LINE
  5
78
330
1F
100
AcDbEntity
  8
0
  6
Continuous
 62
     7
370
    15
100
AcDbLine
 10
-191.9415343468
 20
2324.6758663629
 30
0.0
 11
-172.4415320819
 21
2324.6758663629
 31
0.0
  0
LINE
  5
79
330
1F
100
AcDbEntity
  8
0
  6
Continuous
 62
     7
370
    15
100
AcDbLine
 10
-171.941523618
 20
2324.1758728002
 30
0.0
 11
-171.941523618
 21
2314.6758684491
 31
0.0
  0
LWPOLYLINE
  5
7A
330
1F
100
AcDbEntity
  8
0
  6
Continuous
 62
     7
370
    15
100
AcDbPolyline
 90
       10
 70
   128
 43
0.0
 10
-171.941523618
 20
2314.6758684491
 10
-171.9491232102
 20
2314.6834605907
 10
-171.9716835682
 20
2314.7060209488
 10
-172.0085192387
 20
2314.7428566192
 10
-172.0584977334
 20
2314.7928425645
 10
-172.1201289361
 20
2314.8544737672
 10
-172.1915203993
 20
2314.9258652304
 10
-172.2705114548
 20
2315.0048562859
 10
-172.3547030156
 20
2315.0890403961
 10
-172.4415320819
 20
2315.1758694624
  0
LINE
  5
7B
330
1F
100
AcDbEntity
  8
0
  6
Continuous
 62
     7
370
    15
100
AcDbLine
 10
-191.9415343468
 20
2315.1758694624
 30
0.0
 11
-191.9415343468
 21
2324.6758663629
 31
0.0
  0
LINE
  5
7C
330
1F
100
AcDbEntity
  8
0
  6
Continuous
 62
     7
370
    15
100
AcDbLine
 10
-171.941523618
 20
2314.6758684491
 30
0.0
 11
-191.441525883
 21
2314.6758684491
 31
0.0
  0
LINE
  5
7D
330
1F
100
AcDbEntity
  8
0
  6
Continuous
 62
     7
370
    15
100
AcDbLine
 10
-197.941531605
 20
2416.1758655285
 30
0.0
 11
-165.9415263598
 21
2416.1758655285
 31
0.0
  0
ARC
  5
7E
330
1F
100
AcDbEntity
  8
0
  6
Continuous
 62
     7
370
    15
100
AcDbCircle
 10
-165.9415273489
 20
2307.1758661684
 30
0.0
 40
1.0
100
AcDbArc
 50
270.0
 51
0.0
  0
ARC
  5
7F
330
1F
100
AcDbEntity
  8
0
  6
Continuous
 62
     7
370
    15
100
AcDbCircle
 10
-197.9415273489
 20
2307.1758661684
 30
0.0
 40
1.0
100
AcDbArc
 50
180.0
 51
270.0
  0
ARC
  5
80
330
1F
100
AcDbEntity
  8
0
  6
Continuous
 62
     7
370
    15
100
AcDbCircle
 10
-172.4415273489
 20
2324.1758661684
 30
0.0
 40
0.5
100
AcDbArc
 50
0.0
 51
90.0
  0
ARC
  5
81
330
1F
100
AcDbEntity
  8
0
  6
Continuous
 62
     7
370
    15
100
AcDbCircle
 10
-165.9415273489
 20
2415.1758661684
 30
0.0
 40
1.0
100
AcDbArc
 50
0.0
 51
90.0
  0
ARC
  5
82
330
1F
100
AcDbEntity
  8
0
  6
Continuous
 62
     7
370
    15
100
AcDbCircle
 10
-191.4415273489
 20
2315.1758661684
 30
0.0
 40
0.5
100
AcDbArc
 50
180.0
 51
270.0
  0
ARC
  5
83
330
1F
100
AcDbEntity
  8
0
  6
Continuous
 62
     7
370
    15
100
AcDbCircle
 10
-197.9415273489
 20
2415.1758661684
 30
0.0
 40
1.0
100
AcDbArc
 50
90.0
 51
180.0
  0
LWPOLYLINE
  5
84
330
1F
100
AcDbEntity
  8
0
  6
Continuous
 62
     7
370
    15
100
AcDbPolyline
 90
       10
 70
   128
 43
0.0
 10
-193.4415299361
 20
2311.67586982
 10
-193.3547008698
 20
2311.7626914357
 10
-193.2705242102
 20
2311.8468755459
 10
-193.1915331547
 20
2311.9258666014
 10
-193.1201267903
 20
2311.9972580646
 10
-193.0585104888
 20
2312.0588892673
 10
-193.008517093
 20
2312.1088752126
 10
-192.9716814225
 20
2312.145710883
 10
-192.9491210644
 20
2312.1682712411
 10
-192.9415214722
 20
2312.1758633827
  0
LINE
  5
85
330
1F
100
AcDbEntity
  8
0
  6
Continuous
 62
     7
370
    15
100
AcDbLine
 10
-170.9415215914
 20
2312.1758633827
 30
0.0
 11
-192.9415214722
 21
2312.1758633827
 31
0.0
  0
LWPOLYLINE
  5
86
330
1F
100
AcDbEntity
  8
0
  6
Continuous
 62
     7
370
    15
100
AcDbPolyline
 90
       10
 70
   128
 43
0.0
 10
-170.9415215914
 20
2312.1758633827
 10
-170.9339369004
 20
2312.1682712411
 10
-170.9113765423
 20
2312.145710883
 10
-170.8745408719
 20
2312.1088752126
 10
-170.8245474761
 20
2312.0588892673
 10
-170.7629162734
 20
2311.9972580646
 10
-170.6915248101
 20
2311.9258666014
 10
-170.6125337546
 20
2311.8468755459
 10
-170.528357095
 20
2311.7626914357
 10
-170.4415280287
 20
2311.67586982
  0
LINE
  5
87
330
1F
100
AcDbEntity
  8
0
  6
Continuous
 62
     7
370
    15
100
AcDbLine
 10
-170.9415215914
 20
2410.1758682703
 30
0.0
 11
-170.9415215914
 21
2312.1758633827
 31
0.0
  0
LWPOLYLINE
  5
88
330
1F
100
AcDbEntity
  8
0
  6
Continuous
 62
     7
370
    15
100
AcDbPolyline
 90
       10
 70
   128
 43
0.0
 10
-170.9415215914
 20
2410.1758682703
 10
-170.9339369004
 20
2410.1834678625
 10
-170.9113765423
 20
2410.2060133194
 10
-170.8745408719
 20
2410.2428489898
 10
-170.8245474761
 20
2410.2928423857
 10
-170.7629162734
 20
2410.3544735883
 10
-170.6915248101
 20
2410.4258650516
 10
-170.6125337546
 20
2410.5048561071
 10
-170.528357095
 20
2410.5890476679
 10
-170.4415280287
 20
2410.675861833
  0
LINE
  5
89
330
1F
100
AcDbEntity
  8
0
  6
Continuous
 62
     7
370
    15
100
AcDbLine
 10
-192.9415214722
 20
2312.1758633827
 30
0.0
 11
-192.9415214722
 21
2410.1758682703
 31
0.0
  0
LWPOLYLINE
  5
8A
330
1F
100
AcDbEntity
  8
0
  6
Continuous
 62
     7
370
    15
100
AcDbPolyline
 90
       10
 70
   128
 43
0.0
 10
-192.9415214722
 20
2410.1758682703
 10
-192.9491210644
 20
2410.1834678625
 10
-192.9716814225
 20
2410.2060133194
 10
-193.008517093
 20
2410.2428489898
 10
-193.0585104888
 20
2410.2928423857
 10
-193.1201267903
 20
2410.3544735883
 10
-193.1915331547
 20
2410.4258650516
 10
-193.2705242102
 20
2410.5048561071
 10
-193.3547008698
 20
2410.5890476679
 10
-193.4415299361
 20
2410.675861833
  0
LINE
  5
8B
330
1F
100
AcDbEntity
  8
0
  6
Continuous
 62
     7
370
    15
100
AcDbLine
 10
-171.941523618
 20
2325.1758599256
 30
0.0
 11
-191.9415343468
 21
2325.1758599256
 31
0.0
  0
LINE
  5
8C
330
1F
100
AcDbEntity
  8
0
  6
Continuous
 62
     7
370
    15
100
AcDbLine
 10
-192.9415214722
 20
2410.1758682703
 30
0.0
 11
-170.9415215914
 21
2410.1758682703
 31
0.0
  0
LINE
  5
8D
330
1F
100
AcDbEntity
  8
0
  6
Continuous
 62
     7
370
    15
100
AcDbLine
 10
-250.9415198033
 20
1524.1758459781
 30
0.0
 11
-250.9415198033
 21
3198.175811169
 31
0.0
  0
LINE
  5
8E
330
1F
100
AcDbEntity
  8
0
  6
Continuous
 62
     7
370
    15
100
AcDbLine
 10
-250.9415198033
 20
3198.175811169
 30
0.0
 11
503.0584585006
 21
3198.175811169
 31
0.0
  0
LINE
  5
8F
330
1F
100
AcDbEntity
  8
0
  6
Continuous
 62
     7
370
    15
100
AcDbLine
 10
503.0584585006
 20
1524.1758459781
 30
0.0
 11
-250.9415198033
 21
1524.1758459781
 31
0.0
  0
LINE
  5
90
330
1F
100
AcDbEntity
  8
0
  6
Continuous
 62
     7
370
    15
100
AcDbLine
 10
503.0584585006
 20
3198.175811169
 30
0.0
 11
503.0584585006
 21
1524.1758459781
 31
0.0
  0
LINE
  5
91
330
1F
100
AcDbEntity
  8
0
  6
Continuous
 62
     7
370
    15
100
AcDbLine
 10
626.5584480102
 20
3261.1758941387
 30
0.0
 11
626.5584480102
 21
3461.1758226131
 31
0.0
  0
LINE
  5
92
330
1F
100
AcDbEntity
  8
0
  6
Continuous
 62
     7
370
    15
100
AcDbLine
 10
-373.4415221875
 20
3261.1758941387
 30
0.0
 11
626.5584480102
 21
3261.1758941387
 31
0.0
  0
LINE
  5
93
330
1F
100
AcDbEntity
  8
0
  6
Continuous
 62
     7
370
    15
100
AcDbLine
 10
626.5584480102
 20
3461.1758226131
 30
0.0
 11
-373.4415221875
 21
3461.1758226131
 31
0.0
  0
LINE
  5
94
330
1F
100
AcDbEntity
  8
0
  6
Continuous
 62
     7
370
    15
100
AcDbLine
 10
-373.4415221875
 20
3461.1758226131
 30
0.0
 11
-373.4415221875
 21
3261.1758941387
 31
0.0
  0
LINE
  5
95
330
1F
100
AcDbEntity
  8
0
  6
Continuous
 62
     7
370
    15
100
AcDbLine
 10
-253.4415174191
 20
3201.1758321499
 30
0.0
 11
-253.4415174191
 21
1521.175884602
 31
0.0
  0
LINE
  5
96
330
1F
100
AcDbEntity
  8
0
  6
Continuous
 62
     7
370
    15
100
AcDbLine
 10
-253.4415174191
 20
1521.175884602
 30
0.0
 11
506.5584730441
 21
1521.175884602
 31
0.0
  0
LINE
  5
97
330
1F
100
AcDbEntity
  8
0
  6
Continuous
 62
     7
370
    15
100
AcDbLine
 10
506.5584730441
 20
1521.175884602
 30
0.0
 11
506.5584730441
 21
3201.1758321499
 31
0.0
  0
LINE
  5
98
330
1F
100
AcDbEntity
  8
0
  6
Continuous
 62
     7
370
    15
100
AcDbLine
 10
506.5584730441
 20
3201.1758321499
 30
0.0
 11
-253.4415174191
 21
3201.1758321499
 31
0.0
  0
LINE
  5
99
330
1F
100
AcDbEntity
  8
0
  6
Continuous
 62
     7
370
    15
100
AcDbLine
 10
626.5584480102
 20
3261.1758941387
 30
0.0
 11
626.5584480102
 21
1461.1758822178
 31
0.0
  0
LINE
  5
9A
330
1F
100
AcDbEntity
  8
0
  6
Continuous
 62
     7
370
    15
100
AcDbLine
 10
626.5584480102
 20
1461.1758822178
 30
0.0
 11
-373.4415221875
 21
1461.1758822178
 31
0.0
  0
LINE
  5
9B
330
1F
100
AcDbEntity
  8
0
  6
Continuous
 62
     7
370
    15
100
AcDbLine
 10
-373.4415221875
 20
1461.1758822178
 30
0.0
 11
-373.4415221875
 21
3261.1758941387
 31
0.0
  0
LINE
  5
9C
330
1F
100
AcDbEntity
  8
0
  6
Continuous
 62
     7
370
    15
100
AcDbLine
 10
482.0584606464
 20
1521.175884602
 30
0.0
 11
482.0584606464
 21
1524.1758459781
 31
0.0
  0
LINE
  5
9D
330
1F
100
AcDbEntity
  8
0
  6
Continuous
 62
     7
370
    15
100
AcDbLine
 10
482.0584606464
 20
3198.175811169
 30
0.0
 11
482.0584606464
 21
3201.1758321499
 31
0.0
  0
LINE
  5
9E
330
1F
100
AcDbEntity
  8
0
  6
Continuous
 62
     7
370
    15
100
AcDbLine
 10
-228.9415199225
 20
3201.1758321499
 30
0.0
 11
-228.9415199225
 21
3198.175811169
 31
0.0
  0
LINE
  5
9F
330
1F
100
AcDbEntity
  8
0
  6
Continuous
 62
     7
370
    15
100
AcDbLine
 10
-228.9415199225
 20
1524.1758459781
 30
0.0
 11
-228.9415199225
 21
1521.175884602
 31
0.0
  0
DIMENSION
  5
A0
330
1F
100
AcDbEntity
  8
0
  6
Continuous
 62
     7
370
     0
100
AcDbDimension
  2
_D
 10
626.5584726512
 20
1337.1758411687
 30
0.0
 11
148.8690381098
 21
1337.1758411686
 31
0.0
 70
   160
  1
<>
 71
     2
 42
-1.0
  3
SLDDIMSTYLE0
100
AcDbAlignedDimension
 13
-373.4415273489
 23
1461.1758661687
 33
0.0
 14
626.5584726512
 24
1461.1758661686
 34
0.0
 50
0.0
100
AcDbRotatedDimension
  0
DIMENSION
  5
AC
330
1F
100
AcDbEntity
  8
0
  6
Continuous
 62
     7
370
     0
100
AcDbDimension
  2
_D_1
 10
-485.4416305018
 20
3261.1758661687
 30
0.0
 11
-485.4416305018
 21
2437.1727869865
 31
0.0
 70
   160
  1
<>
 71
     2
 42
-1.0
  3
SLDDIMSTYLE0
100
AcDbAlignedDimension
 13
-373.4415273489
 23
1461.1758661687
 33
0.0
 14
-373.4415273489
 24
3261.1758661687
 34
0.0
 50
90.0
100
AcDbRotatedDimension
  0
DIMENSION
  5
B6
330
1F
100
AcDbEntity
  8
0
  6
Continuous
 62
     7
370
     0
100
AcDbDimension
  2
_D_2
 10
-583.2677730628
 20
3461.1758661686
 30
0.0
 11
-583.2677730628
 21
2437.1727869865
 31
0.0
 70
   160
  1
<>
 71
     2
 42
-1.0
  3
SLDDIMSTYLE0
100
AcDbAlignedDimension
 13
-373.4415273489
 23
1461.1758661687
 33
0.0
 14
-373.4415273489
 24
3461.1758661686
 34
0.0
 50
90.0
100
AcDbRotatedDimension
  0
LINE
  5
C0
330
1F
100
AcDbEntity
  8
0
  6
Continuous
 62
     7
370
    15
100
AcDbLine
 10
1736.9899546596
 20
2307.1758681511
 30
0.0
 11
1736.9899546596
 21
2415.1758635019
 31
0.0
  0
LINE
  5
C1
330
1F
100
AcDbEntity
  8
0
  6
Continuous
 62
     7
370
    15
100
AcDbLine
 10
1735.9899079295
 20
2306.1758661245
 30
0.0
 11
1734.9898611995
 21
2306.1758661245
 31
0.0
  0
LINE
  5
C2
330
1F
100
AcDbEntity
  8
0
  6
Continuous
 62
     7
370
    15
100
AcDbLine
 10
1734.9898611995
 20
2416.1758655285
 30
0.0
 11
1735.9899079295
 21
2416.1758655285
 31
0.0
  0
ARC
  5
C3
330
1F
100
AcDbEntity
  8
0
  6
Continuous
 62
     7
370
    15
100
AcDbCircle
 10
1735.9899018896
 20
2415.1758661684
 30
0.0
 40
1.0
100
AcDbArc
 50
0.0
 51
90.0
  0
ARC
  5
C4
330
1F
100
AcDbEntity
  8
0
  6
Continuous
 62
     7
370
    15
100
AcDbCircle
 10
1735.9899018896
 20
2307.1758661684
 30
0.0
 40
1.0
100
AcDbArc
 50
270.0
 51
0.0
  0
LINE
  5
C5
330
1F
100
AcDbEntity
  8
0
  6
Continuous
 62
     7
370
    15
100
AcDbLine
 10
1724.9898707362
 20
3460.1758950924
 30
0.0
 11
1724.9898707362
 21
3461.1758226131
 31
0.0
  0
LINE
  5
C6
330
1F
100
AcDbEntity
  8
0
  6
Continuous
 62
     7
370
    15
100
AcDbLine
 10
1724.9898707362
 20
3461.1758226131
 30
0.0
 11
1734.9898611995
 21
3461.1758226131
 31
0.0
  0
LINE
  5
C7
330
1F
100
AcDbEntity
  8
0
  6
Continuous
 62
     7
370
    15
100
AcDbLine
 10
1734.9898611995
 20
3461.1758226131
 30
0.0
 11
1734.9898611995
 21
3261.1758941387
 31
0.0
  0
LINE
  5
C8
330
1F
100
AcDbEntity
  8
0
  6
Continuous
 62
     7
370
    15
100
AcDbLine
 10
1734.9898611995
 20
3261.1758941387
 30
0.0
 11
1709.9898850413
 21
3261.1758941387
 31
0.0
  0
LINE
  5
C9
330
1F
100
AcDbEntity
  8
0
  6
Continuous
 62
     7
370
    15
100
AcDbLine
 10
1709.9898850413
 20
3261.1758941387
 30
0.0
 11
1709.9898850413
 21
3363.1758922313
 31
0.0
  0
LINE
  5
CA
330
1F
100
AcDbEntity
  8
0
  6
Continuous
 62
     7
370
    15
100
AcDbLine
 10
1709.9898850413
 20
3363.1758922313
 30
0.0
 11
1724.9898707362
 21
3460.1758950924
 31
0.0
  0
LINE
  5
CB
330
1F
100
AcDbEntity
  8
0
  6
Continuous
 62
     7
370
    15
100
AcDbLine
 10
1734.9898611995
 20
1461.1758822178
 30
0.0
 11
1734.9898611995
 21
3261.1758941387
 31
0.0
  0
LINE
  5
CC
330
1F
100
AcDbEntity
  8
0
  6
Continuous
 62
     7
370
    15
100
AcDbLine
 10
1734.9898611995
 20
1461.1758822178
 30
0.0
 11
1134.9898969623
 21
1461.1758822178
 31
0.0
  0
LINE
  5
CD
330
1F
100
AcDbEntity
  8
0
  6
Continuous
 62
     7
370
    15
100
AcDbLine
 10
1134.9898969623
 20
1461.1758822178
 30
0.0
 11
1134.9898969623
 21
3261.1758941387
 31
0.0
  0
LINE
  5
CE
330
1F
100
AcDbEntity
  8
0
  6
Continuous
 62
     7
370
    15
100
AcDbLine
 10
1134.9898969623
 20
3261.1758941387
 30
0.0
 11
1734.9898611995
 21
3261.1758941387
 31
0.0
  0
LINE
  5
CF
330
1F
100
AcDbEntity
  8
0
  6
Continuous
 62
     7
370
    15
100
AcDbLine
 10
1150.4899060222
 20
1726.6758614754
 30
0.0
 11
1150.4899060222
 21
1695.6758731579
 31
0.0
  0
ARC
  5
D0
330
1F
100
AcDbEntity
  8
0
  6
Continuous
 62
     7
370
    15
100
AcDbCircle
 10
1154.9899018895
 20
1695.6758661687
 30
0.0
 40
4.500000000000227
100
AcDbArc
 50
180.0
 51
0.0
  0
LINE
  5
D1
330
1F
100
AcDbEntity
  8
0
  6
Continuous
 62
     7
370
    15
100
AcDbLine
 10
1159.48990936
 20
1695.6758731579
 30
0.0
 11
1159.48990936
 21
1726.6758614754
 31
0.0
  0
ARC
  5
D2
330
1F
100
AcDbEntity
  8
0
  6
Continuous
 62
     7
370
    15
100
AcDbCircle
 10
1154.9899018895
 20
1726.6758661687
 30
0.0
 40
4.500000000000227
100
AcDbArc
 50
0.0
 51
180.0
  0
LINE
  5
D3
330
1F
100
AcDbEntity
  8
0
  6
Continuous
 62
     7
370
    15
100
AcDbLine
 10
1150.4899060222
 20
3026.675843594
 30
0.0
 11
1150.4899060222
 21
2995.6758850788
 31
0.0
  0
ARC
  5
D4
330
1F
100
AcDbEntity
  8
0
  6
Continuous
 62
     7
370
    15
100
AcDbCircle
 10
1154.9899018895
 20
2995.6758661687
 30
0.0
 40
4.500000000000227
100
AcDbArc
 50
180.0
 51
360.0
  0
LINE
  5
D5
330
1F
100
AcDbEntity
  8
0
  6
Continuous
 62
     7
370
    15
100
AcDbLine
 10
1159.48990936
 20
2995.6758850788
 30
0.0
 11
1159.48990936
 21
3026.675843594
 31
0.0
  0
ARC
  5
D6
330
1F
100
AcDbEntity
  8
0
  6
Continuous
 62
     7
370
    15
100
AcDbCircle
 10
1154.9899018895
 20
3026.6758661687
 30
0.0
 40
4.500000000000227
100
AcDbArc
 50
0.0
 51
180.0
  0
LINE
  5
D7
330
1F
100
AcDbEntity
  8
0
  6
Continuous
 62
     7
370
    15
100
AcDbLine
 10
1150.4899060222
 20
2376.6758674358
 30
0.0
 11
1150.4899060222
 21
2345.6758642172
 31
0.0
  0
ARC
  5
D8
330
1F
100
AcDbEntity
  8
0
  6
Continuous
 62
     7
370
    15
100
AcDbCircle
 10
1154.9899018895
 20
2345.6758661687
 30
0.0
 40
4.5
100
AcDbArc
 50
180.0
 51
0.0
  0
LINE
  5
D9
330
1F
100
AcDbEntity
  8
0
  6
Continuous
 62
     7
370
    15
100
AcDbLine
 10
1159.48990936
 20
2345.6758642172
 30
0.0
 11
1159.48990936
 21
2376.6758674358
 31
0.0
  0
ARC
  5
DA
330
1F
100
AcDbEntity
  8
0
  6
Continuous
 62
     7
370
    15
100
AcDbCircle
 10
1154.9899018895
 20
2376.6758661687
 30
0.0
 40
4.5
100
AcDbArc
 50
0.0
 51
180.0
  0
ARC
  5
DB
330
1F
100
AcDbEntity
  8
0
  6
Continuous
 62
     7
370
    15
100
AcDbCircle
 10
1714.9899018896
 20
2995.6758661687
 30
0.0
 40
4.5
100
AcDbArc
 50
180.0
 51
0.0
  0
LINE
  5
DC
330
1F
100
AcDbEntity
  8
0
  6
Continuous
 62
     7
370
    15
100
AcDbLine
 10
1719.4899117442
 20
2995.6758850788
 30
0.0
 11
1719.4899117442
 21
3026.675843594
 31
0.0
  0
ARC
  5
DD
330
1F
100
AcDbEntity
  8
0
  6
Continuous
 62
     7
370
    15
100
AcDbCircle
 10
1714.9899018896
 20
3026.6758661687
 30
0.0
 40
4.5
100
AcDbArc
 50
0.0
 51
180.0
  0
LINE
  5
DE
330
1F
100
AcDbEntity
  8
0
  6
Continuous
 62
     7
370
    15
100
AcDbLine
 10
1710.4898488017
 20
3026.675843594
 30
0.0
 11
1710.4898488017
 21
2995.6758850788
 31
0.0
  0
ARC
  5
DF
330
1F
100
AcDbEntity
  8
0
  6
Continuous
 62
     7
370
    15
100
AcDbCircle
 10
1714.9899018896
 20
1695.6758661687
 30
0.0
 40
4.5
100
AcDbArc
 50
180.0
 51
0.0
  0
LINE
  5
E0
330
1F
100
AcDbEntity
  8
0
  6
Continuous
 62
     7
370
    15
100
AcDbLine
 10
1719.4899117442
 20
1695.6758731579
 30
0.0
 11
1719.4899117442
 21
1726.6758614754
 31
0.0
  0
ARC
  5
E1
330
1F
100
AcDbEntity
  8
0
  6
Continuous
 62
     7
370
    15
100
AcDbCircle
 10
1714.9899018896
 20
1726.6758661687
 30
0.0
 40
4.5
100
AcDbArc
 50
0.0
 51
180.0
  0
LINE
  5
E2
330
1F
100
AcDbEntity
  8
0
  6
Continuous
 62
     7
370
    15
100
AcDbLine
 10
1710.4898488017
 20
1726.6758614754
 30
0.0
 11
1710.4898488017
 21
1695.6758731579
 31
0.0
  0
ARC
  5
E3
330
1F
100
AcDbEntity
  8
0
  6
Continuous
 62
     7
370
    15
100
AcDbCircle
 10
1714.9899018896
 20
2345.6758661687
 30
0.0
 40
4.5
100
AcDbArc
 50
180.0
 51
0.0
  0
LINE
  5
E4
330
1F
100
AcDbEntity
  8
0
  6
Continuous
 62
     7
370
    15
100
AcDbLine
 10
1719.4899117442
 20
2345.6758642172
 30
0.0
 11
1719.4899117442
 21
2376.6758674358
 31
0.0
  0
ARC
  5
E5
330
1F
100
AcDbEntity
  8
0
  6
Continuous
 62
     7
370
    15
100
AcDbCircle
 10
1714.9899018896
 20
2376.6758661687
 30
0.0
 40
4.5
100
AcDbArc
 50
0.0
 51
180.0
  0
LINE
  5
E6
330
1F
100
AcDbEntity
  8
0
  6
Continuous
 62
     7
370
    15
100
AcDbLine
 10
1710.4898488017
 20
2376.6758674358
 30
0.0
 11
1710.4898488017
 21
2345.6758642172
 31
0.0
  0
LINE
  5
E7
330
1F
100
AcDbEntity
  8
0
  6
Continuous
 62
     7
370
    15
100
AcDbLine
 10
1694.9898993464
 20
3203.1759256099
 30
0.0
 11
1694.9898993464
 21
3259.1759198879
 31
0.0
  0
LINE
  5
E8
330
1F
100
AcDbEntity
  8
0
  6
Continuous
 62
     7
370
    15
100
AcDbLine
 10
1694.9898993464
 20
3259.1759198879
 30
0.0
 11
1174.9899184199
 21
3259.1759198879
 31
0.0
  0
LINE
  5
E9
330
1F
100
AcDbEntity
  8
0
  6
Continuous
 62
     7
370
    15
100
AcDbLine
 10
1174.9899184199
 20
3259.1759198879
 30
0.0
 11
1174.9899184199
 21
3203.1759256099
 31
0.0
  0
LINE
  5
EA
330
1F
100
AcDbEntity
  8
0
  6
Continuous
 62
     7
370
    15
100
AcDbLine
 10
1174.9899184199
 20
3203.1759256099
 30
0.0
 11
1194.9898993464
 21
3203.1759256099
 31
0.0
  0
LINE
  5
EB
330
1F
100
AcDbEntity
  8
0
  6
Continuous
 62
     7
370
    15
100
AcDbLine
 10
1194.9898993464
 20
3203.1759256099
 30
0.0
 11
1194.9898993464
 21
3201.1758321499
 31
0.0
  0
LINE
  5
EC
330
1F
100
AcDbEntity
  8
0
  6
Continuous
 62
     7
370
    15
100
AcDbLine
 10
1194.9898993464
 20
3201.1758321499
 30
0.0
 11
1174.9899184199
 21
3201.1758321499
 31
0.0
  0
LINE
  5
ED
330
1F
100
AcDbEntity
  8
0
  6
Continuous
 62
     7
370
    15
100
AcDbLine
 10
1174.9899184199
 20
3201.1758321499
 30
0.0
 11
1174.9899184199
 21
2681.1758810257
 31
0.0
  0
LINE
  5
EE
330
1F
100
AcDbEntity
  8
0
  6
Continuous
 62
     7
370
    15
100
AcDbLine
 10
1174.9899184199
 20
2681.1758810257
 30
0.0
 11
1694.9898993464
 21
2681.1758810257
 31
0.0
  0
LINE
  5
EF
330
1F
100
AcDbEntity
  8
0
  6
Continuous
 62
     7
370
    15
100
AcDbLine
 10
1694.9898993464
 20
2681.1758810257
 30
0.0
 11
1694.9898993464
 21
3201.1758321499
 31
0.0
  0
LINE
  5
F0
330
1F
100
AcDbEntity
  8
0
  6
Continuous
 62
     7
370
    15
100
AcDbLine
 10
1694.9898993464
 20
3201.1758321499
 30
0.0
 11
1674.9899184199
 21
3201.1758321499
 31
0.0
  0
LINE
  5
F1
330
1F
100
AcDbEntity
  8
0
  6
Continuous
 62
     7
370
    15
100
AcDbLine
 10
1674.9899184199
 20
3201.1758321499
 30
0.0
 11
1674.9899184199
 21
3203.1759256099
 31
0.0
  0
LINE
  5
F2
330
1F
100
AcDbEntity
  8
0
  6
Continuous
 62
     7
370
    15
100
AcDbLine
 10
1674.9899184199
 20
3203.1759256099
 30
0.0
 11
1694.9898993464
 21
3203.1759256099
 31
0.0
  0
LINE
  5
F3
330
1F
100
AcDbEntity
  8
0
  6
Continuous
 62
     7
370
    15
100
AcDbLine
 10
1694.9898993464
 20
2043.1758695816
 30
0.0
 11
1694.9898993464
 21
2099.1758638595
 31
0.0
  0
LINE
  5
F4
330
1F
100
AcDbEntity
  8
0
  6
Continuous
 62
     7
370
    15
100
AcDbLine
 10
1694.9898993464
 20
2099.1758638595
 30
0.0
 11
1674.9899184199
 21
2099.1758638595
 31
0.0
  0
LINE
  5
F5
330
1F
100
AcDbEntity
  8
0
  6
Continuous
 62
     7
370
    15
100
AcDbLine
 10
1674.9899184199
 20
2099.1758638595
 30
0.0
 11
1674.9899184199
 21
2101.1758679127
 31
0.0
  0
LINE
  5
F6
330
1F
100
AcDbEntity
  8
0
  6
Continuous
 62
     7
370
    15
100
AcDbLine
 10
1674.9899184199
 20
2101.1758679127
 30
0.0
 11
1694.9898993464
 21
2101.1758679127
 31
0.0
  0
LINE
  5
F7
330
1F
100
AcDbEntity
  8
0
  6
Continuous
 62
     7
370
    15
100
AcDbLine
 10
1694.9898993464
 20
2101.1758679127
 30
0.0
 11
1694.9898993464
 21
2621.1758786415
 31
0.0
  0
LINE
  5
F8
330
1F
100
AcDbEntity
  8
0
  6
Continuous
 62
     7
370
    15
100
AcDbLine
 10
1694.9898993464
 20
2621.1758786415
 30
0.0
 11
1674.9899184199
 21
2621.1758786415
 31
0.0
  0
LINE
  5
F9
330
1F
100
AcDbEntity
  8
0
  6
Continuous
 62
     7
370
    15
100
AcDbLine
 10
1674.9899184199
 20
2621.1758786415
 30
0.0
 11
1674.9899184199
 21
2623.1758528923
 31
0.0
  0
LINE
  5
FA
330
1F
100
AcDbEntity
  8
0
  6
Continuous
 62
     7
370
    15
100
AcDbLine
 10
1674.9899184199
 20
2623.1758528923
 30
0.0
 11
1694.9898993464
 21
2623.1758528923
 31
0.0
  0
LINE
  5
FB
330
1F
100
AcDbEntity
  8
0
  6
Continuous
 62
     7
370
    15
100
AcDbLine
 10
1694.9898993464
 20
2623.1758528923
 30
0.0
 11
1694.9898993464
 21
2679.1758769726
 31
0.0
  0
LINE
  5
FC
330
1F
100
AcDbEntity
  8
0
  6
Continuous
 62
     7
370
    15
100
AcDbLine
 10
1694.9898993464
 20
2679.1758769726
 30
0.0
 11
1174.9899184199
 21
2679.1758769726
 31
0.0
  0
LINE
  5
FD
330
1F
100
AcDbEntity
  8
0
  6
Continuous
 62
     7
370
    15
100
AcDbLine
 10
1174.9899184199
 20
2679.1758769726
 30
0.0
 11
1174.9899184199
 21
2623.1758528923
 31
0.0
  0
LINE
  5
FE
330
1F
100
AcDbEntity
  8
0
  6
Continuous
 62
     7
370
    15
100
AcDbLine
 10
1174.9899184199
 20
2623.1758528923
 30
0.0
 11
1194.9898993464
 21
2623.1758528923
 31
0.0
  0
LINE
  5
FF
330
1F
100
AcDbEntity
  8
0
  6
Continuous
 62
     7
370
    15
100
AcDbLine
 10
1194.9898993464
 20
2623.1758528923
 30
0.0
 11
1194.9898993464
 21
2621.1758786415
 31
0.0
  0
LINE
  5
100
330
1F
100
AcDbEntity
  8
0
  6
Continuous
 62
     7
370
    15
100
AcDbLine
 10
1194.9898993464
 20
2621.1758786415
 30
0.0
 11
1174.9899184199
 21
2621.1758786415
 31
0.0
  0
LINE
  5
101
330
1F
100
AcDbEntity
  8
0
  6
Continuous
 62
     7
370
    15
100
AcDbLine
 10
1174.9899184199
 20
2621.1758786415
 30
0.0
 11
1174.9899184199
 21
2101.1758679127
 31
0.0
  0
LINE
  5
102
330
1F
100
AcDbEntity
  8
0
  6
Continuous
 62
     7
370
    15
100
AcDbLine
 10
1174.9899184199
 20
2101.1758679127
 30
0.0
 11
1194.9898993464
 21
2101.1758679127
 31
0.0
  0
LINE
  5
103
330
1F
100
AcDbEntity
  8
0
  6
Continuous
 62
     7
370
    15
100
AcDbLine
 10
1194.9898993464
 20
2101.1758679127
 30
0.0
 11
1194.9898993464
 21
2099.1758638595
 31
0.0
  0
LINE
  5
104
330
1F
100
AcDbEntity
  8
0
  6
Continuous
 62
     7
370
    15
100
AcDbLine
 10
1194.9898993464
 20
2099.1758638595
 30
0.0
 11
1174.9899184199
 21
2099.1758638595
 31
0.0
  0
LINE
  5
105
330
1F
100
AcDbEntity
  8
0
  6
Continuous
 62
     7
370
    15
100
AcDbLine
 10
1174.9899184199
 20
2099.1758638595
 30
0.0
 11
1174.9899184199
 21
2043.1758695816
 31
0.0
  0
LINE
  5
106
330
1F
100
AcDbEntity
  8
0
  6
Continuous
 62
     7
370
    15
100
AcDbLine
 10
1174.9899184199
 20
2043.1758695816
 30
0.0
 11
1694.9898993464
 21
2043.1758695816
 31
0.0
  0
LINE
  5
107
330
1F
100
AcDbEntity
  8
0
  6
Continuous
 62
     7
370
    15
100
AcDbLine
 10
1694.9898993464
 20
1463.1758564686
 30
0.0
 11
1694.9898993464
 21
1519.1758507465
 31
0.0
  0
LINE
  5
108
330
1F
100
AcDbEntity
  8
0
  6
Continuous
 62
     7
370
    15
100
AcDbLine
 10
1694.9898993464
 20
1519.1758507465
 30
0.0
 11
1674.9899184199
 21
1519.1758507465
 31
0.0
  0
LINE
  5
109
330
1F
100
AcDbEntity
  8
0
  6
Continuous
 62
     7
370
    15
100
AcDbLine
 10
1674.9899184199
 20
1519.1758507465
 30
0.0
 11
1674.9899184199
 21
1521.175884602
 31
0.0
  0
LINE
  5
10A
330
1F
100
AcDbEntity
  8
0
  6
Continuous
 62
     7
370
    15
100
AcDbLine
 10
1674.9899184199
 20
1521.175884602
 30
0.0
 11
1694.9898993464
 21
1521.175884602
 31
0.0
  0
LINE
  5
10B
330
1F
100
AcDbEntity
  8
0
  6
Continuous
 62
     7
370
    15
100
AcDbLine
 10
1694.9898993464
 20
1521.175884602
 30
0.0
 11
1694.9898993464
 21
2041.1758655285
 31
0.0
  0
LINE
  5
10C
330
1F
100
AcDbEntity
  8
0
  6
Continuous
 62
     7
370
    15
100
AcDbLine
 10
1694.9898993464
 20
2041.1758655285
 30
0.0
 11
1174.9899184199
 21
2041.1758655285
 31
0.0
  0
LINE
  5
10D
330
1F
100
AcDbEntity
  8
0
  6
Continuous
 62
     7
370
    15
100
AcDbLine
 10
1174.9899184199
 20
2041.1758655285
 30
0.0
 11
1174.9899184199
 21
1521.175884602
 31
0.0
  0
LINE
  5
10E
330
1F
100
AcDbEntity
  8
0
  6
Continuous
 62
     7
370
    15
100
AcDbLine
 10
1174.9899184199
 20
1521.175884602
 30
0.0
 11
1194.9898993464
 21
1521.175884602
 31
0.0
  0
LINE
  5
10F
330
1F
100
AcDbEntity
  8
0
  6
Continuous
 62
     7
370
    15
100
AcDbLine
 10
1194.9898993464
 20
1521.175884602
 30
0.0
 11
1194.9898993464
 21
1519.1758507465
 31
0.0
  0
LINE
  5
110
330
1F
100
AcDbEntity
  8
0
  6
Continuous
 62
     7
370
    15
100
AcDbLine
 10
1194.9898993464
 20
1519.1758507465
 30
0.0
 11
1174.9899184199
 21
1519.1758507465
 31
0.0
  0
LINE
  5
111
330
1F
100
AcDbEntity
  8
0
  6
Continuous
 62
     7
370
    15
100
AcDbLine
 10
1174.9899184199
 20
1519.1758507465
 30
0.0
 11
1174.9899184199
 21
1463.1758564686
 31
0.0
  0
LINE
  5
112
330
1F
100
AcDbEntity
  8
0
  6
Continuous
 62
     7
370
    15
100
AcDbLine
 10
1174.9899184199
 20
1463.1758564686
 30
0.0
 11
1694.9898993464
 21
1463.1758564686
 31
0.0
  0
LINE
  5
113
330
1F
100
AcDbEntity
  8
0
  6
Continuous
 62
     7
370
    15
100
AcDbLine
 10
1214.989880273
 20
3201.1758321499
 30
0.0
 11
1214.989880273
 21
3203.1759256099
 31
0.0
  0
LINE
  5
114
330
1F
100
AcDbEntity
  8
0
  6
Continuous
 62
     7
370
    15
100
AcDbLine
 10
1194.9898993464
 20
3203.1759256099
 30
0.0
 11
1214.989880273
 21
3203.1759256099
 31
0.0
  0
LINE
  5
115
330
1F
100
AcDbEntity
  8
0
  6
Continuous
 62
     7
370
    15
100
AcDbLine
 10
1194.9898993464
 20
3201.1758321499
 30
0.0
 11
1214.989880273
 21
3201.1758321499
 31
0.0
  0
LINE
  5
116
330
1F
100
AcDbEntity
  8
0
  6
Continuous
 62
     7
370
    15
100
AcDbLine
 10
1654.9899374934
 20
3203.1759256099
 30
0.0
 11
1654.9899374934
 21
3201.1758321499
 31
0.0
  0
LINE
  5
117
330
1F
100
AcDbEntity
  8
0
  6
Continuous
 62
     7
370
    15
100
AcDbLine
 10
1654.9899374934
 20
3203.1759256099
 30
0.0
 11
1674.9899184199
 21
3203.1759256099
 31
0.0
  0
LINE
  5
118
330
1F
100
AcDbEntity
  8
0
  6
Continuous
 62
     7
370
    15
100
AcDbLine
 10
1654.9899374934
 20
3201.1758321499
 30
0.0
 11
1674.9899184199
 21
3201.1758321499
 31
0.0
  0
LINE
  5
119
330
1F
100
AcDbEntity
  8
0
  6
Continuous
 62
     7
370
    15
100
AcDbLine
 10
1214.989880273
 20
1519.1758507465
 30
0.0
 11
1214.989880273
 21
1521.175884602
 31
0.0
  0
LINE
  5
11A
330
1F
100
AcDbEntity
  8
0
  6
Continuous
 62
     7
370
    15
100
AcDbLine
 10
1214.989880273
 20
1519.1758507465
 30
0.0
 11
1194.9898993464
 21
1519.1758507465
 31
0.0
  0
LINE
  5
11B
330
1F
100
AcDbEntity
  8
0
  6
Continuous
 62
     7
370
    15
100
AcDbLine
 10
1214.989880273
 20
1521.175884602
 30
0.0
 11
1194.9898993464
 21
1521.175884602
 31
0.0
  0
LINE
  5
11C
330
1F
100
AcDbEntity
  8
0
  6
Continuous
 62
     7
370
    15
100
AcDbLine
 10
1214.989880273
 20
2099.1758638595
 30
0.0
 11
1214.989880273
 21
2101.1758679127
 31
0.0
  0
LINE
  5
11D
330
1F
100
AcDbEntity
  8
0
  6
Continuous
 62
     7
370
    15
100
AcDbLine
 10
1214.989880273
 20
2101.1758679127
 30
0.0
 11
1194.9898993464
 21
2101.1758679127
 31
0.0
  0
LINE
  5
11E
330
1F
100
AcDbEntity
  8
0
  6
Continuous
 62
     7
370
    15
100
AcDbLine
 10
1214.989880273
 20
2099.1758638595
 30
0.0
 11
1194.9898993464
 21
2099.1758638595
 31
0.0
  0
LINE
  5
11F
330
1F
100
AcDbEntity
  8
0
  6
Continuous
 62
     7
370
    15
100
AcDbLine
 10
1654.9899374934
 20
1521.175884602
 30
0.0
 11
1654.9899374934
 21
1519.1758507465
 31
0.0
  0
LINE
  5
120
330
1F
100
AcDbEntity
  8
0
  6
Continuous
 62
     7
370
    15
100
AcDbLine
 10
1674.9899184199
 20
1519.1758507465
 30
0.0
 11
1654.9899374934
 21
1519.1758507465
 31
0.0
  0
LINE
  5
121
330
1F
100
AcDbEntity
  8
0
  6
Continuous
 62
     7
370
    15
100
AcDbLine
 10
1674.9899184199
 20
1521.175884602
 30
0.0
 11
1654.9899374934
 21
1521.175884602
 31
0.0
  0
LINE
  5
122
330
1F
100
AcDbEntity
  8
0
  6
Continuous
 62
     7
370
    15
100
AcDbLine
 10
1654.9899374934
 20
2101.1758679127
 30
0.0
 11
1654.9899374934
 21
2099.1758638595
 31
0.0
  0
LINE
  5
123
330
1F
100
AcDbEntity
  8
0
  6
Continuous
 62
     7
370
    15
100
AcDbLine
 10
1674.9899184199
 20
2101.1758679127
 30
0.0
 11
1654.9899374934
 21
2101.1758679127
 31
0.0
  0
LINE
  5
124
330
1F
100
AcDbEntity
  8
0
  6
Continuous
 62
     7
370
    15
100
AcDbLine
 10
1674.9899184199
 20
2099.1758638595
 30
0.0
 11
1654.9899374934
 21
2099.1758638595
 31
0.0
  0
LINE
  5
125
330
1F
100
AcDbEntity
  8
0
  6
Continuous
 62
     7
370
    15
100
AcDbLine
 10
1214.989880273
 20
2621.1758786415
 30
0.0
 11
1214.989880273
 21
2623.1758528923
 31
0.0
  0
LINE
  5
126
330
1F
100
AcDbEntity
  8
0
  6
Continuous
 62
     7
370
    15
100
AcDbLine
 10
1214.989880273
 20
2623.1758528923
 30
0.0
 11
1194.9898993464
 21
2623.1758528923
 31
0.0
  0
LINE
  5
127
330
1F
100
AcDbEntity
  8
0
  6
Continuous
 62
     7
370
    15
100
AcDbLine
 10
1194.9898993464
 20
2621.1758786415
 30
0.0
 11
1214.989880273
 21
2621.1758786415
 31
0.0
  0
LINE
  5
128
330
1F
100
AcDbEntity
  8
0
  6
Continuous
 62
     7
370
    15
100
AcDbLine
 10
1654.9899374934
 20
2623.1758528923
 30
0.0
 11
1654.9899374934
 21
2621.1758786415
 31
0.0
  0
LINE
  5
129
330
1F
100
AcDbEntity
  8
0
  6
Continuous
 62
     7
370
    15
100
AcDbLine
 10
1654.9899374934
 20
2623.1758528923
 30
0.0
 11
1674.9899184199
 21
2623.1758528923
 31
0.0
  0
LINE
  5
12A
330
1F
100
AcDbEntity
  8
0
  6
Continuous
 62
     7
370
    15
100
AcDbLine
 10
1654.9899374934
 20
2621.1758786415
 30
0.0
 11
1674.9899184199
 21
2621.1758786415
 31
0.0
  0
LINE
  5
12B
330
1F
100
AcDbEntity
  8
0
  6
Continuous
 62
     7
370
    15
100
AcDbLine
 10
1214.989880273
 20
3203.1759256099
 30
0.0
 11
1654.9899374934
 21
3203.1759256099
 31
0.0
  0
LINE
  5
12C
330
1F
100
AcDbEntity
  8
0
  6
Continuous
 62
     7
370
    15
100
AcDbLine
 10
1214.989880273
 20
3201.1758321499
 30
0.0
 11
1654.9899374934
 21
3201.1758321499
 31
0.0
  0
LINE
  5
12D
330
1F
100
AcDbEntity
  8
0
  6
Continuous
 62
     7
370
    15
100
AcDbLine
 10
1654.9899374934
 20
1519.1758507465
 30
0.0
 11
1214.989880273
 21
1519.1758507465
 31
0.0
  0
LINE
  5
12E
330
1F
100
AcDbEntity
  8
0
  6
Continuous
 62
     7
370
    15
100
AcDbLine
 10
1654.9899374934
 20
1521.175884602
 30
0.0
 11
1214.989880273
 21
1521.175884602
 31
0.0
  0
LINE
  5
12F
330
1F
100
AcDbEntity
  8
0
  6
Continuous
 62
     7
370
    15
100
AcDbLine
 10
1654.9899374934
 20
2101.1758679127
 30
0.0
 11
1214.989880273
 21
2101.1758679127
 31
0.0
  0
LINE
  5
130
330
1F
100
AcDbEntity
  8
0
  6
Continuous
 62
     7
370
    15
100
AcDbLine
 10
1654.9899374934
 20
2099.1758638595
 30
0.0
 11
1214.989880273
 21
2099.1758638595
 31
0.0
  0
LINE
  5
131
330
1F
100
AcDbEntity
  8
0
  6
Continuous
 62
     7
370
    15
100
AcDbLine
 10
1214.989880273
 20
2623.1758528923
 30
0.0
 11
1654.9899374934
 21
2623.1758528923
 31
0.0
  0
LINE
  5
132
330
1F
100
AcDbEntity
  8
0
  6
Continuous
 62
     7
370
    15
100
AcDbLine
 10
1214.989880273
 20
2621.1758786415
 30
0.0
 11
1654.9899374934
 21
2621.1758786415
 31
0.0
  0
LINE
  5
133
330
1F
100
AcDbEntity
  8
0
  6
Continuous
 62
     7
370
    15
100
AcDbLine
 10
1644.4898640605
 20
3222.1758598064
 30
0.0
 11
1675.4898821803
 21
3222.1758598064
 31
0.0
  0
ARC
  5
134
330
1F
100
AcDbEntity
  8
0
  6
Continuous
 62
     7
370
    15
100
AcDbCircle
 10
1644.4899018896
 20
3217.6758661688
 30
0.0
 40
4.500000000000909
100
AcDbArc
 50
90.0
 51
270.0
  0
LINE
  5
135
330
1F
100
AcDbEntity
  8
0
  6
Continuous
 62
     7
370
    15
100
AcDbLine
 10
1675.4898821803
 20
3213.1759160732
 30
0.0
 11
1644.4898640605
 21
3213.1759160732
 31
0.0
  0
ARC
  5
136
330
1F
100
AcDbEntity
  8
0
  6
Continuous
 62
     7
370
    15
100
AcDbCircle
 10
1675.4899018896
 20
3217.6758661688
 30
0.0
 40
4.500000000000455
100
AcDbArc
 50
270.0
 51
90.0
  0
LINE
  5
137
330
1F
100
AcDbEntity
  8
0
  6
Continuous
 62
     7
370
    15
100
AcDbLine
 10
1644.4898640605
 20
3249.1758102154
 30
0.0
 11
1675.4898821803
 21
3249.1758102154
 31
0.0
  0
ARC
  5
138
330
1F
100
AcDbEntity
  8
0
  6
Continuous
 62
     7
370
    15
100
AcDbCircle
 10
1644.4899018896
 20
3244.6758661688
 30
0.0
 40
4.500000000000909
100
AcDbArc
 50
90.0
 51
270.0
  0
LINE
  5
139
330
1F
100
AcDbEntity
  8
0
  6
Continuous
 62
     7
370
    15
100
AcDbLine
 10
1675.4898821803
 20
3240.1758664821
 30
0.0
 11
1644.4898640605
 21
3240.1758664821
 31
0.0
  0
ARC
  5
13A
330
1F
100
AcDbEntity
  8
0
  6
Continuous
 62
     7
370
    15
100
AcDbCircle
 10
1675.4899018896
 20
3244.6758661688
 30
0.0
 40
4.500000000000455
100
AcDbArc
 50
270.0
 51
90.0
  0
LINE
  5
13B
330
1F
100
AcDbEntity
  8
0
  6
Continuous
 62
     7
370
    15
100
AcDbLine
 10
1594.4899117442
 20
3222.1758598064
 30
0.0
 11
1625.489929864
 21
3222.1758598064
 31
0.0
  0
ARC
  5
13C
330
1F
100
AcDbEntity
  8
0
  6
Continuous
 62
     7
370
    15
100
AcDbCircle
 10
1594.4899018896
 20
3217.6758661688
 30
0.0
 40
4.500000000000909
100
AcDbArc
 50
90.0
 51
270.0
  0
LINE
  5
13D
330
1F
100
AcDbEntity
  8
0
  6
Continuous
 62
     7
370
    15
100
AcDbLine
 10
1625.489929864
 20
3213.1759160732
 30
0.0
 11
1594.4899117442
 21
3213.1759160732
 31
0.0
  0
ARC
  5
13E
330
1F
100
AcDbEntity
  8
0
  6
Continuous
 62
     7
370
    15
100
AcDbCircle
 10
1625.4899018896
 20
3217.6758661688
 30
0.0
 40
4.500000000000455
100
AcDbArc
 50
270.0
 51
90.0
  0
LINE
  5
13F
330
1F
100
AcDbEntity
  8
0
  6
Continuous
 62
     7
370
    15
100
AcDbLine
 10
1594.4899117442
 20
3249.1758102154
 30
0.0
 11
1625.489929864
 21
3249.1758102154
 31
0.0
  0
ARC
  5
140
330
1F
100
AcDbEntity
  8
0
  6
Continuous
 62
     7
370
    15
100
AcDbCircle
 10
1594.4899018896
 20
3244.6758661688
 30
0.0
 40
4.500000000000909
100
AcDbArc
 50
90.0
 51
270.0
  0
LINE
  5
141
330
1F
100
AcDbEntity
  8
0
  6
Continuous
 62
     7
370
    15
100
AcDbLine
 10
1625.489929864
 20
3240.1758664821
 30
0.0
 11
1594.4899117442
 21
3240.1758664821
 31
0.0
  0
ARC
  5
142
330
1F
100
AcDbEntity
  8
0
  6
Continuous
 62
     7
370
    15
100
AcDbCircle
 10
1625.4899018896
 20
3244.6758661688
 30
0.0
 40
4.500000000000455
100
AcDbArc
 50
270.0
 51
90.0
  0
LINE
  5
143
330
1F
100
AcDbEntity
  8
0
  6
Continuous
 62
     7
370
    15
100
AcDbLine
 10
1544.4899594279
 20
3222.1758598064
 30
0.0
 11
1575.4898583385
 21
3222.1758598064
 31
0.0
  0
ARC
  5
144
330
1F
100
AcDbEntity
  8
0
  6
Continuous
 62
     7
370
    15
100
AcDbCircle
 10
1544.4899018896
 20
3217.6758661688
 30
0.0
 40
4.500000000001364
100
AcDbArc
 50
90.0
 51
270.0
  0
LINE
  5
145
330
1F
100
AcDbEntity
  8
0
  6
Continuous
 62
     7
370
    15
100
AcDbLine
 10
1575.4898583385
 20
3213.1759160732
 30
0.0
 11
1544.4899594279
 21
3213.1759160732
 31
0.0
  0
ARC
  5
146
330
1F
100
AcDbEntity
  8
0
  6
Continuous
 62
     7
370
    15
100
AcDbCircle
 10
1575.4899018896
 20
3217.6758661688
 30
0.0
 40
4.500000000000909
100
AcDbArc
 50
270.0
 51
90.0
  0
LINE
  5
147
330
1F
100
AcDbEntity
  8
0
  6
Continuous
 62
     7
370
    15
100
AcDbLine
 10
1544.4899594279
 20
3249.1758102154
 30
0.0
 11
1575.4898583385
 21
3249.1758102154
 31
0.0
  0
ARC
  5
148
330
1F
100
AcDbEntity
  8
0
  6
Continuous
 62
     7
370
    15
100
AcDbCircle
 10
1544.4899018896
 20
3244.6758661688
 30
0.0
 40
4.500000000000909
100
AcDbArc
 50
90.0
 51
270.0
  0
LINE
  5
149
330
1F
100
AcDbEntity
  8
0
  6
Continuous
 62
     7
370
    15
100
AcDbLine
 10
1575.4898583385
 20
3240.1758664821
 30
0.0
 11
1544.4899594279
 21
3240.1758664821
 31
0.0
  0
ARC
  5
14A
330
1F
100
AcDbEntity
  8
0
  6
Continuous
 62
     7
370
    15
100
AcDbCircle
 10
1575.4899018896
 20
3244.6758661688
 30
0.0
 40
4.500000000000455
100
AcDbArc
 50
270.0
 51
90.0
  0
LINE
  5
14B
330
1F
100
AcDbEntity
  8
0
  6
Continuous
 62
     7
370
    15
100
AcDbLine
 10
1494.4898879024
 20
3222.1758598064
 30
0.0
 11
1525.4899060222
 21
3222.1758598064
 31
0.0
  0
ARC
  5
14C
330
1F
100
AcDbEntity
  8
0
  6
Continuous
 62
     7
370
    15
100
AcDbCircle
 10
1494.4899018896
 20
3217.6758661688
 30
0.0
 40
4.500000000000455
100
AcDbArc
 50
90.0
 51
270.0
  0
LINE
  5
14D
330
1F
100
AcDbEntity
  8
0
  6
Continuous
 62
     7
370
    15
100
AcDbLine
 10
1525.4899060222
 20
3213.1759160732
 30
0.0
 11
1494.4898879024
 21
3213.1759160732
 31
0.0
  0
ARC
  5
14E
330
1F
100
AcDbEntity
  8
0
  6
Continuous
 62
     7
370
    15
100
AcDbCircle
 10
1525.4899018896
 20
3217.6758661688
 30
0.0
 40
4.500000000000455
100
AcDbArc
 50
270.0
 51
90.0
  0
LINE
  5
14F
330
1F
100
AcDbEntity
  8
0
  6
Continuous
 62
     7
370
    15
100
AcDbLine
 10
1494.4898879024
 20
3249.1758102154
 30
0.0
 11
1525.4899060222
 21
3249.1758102154
 31
0.0
  0
ARC
  5
150
330
1F
100
AcDbEntity
  8
0
  6
Continuous
 62
     7
370
    15
100
AcDbCircle
 10
1494.4899018896
 20
3244.6758661688
 30
0.0
 40
4.500000000000455
100
AcDbArc
 50
90.0
 51
270.0
  0
LINE
  5
151
330
1F
100
AcDbEntity
  8
0
  6
Continuous
 62
     7
370
    15
100
AcDbLine
 10
1525.4899060222
 20
3240.1758664821
 30
0.0
 11
1494.4898879024
 21
3240.1758664821
 31
0.0
  0
ARC
  5
152
330
1F
100
AcDbEntity
  8
0
  6
Continuous
 62
     7
370
    15
100
AcDbCircle
 10
1525.4899018896
 20
3244.6758661688
 30
0.0
 40
4.5
100
AcDbArc
 50
270.0
 51
90.0
  0
LINE
  5
153
330
1F
100
AcDbEntity
  8
0
  6
Continuous
 62
     7
370
    15
100
AcDbLine
 10
1344.4899117442
 20
3222.1758598064
 30
0.0
 11
1375.489929864
 21
3222.1758598064
 31
0.0
  0
ARC
  5
154
330
1F
100
AcDbEntity
  8
0
  6
Continuous
 62
     7
370
    15
100
AcDbCircle
 10
1344.4899018896
 20
3217.6758661688
 30
0.0
 40
4.500000000000909
100
AcDbArc
 50
90.0
 51
270.0
  0
LINE
  5
155
330
1F
100
AcDbEntity
  8
0
  6
Continuous
 62
     7
370
    15
100
AcDbLine
 10
1375.489929864
 20
3213.1759160732
 30
0.0
 11
1344.4899117442
 21
3213.1759160732
 31
0.0
  0
ARC
  5
156
330
1F
100
AcDbEntity
  8
0
  6
Continuous
 62
     7
370
    15
100
AcDbCircle
 10
1375.4899018896
 20
3217.6758661688
 30
0.0
 40
4.500000000000455
100
AcDbArc
 50
270.0
 51
90.0
  0
LINE
  5
157
330
1F
100
AcDbEntity
  8
0
  6
Continuous
 62
     7
370
    15
100
AcDbLine
 10
1344.4899117442
 20
3249.1758102154
 30
0.0
 11
1375.489929864
 21
3249.1758102154
 31
0.0
  0
ARC
  5
158
330
1F
100
AcDbEntity
  8
0
  6
Continuous
 62
     7
370
    15
100
AcDbCircle
 10
1344.4899018896
 20
3244.6758661688
 30
0.0
 40
4.500000000000455
100
AcDbArc
 50
90.0
 51
270.0
  0
LINE
  5
159
330
1F
100
AcDbEntity
  8
0
  6
Continuous
 62
     7
370
    15
100
AcDbLine
 10
1375.489929864
 20
3240.1758664821
 30
0.0
 11
1344.4899117442
 21
3240.1758664821
 31
0.0
  0
ARC
  5
15A
330
1F
100
AcDbEntity
  8
0
  6
Continuous
 62
     7
370
    15
100
AcDbCircle
 10
1375.4899018896
 20
3244.6758661688
 30
0.0
 40
4.500000000000455
100
AcDbArc
 50
270.0
 51
90.0
  0
LINE
  5
15B
330
1F
100
AcDbEntity
  8
0
  6
Continuous
 62
     7
370
    15
100
AcDbLine
 10
1294.4898998233
 20
3222.1758598064
 30
0.0
 11
1325.4899179431
 21
3222.1758598064
 31
0.0
  0
ARC
  5
15C
330
1F
100
AcDbEntity
  8
0
  6
Continuous
 62
     7
370
    15
100
AcDbCircle
 10
1294.4899018896
 20
3217.6758661688
 30
0.0
 40
4.500000000000909
100
AcDbArc
 50
90.0
 51
270.0
  0
LINE
  5
15D
330
1F
100
AcDbEntity
  8
0
  6
Continuous
 62
     7
370
    15
100
AcDbLine
 10
1325.4899179431
 20
3213.1759160732
 30
0.0
 11
1294.4898998233
 21
3213.1759160732
 31
0.0
  0
ARC
  5
15E
330
1F
100
AcDbEntity
  8
0
  6
Continuous
 62
     7
370
    15
100
AcDbCircle
 10
1325.4899018896
 20
3217.6758661688
 30
0.0
 40
4.500000000000455
100
AcDbArc
 50
270.0
 51
90.0
  0
LINE
  5
15F
330
1F
100
AcDbEntity
  8
0
  6
Continuous
 62
     7
370
    15
100
AcDbLine
 10
1294.4898998233
 20
3249.1758102154
 30
0.0
 11
1325.4899179431
 21
3249.1758102154
 31
0.0
  0
ARC
  5
160
330
1F
100
AcDbEntity
  8
0
  6
Continuous
 62
     7
370
    15
100
AcDbCircle
 10
1294.4899018896
 20
3244.6758661688
 30
0.0
 40
4.500000000000455
100
AcDbArc
 50
90.0
 51
270.0
  0
LINE
  5
161
330
1F
100
AcDbEntity
  8
0
  6
Continuous
 62
     7
370
    15
100
AcDbLine
 10
1325.4899179431
 20
3240.1758664821
 30
0.0
 11
1294.4898998233
 21
3240.1758664821
 31
0.0
  0
ARC
  5
162
330
1F
100
AcDbEntity
  8
0
  6
Continuous
 62
     7
370
    15
100
AcDbCircle
 10
1325.4899018896
 20
3244.6758661688
 30
0.0
 40
4.500000000000909
100
AcDbArc
 50
270.0
 51
90.0
  0
LINE
  5
163
330
1F
100
AcDbEntity
  8
0
  6
Continuous
 62
     7
370
    15
100
AcDbLine
 10
1244.4898879024
 20
3222.1758598064
 30
0.0
 11
1275.4899060222
 21
3222.1758598064
 31
0.0
  0
ARC
  5
164
330
1F
100
AcDbEntity
  8
0
  6
Continuous
 62
     7
370
    15
100
AcDbCircle
 10
1244.4899018896
 20
3217.6758661688
 30
0.0
 40
4.500000000000455
100
AcDbArc
 50
90.0
 51
270.0
  0
LINE
  5
165
330
1F
100
AcDbEntity
  8
0
  6
Continuous
 62
     7
370
    15
100
AcDbLine
 10
1275.4899060222
 20
3213.1759160732
 30
0.0
 11
1244.4898879024
 21
3213.1759160732
 31
0.0
  0
ARC
  5
166
330
1F
100
AcDbEntity
  8
0
  6
Continuous
 62
     7
370
    15
100
AcDbCircle
 10
1275.4899018896
 20
3217.6758661688
 30
0.0
 40
4.500000000000455
100
AcDbArc
 50
270.0
 51
90.0
  0
LINE
  5
167
330
1F
100
AcDbEntity
  8
0
  6
Continuous
 62
     7
370
    15
100
AcDbLine
 10
1194.4898759814
 20
3222.1758598064
 30
0.0
 11
1225.4898941012
 21
3222.1758598064
 31
0.0
  0
ARC
  5
168
330
1F
100
AcDbEntity
  8
0
  6
Continuous
 62
     7
370
    15
100
AcDbCircle
 10
1194.4899018896
 20
3217.6758661688
 30
0.0
 40
4.500000000000909
100
AcDbArc
 50
90.0
 51
270.0
  0
LINE
  5
169
330
1F
100
AcDbEntity
  8
0
  6
Continuous
 62
     7
370
    15
100
AcDbLine
 10
1225.4898941012
 20
3213.1759160732
 30
0.0
 11
1194.4898759814
 21
3213.1759160732
 31
0.0
  0
ARC
  5
16A
330
1F
100
AcDbEntity
  8
0
  6
Continuous
 62
     7
370
    15
100
AcDbCircle
 10
1225.4899018896
 20
3217.6758661688
 30
0.0
 40
4.500000000000455
100
AcDbArc
 50
270.0
 51
90.0
  0
LINE
  5
16B
330
1F
100
AcDbEntity
  8
0
  6
Continuous
 62
     7
370
    15
100
AcDbLine
 10
1225.4898941012
 20
3240.1758664821
 30
0.0
 11
1194.4898759814
 21
3240.1758664821
 31
0.0
  0
ARC
  5
16C
330
1F
100
AcDbEntity
  8
0
  6
Continuous
 62
     7
370
    15
100
AcDbCircle
 10
1225.4899018896
 20
3244.6758661688
 30
0.0
 40
4.500000000000455
100
AcDbArc
 50
270.0
 51
90.0
  0
LINE
  5
16D
330
1F
100
AcDbEntity
  8
0
  6
Continuous
 62
     7
370
    15
100
AcDbLine
 10
1194.4898759814
 20
3249.1758102154
 30
0.0
 11
1225.4898941012
 21
3249.1758102154
 31
0.0
  0
ARC
  5
16E
330
1F
100
AcDbEntity
  8
0
  6
Continuous
 62
     7
370
    15
100
AcDbCircle
 10
1194.4899018896
 20
3244.6758661688
 30
0.0
 40
4.500000000000455
100
AcDbArc
 50
90.0
 51
270.0
  0
LINE
  5
16F
330
1F
100
AcDbEntity
  8
0
  6
Continuous
 62
     7
370
    15
100
AcDbLine
 10
1244.4898879024
 20
3249.1758102154
 30
0.0
 11
1275.4899060222
 21
3249.1758102154
 31
0.0
  0
ARC
  5
170
330
1F
100
AcDbEntity
  8
0
  6
Continuous
 62
     7
370
    15
100
AcDbCircle
 10
1244.4899018896
 20
3244.6758661688
 30
0.0
 40
4.5
100
AcDbArc
 50
90.0
 51
270.0
  0
LINE
  5
171
330
1F
100
AcDbEntity
  8
0
  6
Continuous
 62
     7
370
    15
100
AcDbLine
 10
1275.4899060222
 20
3240.1758664821
 30
0.0
 11
1244.4898879024
 21
3240.1758664821
 31
0.0
  0
ARC
  5
172
330
1F
100
AcDbEntity
  8
0
  6
Continuous
 62
     7
370
    15
100
AcDbCircle
 10
1275.4899018896
 20
3244.6758661688
 30
0.0
 40
4.500000000000455
100
AcDbArc
 50
270.0
 51
90.0
  0
LINE
  5
173
330
1F
100
AcDbEntity
  8
0
  6
Continuous
 62
     7
370
    15
100
AcDbLine
 10
1444.4899355861
 20
3222.1758598064
 30
0.0
 11
1475.4899537059
 21
3222.1758598064
 31
0.0
  0
ARC
  5
174
330
1F
100
AcDbEntity
  8
0
  6
Continuous
 62
     7
370
    15
100
AcDbCircle
 10
1444.4899018896
 20
3217.6758661688
 30
0.0
 40
4.500000000000909
100
AcDbArc
 50
90.0
 51
270.0
  0
LINE
  5
175
330
1F
100
AcDbEntity
  8
0
  6
Continuous
 62
     7
370
    15
100
AcDbLine
 10
1475.4899537059
 20
3213.1759160732
 30
0.0
 11
1444.4899355861
 21
3213.1759160732
 31
0.0
  0
ARC
  5
176
330
1F
100
AcDbEntity
  8
0
  6
Continuous
 62
     7
370
    15
100
AcDbCircle
 10
1475.4899018896
 20
3217.6758661688
 30
0.0
 40
4.500000000000455
100
AcDbArc
 50
270.0
 51
90.0
  0
LINE
  5
177
330
1F
100
AcDbEntity
  8
0
  6
Continuous
 62
     7
370
    15
100
AcDbLine
 10
1394.4898640605
 20
3222.1758598064
 30
0.0
 11
1425.4898821803
 21
3222.1758598064
 31
0.0
  0
ARC
  5
178
330
1F
100
AcDbEntity
  8
0
  6
Continuous
 62
     7
370
    15
100
AcDbCircle
 10
1394.4899018896
 20
3217.6758661688
 30
0.0
 40
4.500000000000455
100
AcDbArc
 50
90.0
 51
270.0
  0
LINE
  5
179
330
1F
100
AcDbEntity
  8
0
  6
Continuous
 62
     7
370
    15
100
AcDbLine
 10
1425.4898821803
 20
3213.1759160732
 30
0.0
 11
1394.4898640605
 21
3213.1759160732
 31
0.0
  0
ARC
  5
17A
330
1F
100
AcDbEntity
  8
0
  6
Continuous
 62
     7
370
    15
100
AcDbCircle
 10
1425.4899018896
 20
3217.6758661688
 30
0.0
 40
4.500000000000455
100
AcDbArc
 50
270.0
 51
90.0
  0
LINE
  5
17B
330
1F
100
AcDbEntity
  8
0
  6
Continuous
 62
     7
370
    15
100
AcDbLine
 10
1425.4898821803
 20
3240.1758664821
 30
0.0
 11
1394.4898640605
 21
3240.1758664821
 31
0.0
  0
ARC
  5
17C
330
1F
100
AcDbEntity
  8
0
  6
Continuous
 62
     7
370
    15
100
AcDbCircle
 10
1425.4899018896
 20
3244.6758661688
 30
0.0
 40
4.500000000000455
100
AcDbArc
 50
270.0
 51
90.0
  0
LINE
  5
17D
330
1F
100
AcDbEntity
  8
0
  6
Continuous
 62
     7
370
    15
100
AcDbLine
 10
1394.4898640605
 20
3249.1758102154
 30
0.0
 11
1425.4898821803
 21
3249.1758102154
 31
0.0
  0
ARC
  5
17E
330
1F
100
AcDbEntity
  8
0
  6
Continuous
 62
     7
370
    15
100
AcDbCircle
 10
1394.4899018896
 20
3244.6758661688
 30
0.0
 40
4.500000000001364
100
AcDbArc
 50
90.0
 51
270.0
  0
LINE
  5
17F
330
1F
100
AcDbEntity
  8
0
  6
Continuous
 62
     7
370
    15
100
AcDbLine
 10
1444.4899355861
 20
3249.1758102154
 30
0.0
 11
1475.4899537059
 21
3249.1758102154
 31
0.0
  0
ARC
  5
180
330
1F
100
AcDbEntity
  8
0
  6
Continuous
 62
     7
370
    15
100
AcDbCircle
 10
1444.4899018896
 20
3244.6758661688
 30
0.0
 40
4.500000000000455
100
AcDbArc
 50
90.0
 51
270.0
  0
LINE
  5
181
330
1F
100
AcDbEntity
  8
0
  6
Continuous
 62
     7
370
    15
100
AcDbLine
 10
1475.4899537059
 20
3240.1758664821
 30
0.0
 11
1444.4899355861
 21
3240.1758664821
 31
0.0
  0
ARC
  5
182
330
1F
100
AcDbEntity
  8
0
  6
Continuous
 62
     7
370
    15
100
AcDbCircle
 10
1475.4899018896
 20
3244.6758661688
 30
0.0
 40
4.500000000000909
100
AcDbArc
 50
270.0
 51
90.0
  0
LINE
  5
183
330
1F
100
AcDbEntity
  8
0
  6
Continuous
 62
     7
370
    15
100
AcDbLine
 10
1225.4898941012
 20
1500.1758569454
 30
0.0
 11
1194.4898759814
 21
1500.1758569454
 31
0.0
  0
ARC
  5
184
330
1F
100
AcDbEntity
  8
0
  6
Continuous
 62
     7
370
    15
100
AcDbCircle
 10
1225.4899018896
 20
1504.6758661686
 30
0.0
 40
4.500000000000455
100
AcDbArc
 50
270.0
 51
90.0
  0
LINE
  5
185
330
1F
100
AcDbEntity
  8
0
  6
Continuous
 62
     7
370
    15
100
AcDbLine
 10
1194.4898759814
 20
1509.1758602833
 30
0.0
 11
1225.4898941012
 21
1509.1758602833
 31
0.0
  0
ARC
  5
186
330
1F
100
AcDbEntity
  8
0
  6
Continuous
 62
     7
370
    15
100
AcDbCircle
 10
1194.4899018896
 20
1504.6758661686
 30
0.0
 40
4.500000000000455
100
AcDbArc
 50
90.0
 51
270.0
  0
LINE
  5
187
330
1F
100
AcDbEntity
  8
0
  6
Continuous
 62
     7
370
    15
100
AcDbLine
 10
1225.4898941012
 20
1473.1758469318
 30
0.0
 11
1194.4898759814
 21
1473.1758469318
 31
0.0
  0
ARC
  5
188
330
1F
100
AcDbEntity
  8
0
  6
Continuous
 62
     7
370
    15
100
AcDbCircle
 10
1225.4899018896
 20
1477.6758661686
 30
0.0
 40
4.500000000000682
100
AcDbArc
 50
270.0
 51
90.0
  0
LINE
  5
189
330
1F
100
AcDbEntity
  8
0
  6
Continuous
 62
     7
370
    15
100
AcDbLine
 10
1194.4898759814
 20
1482.1758502697
 30
0.0
 11
1225.4898941012
 21
1482.1758502697
 31
0.0
  0
ARC
  5
18A
330
1F
100
AcDbEntity
  8
0
  6
Continuous
 62
     7
370
    15
100
AcDbCircle
 10
1194.4899018896
 20
1477.6758661686
 30
0.0
 40
4.500000000000682
100
AcDbArc
 50
90.0
 51
270.0
  0
LINE
  5
18B
330
1F
100
AcDbEntity
  8
0
  6
Continuous
 62
     7
370
    15
100
AcDbLine
 10
1275.4899060222
 20
1500.1758569454
 30
0.0
 11
1244.4898879024
 21
1500.1758569454
 31
0.0
  0
ARC
  5
18C
330
1F
100
AcDbEntity
  8
0
  6
Continuous
 62
     7
370
    15
100
AcDbCircle
 10
1275.4899018896
 20
1504.6758661686
 30
0.0
 40
4.500000000000227
100
AcDbArc
 50
270.0
 51
90.0
  0
LINE
  5
18D
330
1F
100
AcDbEntity
  8
0
  6
Continuous
 62
     7
370
    15
100
AcDbLine
 10
1244.4898879024
 20
1509.1758602833
 30
0.0
 11
1275.4899060222
 21
1509.1758602833
 31
0.0
  0
ARC
  5
18E
330
1F
100
AcDbEntity
  8
0
  6
Continuous
 62
     7
370
    15
100
AcDbCircle
 10
1244.4899018896
 20
1504.6758661686
 30
0.0
 40
4.500000000000682
100
AcDbArc
 50
90.0
 51
270.0
  0
LINE
  5
18F
330
1F
100
AcDbEntity
  8
0
  6
Continuous
 62
     7
370
    15
100
AcDbLine
 10
1275.4899060222
 20
1473.1758469318
 30
0.0
 11
1244.4898879024
 21
1473.1758469318
 31
0.0
  0
ARC
  5
190
330
1F
100
AcDbEntity
  8
0
  6
Continuous
 62
     7
370
    15
100
AcDbCircle
 10
1275.4899018896
 20
1477.6758661686
 30
0.0
 40
4.500000000000682
100
AcDbArc
 50
270.0
 51
90.0
  0
LINE
  5
191
330
1F
100
AcDbEntity
  8
0
  6
Continuous
 62
     7
370
    15
100
AcDbLine
 10
1244.4898879024
 20
1482.1758502697
 30
0.0
 11
1275.4899060222
 21
1482.1758502697
 31
0.0
  0
ARC
  5
192
330
1F
100
AcDbEntity
  8
0
  6
Continuous
 62
     7
370
    15
100
AcDbCircle
 10
1244.4899018896
 20
1477.6758661686
 30
0.0
 40
4.500000000000909
100
AcDbArc
 50
90.0
 51
270.0
  0
LINE
  5
193
330
1F
100
AcDbEntity
  8
0
  6
Continuous
 62
     7
370
    15
100
AcDbLine
 10
1325.4899179431
 20
1500.1758569454
 30
0.0
 11
1294.4898998233
 21
1500.1758569454
 31
0.0
  0
ARC
  5
194
330
1F
100
AcDbEntity
  8
0
  6
Continuous
 62
     7
370
    15
100
AcDbCircle
 10
1325.4899018896
 20
1504.6758661686
 30
0.0
 40
4.500000000000455
100
AcDbArc
 50
270.0
 51
90.0
  0
LINE
  5
195
330
1F
100
AcDbEntity
  8
0
  6
Continuous
 62
     7
370
    15
100
AcDbLine
 10
1294.4898998233
 20
1509.1758602833
 30
0.0
 11
1325.4899179431
 21
1509.1758602833
 31
0.0
  0
ARC
  5
196
330
1F
100
AcDbEntity
  8
0
  6
Continuous
 62
     7
370
    15
100
AcDbCircle
 10
1294.4899018896
 20
1504.6758661686
 30
0.0
 40
4.500000000000682
100
AcDbArc
 50
90.0
 51
270.0
  0
LINE
  5
197
330
1F
100
AcDbEntity
  8
0
  6
Continuous
 62
     7
370
    15
100
AcDbLine
 10
1325.4899179431
 20
1473.1758469318
 30
0.0
 11
1294.4898998233
 21
1473.1758469318
 31
0.0
  0
ARC
  5
198
330
1F
100
AcDbEntity
  8
0
  6
Continuous
 62
     7
370
    15
100
AcDbCircle
 10
1325.4899018896
 20
1477.6758661686
 30
0.0
 40
4.500000000000682
100
AcDbArc
 50
270.0
 51
90.0
  0
LINE
  5
199
330
1F
100
AcDbEntity
  8
0
  6
Continuous
 62
     7
370
    15
100
AcDbLine
 10
1294.4898998233
 20
1482.1758502697
 30
0.0
 11
1325.4899179431
 21
1482.1758502697
 31
0.0
  0
ARC
  5
19A
330
1F
100
AcDbEntity
  8
0
  6
Continuous
 62
     7
370
    15
100
AcDbCircle
 10
1294.4899018896
 20
1477.6758661686
 30
0.0
 40
4.500000000000682
100
AcDbArc
 50
90.0
 51
270.0
  0
LINE
  5
19B
330
1F
100
AcDbEntity
  8
0
  6
Continuous
 62
     7
370
    15
100
AcDbLine
 10
1375.489929864
 20
1500.1758569454
 30
0.0
 11
1344.4899117442
 21
1500.1758569454
 31
0.0
  0
ARC
  5
19C
330
1F
100
AcDbEntity
  8
0
  6
Continuous
 62
     7
370
    15
100
AcDbCircle
 10
1375.4899018896
 20
1504.6758661686
 30
0.0
 40
4.500000000000455
100
AcDbArc
 50
270.0
 51
90.0
  0
LINE
  5
19D
330
1F
100
AcDbEntity
  8
0
  6
Continuous
 62
     7
370
    15
100
AcDbLine
 10
1344.4899117442
 20
1509.1758602833
 30
0.0
 11
1375.489929864
 21
1509.1758602833
 31
0.0
  0
ARC
  5
19E
330
1F
100
AcDbEntity
  8
0
  6
Continuous
 62
     7
370
    15
100
AcDbCircle
 10
1344.4899018896
 20
1504.6758661686
 30
0.0
 40
4.500000000000455
100
AcDbArc
 50
90.0
 51
270.0
  0
LINE
  5
19F
330
1F
100
AcDbEntity
  8
0
  6
Continuous
 62
     7
370
    15
100
AcDbLine
 10
1375.489929864
 20
1473.1758469318
 30
0.0
 11
1344.4899117442
 21
1473.1758469318
 31
0.0
  0
ARC
  5
1A0
330
1F
100
AcDbEntity
  8
0
  6
Continuous
 62
     7
370
    15
100
AcDbCircle
 10
1375.4899018896
 20
1477.6758661686
 30
0.0
 40
4.500000000000682
100
AcDbArc
 50
270.0
 51
90.0
  0
LINE
  5
1A1
330
1F
100
AcDbEntity
  8
0
  6
Continuous
 62
     7
370
    15
100
AcDbLine
 10
1344.4899117442
 20
1482.1758502697
 30
0.0
 11
1375.489929864
 21
1482.1758502697
 31
0.0
  0
ARC
  5
1A2
330
1F
100
AcDbEntity
  8
0
  6
Continuous
 62
     7
370
    15
100
AcDbCircle
 10
1344.4899018896
 20
1477.6758661686
 30
0.0
 40
4.500000000000455
100
AcDbArc
 50
90.0
 51
270.0
  0
LINE
  5
1A3
330
1F
100
AcDbEntity
  8
0
  6
Continuous
 62
     7
370
    15
100
AcDbLine
 10
1525.4899060222
 20
1500.1758569454
 30
0.0
 11
1494.4898879024
 21
1500.1758569454
 31
0.0
  0
ARC
  5
1A4
330
1F
100
AcDbEntity
  8
0
  6
Continuous
 62
     7
370
    15
100
AcDbCircle
 10
1525.4899018896
 20
1504.6758661686
 30
0.0
 40
4.500000000000455
100
AcDbArc
 50
270.0
 51
90.0
  0
LINE
  5
1A5
330
1F
100
AcDbEntity
  8
0
  6
Continuous
 62
     7
370
    15
100
AcDbLine
 10
1494.4898879024
 20
1509.1758602833
 30
0.0
 11
1525.4899060222
 21
1509.1758602833
 31
0.0
  0
ARC
  5
1A6
330
1F
100
AcDbEntity
  8
0
  6
Continuous
 62
     7
370
    15
100
AcDbCircle
 10
1494.4899018896
 20
1504.6758661686
 30
0.0
 40
4.500000000000227
100
AcDbArc
 50
90.0
 51
270.0
  0
LINE
  5
1A7
330
1F
100
AcDbEntity
  8
0
  6
Continuous
 62
     7
370
    15
100
AcDbLine
 10
1525.4899060222
 20
1473.1758469318
 30
0.0
 11
1494.4898879024
 21
1473.1758469318
 31
0.0
  0
ARC
  5
1A8
330
1F
100
AcDbEntity
  8
0
  6
Continuous
 62
     7
370
    15
100
AcDbCircle
 10
1525.4899018896
 20
1477.6758661686
 30
0.0
 40
4.500000000000682
100
AcDbArc
 50
270.0
 51
90.0
  0
LINE
  5
1A9
330
1F
100
AcDbEntity
  8
0
  6
Continuous
 62
     7
370
    15
100
AcDbLine
 10
1494.4898879024
 20
1482.1758502697
 30
0.0
 11
1525.4899060222
 21
1482.1758502697
 31
0.0
  0
ARC
  5
1AA
330
1F
100
AcDbEntity
  8
0
  6
Continuous
 62
     7
370
    15
100
AcDbCircle
 10
1494.4899018896
 20
1477.6758661686
 30
0.0
 40
4.500000000000455
100
AcDbArc
 50
90.0
 51
270.0
  0
LINE
  5
1AB
330
1F
100
AcDbEntity
  8
0
  6
Continuous
 62
     7
370
    15
100
AcDbLine
 10
1575.4898583385
 20
1500.1758569454
 30
0.0
 11
1544.4899594279
 21
1500.1758569454
 31
0.0
  0
ARC
  5
1AC
330
1F
100
AcDbEntity
  8
0
  6
Continuous
 62
     7
370
    15
100
AcDbCircle
 10
1575.4899018896
 20
1504.6758661686
 30
0.0
 40
4.500000000000455
100
AcDbArc
 50
270.0
 51
90.0
  0
LINE
  5
1AD
330
1F
100
AcDbEntity
  8
0
  6
Continuous
 62
     7
370
    15
100
AcDbLine
 10
1544.4899594279
 20
1509.1758602833
 30
0.0
 11
1575.4898583385
 21
1509.1758602833
 31
0.0
  0
ARC
  5
1AE
330
1F
100
AcDbEntity
  8
0
  6
Continuous
 62
     7
370
    15
100
AcDbCircle
 10
1544.4899018896
 20
1504.6758661686
 30
0.0
 40
4.500000000000455
100
AcDbArc
 50
90.0
 51
270.0
  0
LINE
  5
1AF
330
1F
100
AcDbEntity
  8
0
  6
Continuous
 62
     7
370
    15
100
AcDbLine
 10
1575.4898583385
 20
1473.1758469318
 30
0.0
 11
1544.4899594279
 21
1473.1758469318
 31
0.0
  0
ARC
  5
1B0
330
1F
100
AcDbEntity
  8
0
  6
Continuous
 62
     7
370
    15
100
AcDbCircle
 10
1575.4899018896
 20
1477.6758661686
 30
0.0
 40
4.500000000000682
100
AcDbArc
 50
270.0
 51
90.0
  0
LINE
  5
1B1
330
1F
100
AcDbEntity
  8
0
  6
Continuous
 62
     7
370
    15
100
AcDbLine
 10
1544.4899594279
 20
1482.1758502697
 30
0.0
 11
1575.4898583385
 21
1482.1758502697
 31
0.0
  0
ARC
  5
1B2
330
1F
100
AcDbEntity
  8
0
  6
Continuous
 62
     7
370
    15
100
AcDbCircle
 10
1544.4899018896
 20
1477.6758661686
 30
0.0
 40
4.500000000000682
100
AcDbArc
 50
90.0
 51
270.0
  0
LINE
  5
1B3
330
1F
100
AcDbEntity
  8
0
  6
Continuous
 62
     7
370
    15
100
AcDbLine
 10
1625.489929864
 20
1500.1758569454
 30
0.0
 11
1594.4899117442
 21
1500.1758569454
 31
0.0
  0
ARC
  5
1B4
330
1F
100
AcDbEntity
  8
0
  6
Continuous
 62
     7
370
    15
100
AcDbCircle
 10
1625.4899018896
 20
1504.6758661686
 30
0.0
 40
4.500000000000682
100
AcDbArc
 50
270.0
 51
90.0
  0
LINE
  5
1B5
330
1F
100
AcDbEntity
  8
0
  6
Continuous
 62
     7
370
    15
100
AcDbLine
 10
1594.4899117442
 20
1509.1758602833
 30
0.0
 11
1625.489929864
 21
1509.1758602833
 31
0.0
  0
ARC
  5
1B6
330
1F
100
AcDbEntity
  8
0
  6
Continuous
 62
     7
370
    15
100
AcDbCircle
 10
1594.4899018896
 20
1504.6758661686
 30
0.0
 40
4.500000000000455
100
AcDbArc
 50
90.0
 51
270.0
  0
LINE
  5
1B7
330
1F
100
AcDbEntity
  8
0
  6
Continuous
 62
     7
370
    15
100
AcDbLine
 10
1675.4898821803
 20
1500.1758569454
 30
0.0
 11
1644.4898640605
 21
1500.1758569454
 31
0.0
  0
ARC
  5
1B8
330
1F
100
AcDbEntity
  8
0
  6
Continuous
 62
     7
370
    15
100
AcDbCircle
 10
1675.4899018896
 20
1504.6758661686
 30
0.0
 40
4.500000000000455
100
AcDbArc
 50
270.0
 51
90.0
  0
LINE
  5
1B9
330
1F
100
AcDbEntity
  8
0
  6
Continuous
 62
     7
370
    15
100
AcDbLine
 10
1644.4898640605
 20
1509.1758602833
 30
0.0
 11
1675.4898821803
 21
1509.1758602833
 31
0.0
  0
ARC
  5
1BA
330
1F
100
AcDbEntity
  8
0
  6
Continuous
 62
     7
370
    15
100
AcDbCircle
 10
1644.4899018896
 20
1504.6758661686
 30
0.0
 40
4.500000000000682
100
AcDbArc
 50
90.0
 51
270.0
  0
LINE
  5
1BB
330
1F
100
AcDbEntity
  8
0
  6
Continuous
 62
     7
370
    15
100
AcDbLine
 10
1644.4898640605
 20
1482.1758502697
 30
0.0
 11
1675.4898821803
 21
1482.1758502697
 31
0.0
  0
ARC
  5
1BC
330
1F
100
AcDbEntity
  8
0
  6
Continuous
 62
     7
370
    15
100
AcDbCircle
 10
1644.4899018896
 20
1477.6758661686
 30
0.0
 40
4.500000000000682
100
AcDbArc
 50
90.0
 51
270.0
  0
LINE
  5
1BD
330
1F
100
AcDbEntity
  8
0
  6
Continuous
 62
     7
370
    15
100
AcDbLine
 10
1675.4898821803
 20
1473.1758469318
 30
0.0
 11
1644.4898640605
 21
1473.1758469318
 31
0.0
  0
ARC
  5
1BE
330
1F
100
AcDbEntity
  8
0
  6
Continuous
 62
     7
370
    15
100
AcDbCircle
 10
1675.4899018896
 20
1477.6758661686
 30
0.0
 40
4.500000000000455
100
AcDbArc
 50
270.0
 51
90.0
  0
LINE
  5
1BF
330
1F
100
AcDbEntity
  8
0
  6
Continuous
 62
     7
370
    15
100
AcDbLine
 10
1625.489929864
 20
1473.1758469318
 30
0.0
 11
1594.4899117442
 21
1473.1758469318
 31
0.0
  0
ARC
  5
1C0
330
1F
100
AcDbEntity
  8
0
  6
Continuous
 62
     7
370
    15
100
AcDbCircle
 10
1625.4899018896
 20
1477.6758661686
 30
0.0
 40
4.500000000000682
100
AcDbArc
 50
270.0
 51
90.0
  0
LINE
  5
1C1
330
1F
100
AcDbEntity
  8
0
  6
Continuous
 62
     7
370
    15
100
AcDbLine
 10
1594.4899117442
 20
1482.1758502697
 30
0.0
 11
1625.489929864
 21
1482.1758502697
 31
0.0
  0
ARC
  5
1C2
330
1F
100
AcDbEntity
  8
0
  6
Continuous
 62
     7
370
    15
100
AcDbCircle
 10
1594.4899018896
 20
1477.6758661686
 30
0.0
 40
4.500000000000682
100
AcDbArc
 50
90.0
 51
270.0
  0
LINE
  5
1C3
330
1F
100
AcDbEntity
  8
0
  6
Continuous
 62
     7
370
    15
100
AcDbLine
 10
1425.4898821803
 20
1500.1758569454
 30
0.0
 11
1394.4898640605
 21
1500.1758569454
 31
0.0
  0
ARC
  5
1C4
330
1F
100
AcDbEntity
  8
0
  6
Continuous
 62
     7
370
    15
100
AcDbCircle
 10
1425.4899018896
 20
1504.6758661686
 30
0.0
 40
4.500000000000455
100
AcDbArc
 50
270.0
 51
90.0
  0
LINE
  5
1C5
330
1F
100
AcDbEntity
  8
0
  6
Continuous
 62
     7
370
    15
100
AcDbLine
 10
1394.4898640605
 20
1509.1758602833
 30
0.0
 11
1425.4898821803
 21
1509.1758602833
 31
0.0
  0
ARC
  5
1C6
330
1F
100
AcDbEntity
  8
0
  6
Continuous
 62
     7
370
    15
100
AcDbCircle
 10
1394.4899018896
 20
1504.6758661686
 30
0.0
 40
4.500000000000455
100
AcDbArc
 50
90.0
 51
270.0
  0
LINE
  5
1C7
330
1F
100
AcDbEntity
  8
0
  6
Continuous
 62
     7
370
    15
100
AcDbLine
 10
1475.4899537059
 20
1500.1758569454
 30
0.0
 11
1444.4899355861
 21
1500.1758569454
 31
0.0
  0
ARC
  5
1C8
330
1F
100
AcDbEntity
  8
0
  6
Continuous
 62
     7
370
    15
100
AcDbCircle
 10
1475.4899018896
 20
1504.6758661686
 30
0.0
 40
4.500000000000455
100
AcDbArc
 50
270.0
 51
90.0
  0
LINE
  5
1C9
330
1F
100
AcDbEntity
  8
0
  6
Continuous
 62
     7
370
    15
100
AcDbLine
 10
1444.4899355861
 20
1509.1758602833
 30
0.0
 11
1475.4899537059
 21
1509.1758602833
 31
0.0
  0
ARC
  5
1CA
330
1F
100
AcDbEntity
  8
0
  6
Continuous
 62
     7
370
    15
100
AcDbCircle
 10
1444.4899018896
 20
1504.6758661686
 30
0.0
 40
4.500000000000455
100
AcDbArc
 50
90.0
 51
270.0
  0
LINE
  5
1CB
330
1F
100
AcDbEntity
  8
0
  6
Continuous
 62
     7
370
    15
100
AcDbLine
 10
1444.4899355861
 20
1482.1758502697
 30
0.0
 11
1475.4899537059
 21
1482.1758502697
 31
0.0
  0
ARC
  5
1CC
330
1F
100
AcDbEntity
  8
0
  6
Continuous
 62
     7
370
    15
100
AcDbCircle
 10
1444.4899018896
 20
1477.6758661686
 30
0.0
 40
4.500000000000682
100
AcDbArc
 50
90.0
 51
270.0
  0
LINE
  5
1CD
330
1F
100
AcDbEntity
  8
0
  6
Continuous
 62
     7
370
    15
100
AcDbLine
 10
1475.4899537059
 20
1473.1758469318
 30
0.0
 11
1444.4899355861
 21
1473.1758469318
 31
0.0
  0
ARC
  5
1CE
330
1F
100
AcDbEntity
  8
0
  6
Continuous
 62
     7
370
    15
100
AcDbCircle
 10
1475.4899018896
 20
1477.6758661686
 30
0.0
 40
4.500000000000455
100
AcDbArc
 50
270.0
 51
90.0
  0
LINE
  5
1CF
330
1F
100
AcDbEntity
  8
0
  6
Continuous
 62
     7
370
    15
100
AcDbLine
 10
1425.4898821803
 20
1473.1758469318
 30
0.0
 11
1394.4898640605
 21
1473.1758469318
 31
0.0
  0
ARC
  5
1D0
330
1F
100
AcDbEntity
  8
0
  6
Continuous
 62
     7
370
    15
100
AcDbCircle
 10
1425.4899018896
 20
1477.6758661686
 30
0.0
 40
4.500000000000455
100
AcDbArc
 50
270.0
 51
90.0
  0
LINE
  5
1D1
330
1F
100
AcDbEntity
  8
0
  6
Continuous
 62
     7
370
    15
100
AcDbLine
 10
1394.4898640605
 20
1482.1758502697
 30
0.0
 11
1425.4898821803
 21
1482.1758502697
 31
0.0
  0
ARC
  5
1D2
330
1F
100
AcDbEntity
  8
0
  6
Continuous
 62
     7
370
    15
100
AcDbCircle
 10
1394.4899018896
 20
1477.6758661686
 30
0.0
 40
4.500000000000682
100
AcDbArc
 50
90.0
 51
270.0
  0
LINE
  5
1D3
330
1F
100
AcDbEntity
  8
0
  6
Continuous
 62
     7
370
    15
100
AcDbLine
 10
1225.4898941012
 20
2080.1758626078
 30
0.0
 11
1194.4898759814
 21
2080.1758626078
 31
0.0
  0
ARC
  5
1D4
330
1F
100
AcDbEntity
  8
0
  6
Continuous
 62
     7
370
    15
100
AcDbCircle
 10
1225.4899018896
 20
2084.6758661686
 30
0.0
 40
4.500000000000455
100
AcDbArc
 50
270.0
 51
90.0
  0
LINE
  5
1D5
330
1F
100
AcDbEntity
  8
0
  6
Continuous
 62
     7
370
    15
100
AcDbLine
 10
1194.4898759814
 20
2089.1758659457
 30
0.0
 11
1225.4898941012
 21
2089.1758659457
 31
0.0
  0
ARC
  5
1D6
330
1F
100
AcDbEntity
  8
0
  6
Continuous
 62
     7
370
    15
100
AcDbCircle
 10
1194.4899018896
 20
2084.6758661686
 30
0.0
 40
4.500000000000909
100
AcDbArc
 50
90.0
 51
270.0
  0
LINE
  5
1D7
330
1F
100
AcDbEntity
  8
0
  6
Continuous
 62
     7
370
    15
100
AcDbLine
 10
1225.4898941012
 20
2053.1758600448
 30
0.0
 11
1194.4898759814
 21
2053.1758600448
 31
0.0
  0
ARC
  5
1D8
330
1F
100
AcDbEntity
  8
0
  6
Continuous
 62
     7
370
    15
100
AcDbCircle
 10
1225.4899018896
 20
2057.6758661686
 30
0.0
 40
4.500000000001364
100
AcDbArc
 50
270.0
 51
90.0
  0
LINE
  5
1D9
330
1F
100
AcDbEntity
  8
0
  6
Continuous
 62
     7
370
    15
100
AcDbLine
 10
1194.4898759814
 20
2062.1758633827
 30
0.0
 11
1225.4898941012
 21
2062.1758633827
 31
0.0
  0
ARC
  5
1DA
330
1F
100
AcDbEntity
  8
0
  6
Continuous
 62
     7
370
    15
100
AcDbCircle
 10
1194.4899018896
 20
2057.6758661686
 30
0.0
 40
4.500000000000455
100
AcDbArc
 50
90.0
 51
270.0
  0
LINE
  5
1DB
330
1F
100
AcDbEntity
  8
0
  6
Continuous
 62
     7
370
    15
100
AcDbLine
 10
1275.4899060222
 20
2080.1758626078
 30
0.0
 11
1244.4898879024
 21
2080.1758626078
 31
0.0
  0
ARC
  5
1DC
330
1F
100
AcDbEntity
  8
0
  6
Continuous
 62
     7
370
    15
100
AcDbCircle
 10
1275.4899018896
 20
2084.6758661686
 30
0.0
 40
4.500000000000455
100
AcDbArc
 50
270.0
 51
90.0
  0
LINE
  5
1DD
330
1F
100
AcDbEntity
  8
0
  6
Continuous
 62
     7
370
    15
100
AcDbLine
 10
1244.4898879024
 20
2089.1758659457
 30
0.0
 11
1275.4899060222
 21
2089.1758659457
 31
0.0
  0
ARC
  5
1DE
330
1F
100
AcDbEntity
  8
0
  6
Continuous
 62
     7
370
    15
100
AcDbCircle
 10
1244.4899018896
 20
2084.6758661686
 30
0.0
 40
4.500000000000909
100
AcDbArc
 50
90.0
 51
270.0
  0
LINE
  5
1DF
330
1F
100
AcDbEntity
  8
0
  6
Continuous
 62
     7
370
    15
100
AcDbLine
 10
1275.4899060222
 20
2053.1758600448
 30
0.0
 11
1244.4898879024
 21
2053.1758600448
 31
0.0
  0
ARC
  5
1E0
330
1F
100
AcDbEntity
  8
0
  6
Continuous
 62
     7
370
    15
100
AcDbCircle
 10
1275.4899018896
 20
2057.6758661686
 30
0.0
 40
4.500000000000455
100
AcDbArc
 50
270.0
 51
90.0
  0
LINE
  5
1E1
330
1F
100
AcDbEntity
  8
0
  6
Continuous
 62
     7
370
    15
100
AcDbLine
 10
1244.4898879024
 20
2062.1758633827
 30
0.0
 11
1275.4899060222
 21
2062.1758633827
 31
0.0
  0
ARC
  5
1E2
330
1F
100
AcDbEntity
  8
0
  6
Continuous
 62
     7
370
    15
100
AcDbCircle
 10
1244.4899018896
 20
2057.6758661686
 30
0.0
 40
4.500000000000455
100
AcDbArc
 50
90.0
 51
270.0
  0
LINE
  5
1E3
330
1F
100
AcDbEntity
  8
0
  6
Continuous
 62
     7
370
    15
100
AcDbLine
 10
1325.4899179431
 20
2080.1758626078
 30
0.0
 11
1294.4898998233
 21
2080.1758626078
 31
0.0
  0
ARC
  5
1E4
330
1F
100
AcDbEntity
  8
0
  6
Continuous
 62
     7
370
    15
100
AcDbCircle
 10
1325.4899018896
 20
2084.6758661686
 30
0.0
 40
4.500000000000455
100
AcDbArc
 50
270.0
 51
90.0
  0
LINE
  5
1E5
330
1F
100
AcDbEntity
  8
0
  6
Continuous
 62
     7
370
    15
100
AcDbLine
 10
1294.4898998233
 20
2089.1758659457
 30
0.0
 11
1325.4899179431
 21
2089.1758659457
 31
0.0
  0
ARC
  5
1E6
330
1F
100
AcDbEntity
  8
0
  6
Continuous
 62
     7
370
    15
100
AcDbCircle
 10
1294.4899018896
 20
2084.6758661686
 30
0.0
 40
4.500000000000455
100
AcDbArc
 50
90.0
 51
270.0
  0
LINE
  5
1E7
330
1F
100
AcDbEntity
  8
0
  6
Continuous
 62
     7
370
    15
100
AcDbLine
 10
1325.4899179431
 20
2053.1758600448
 30
0.0
 11
1294.4898998233
 21
2053.1758600448
 31
0.0
  0
ARC
  5
1E8
330
1F
100
AcDbEntity
  8
0
  6
Continuous
 62
     7
370
    15
100
AcDbCircle
 10
1325.4899018896
 20
2057.6758661686
 30
0.0
 40
4.500000000000909
100
AcDbArc
 50
270.0
 51
90.0
  0
LINE
  5
1E9
330
1F
100
AcDbEntity
  8
0
  6
Continuous
 62
     7
370
    15
100
AcDbLine
 10
1294.4898998233
 20
2062.1758633827
 30
0.0
 11
1325.4899179431
 21
2062.1758633827
 31
0.0
  0
ARC
  5
1EA
330
1F
100
AcDbEntity
  8
0
  6
Continuous
 62
     7
370
    15
100
AcDbCircle
 10
1294.4899018896
 20
2057.6758661686
 30
0.0
 40
4.500000000000455
100
AcDbArc
 50
90.0
 51
270.0
  0
LINE
  5
1EB
330
1F
100
AcDbEntity
  8
0
  6
Continuous
 62
     7
370
    15
100
AcDbLine
 10
1375.489929864
 20
2080.1758626078
 30
0.0
 11
1344.4899117442
 21
2080.1758626078
 31
0.0
  0
ARC
  5
1EC
330
1F
100
AcDbEntity
  8
0
  6
Continuous
 62
     7
370
    15
100
AcDbCircle
 10
1375.4899018896
 20
2084.6758661686
 30
0.0
 40
4.500000000000455
100
AcDbArc
 50
270.0
 51
90.0
  0
LINE
  5
1ED
330
1F
100
AcDbEntity
  8
0
  6
Continuous
 62
     7
370
    15
100
AcDbLine
 10
1344.4899117442
 20
2089.1758659457
 30
0.0
 11
1375.489929864
 21
2089.1758659457
 31
0.0
  0
ARC
  5
1EE
330
1F
100
AcDbEntity
  8
0
  6
Continuous
 62
     7
370
    15
100
AcDbCircle
 10
1344.4899018896
 20
2084.6758661686
 30
0.0
 40
4.500000000000455
100
AcDbArc
 50
90.0
 51
270.0
  0
LINE
  5
1EF
330
1F
100
AcDbEntity
  8
0
  6
Continuous
 62
     7
370
    15
100
AcDbLine
 10
1375.489929864
 20
2053.1758600448
 30
0.0
 11
1344.4899117442
 21
2053.1758600448
 31
0.0
  0
ARC
  5
1F0
330
1F
100
AcDbEntity
  8
0
  6
Continuous
 62
     7
370
    15
100
AcDbCircle
 10
1375.4899018896
 20
2057.6758661686
 30
0.0
 40
4.500000000000909
100
AcDbArc
 50
270.0
 51
90.0
  0
LINE
  5
1F1
330
1F
100
AcDbEntity
  8
0
  6
Continuous
 62
     7
370
    15
100
AcDbLine
 10
1344.4899117442
 20
2062.1758633827
 30
0.0
 11
1375.489929864
 21
2062.1758633827
 31
0.0
  0
ARC
  5
1F2
330
1F
100
AcDbEntity
  8
0
  6
Continuous
 62
     7
370
    15
100
AcDbCircle
 10
1344.4899018896
 20
2057.6758661686
 30
0.0
 40
4.500000000000455
100
AcDbArc
 50
90.0
 51
270.0
  0
LINE
  5
1F3
330
1F
100
AcDbEntity
  8
0
  6
Continuous
 62
     7
370
    15
100
AcDbLine
 10
1525.4899060222
 20
2080.1758626078
 30
0.0
 11
1494.4898879024
 21
2080.1758626078
 31
0.0
  0
ARC
  5
1F4
330
1F
100
AcDbEntity
  8
0
  6
Continuous
 62
     7
370
    15
100
AcDbCircle
 10
1525.4899018896
 20
2084.6758661686
 30
0.0
 40
4.500000000000909
100
AcDbArc
 50
270.0
 51
90.0
  0
LINE
  5
1F5
330
1F
100
AcDbEntity
  8
0
  6
Continuous
 62
     7
370
    15
100
AcDbLine
 10
1494.4898879024
 20
2089.1758659457
 30
0.0
 11
1525.4899060222
 21
2089.1758659457
 31
0.0
  0
ARC
  5
1F6
330
1F
100
AcDbEntity
  8
0
  6
Continuous
 62
     7
370
    15
100
AcDbCircle
 10
1494.4899018896
 20
2084.6758661686
 30
0.0
 40
4.500000000000455
100
AcDbArc
 50
90.0
 51
270.0
  0
LINE
  5
1F7
330
1F
100
AcDbEntity
  8
0
  6
Continuous
 62
     7
370
    15
100
AcDbLine
 10
1525.4899060222
 20
2053.1758600448
 30
0.0
 11
1494.4898879024
 21
2053.1758600448
 31
0.0
  0
ARC
  5
1F8
330
1F
100
AcDbEntity
  8
0
  6
Continuous
 62
     7
370
    15
100
AcDbCircle
 10
1525.4899018896
 20
2057.6758661686
 30
0.0
 40
4.500000000000909
100
AcDbArc
 50
270.0
 51
90.0
  0
LINE
  5
1F9
330
1F
100
AcDbEntity
  8
0
  6
Continuous
 62
     7
370
    15
100
AcDbLine
 10
1494.4898879024
 20
2062.1758633827
 30
0.0
 11
1525.4899060222
 21
2062.1758633827
 31
0.0
  0
ARC
  5
1FA
330
1F
100
AcDbEntity
  8
0
  6
Continuous
 62
     7
370
    15
100
AcDbCircle
 10
1494.4899018896
 20
2057.6758661686
 30
0.0
 40
4.500000000000455
100
AcDbArc
 50
90.0
 51
270.0
  0
LINE
  5
1FB
330
1F
100
AcDbEntity
  8
0
  6
Continuous
 62
     7
370
    15
100
AcDbLine
 10
1575.4898583385
 20
2080.1758626078
 30
0.0
 11
1544.4899594279
 21
2080.1758626078
 31
0.0
  0
ARC
  5
1FC
330
1F
100
AcDbEntity
  8
0
  6
Continuous
 62
     7
370
    15
100
AcDbCircle
 10
1575.4899018896
 20
2084.6758661686
 30
0.0
 40
4.500000000000455
100
AcDbArc
 50
270.0
 51
90.0
  0
LINE
  5
1FD
330
1F
100
AcDbEntity
  8
0
  6
Continuous
 62
     7
370
    15
100
AcDbLine
 10
1544.4899594279
 20
2089.1758659457
 30
0.0
 11
1575.4898583385
 21
2089.1758659457
 31
0.0
  0
ARC
  5
1FE
330
1F
100
AcDbEntity
  8
0
  6
Continuous
 62
     7
370
    15
100
AcDbCircle
 10
1544.4899018896
 20
2084.6758661686
 30
0.0
 40
4.500000000000455
100
AcDbArc
 50
90.0
 51
270.0
  0
LINE
  5
1FF
330
1F
100
AcDbEntity
  8
0
  6
Continuous
 62
     7
370
    15
100
AcDbLine
 10
1575.4898583385
 20
2053.1758600448
 30
0.0
 11
1544.4899594279
 21
2053.1758600448
 31
0.0
  0
ARC
  5
200
330
1F
100
AcDbEntity
  8
0
  6
Continuous
 62
     7
370
    15
100
AcDbCircle
 10
1575.4899018896
 20
2057.6758661686
 30
0.0
 40
4.500000000000909
100
AcDbArc
 50
270.0
 51
90.0
  0
LINE
  5
201
330
1F
100
AcDbEntity
  8
0
  6
Continuous
 62
     7
370
    15
100
AcDbLine
 10
1544.4899594279
 20
2062.1758633827
 30
0.0
 11
1575.4898583385
 21
2062.1758633827
 31
0.0
  0
ARC
  5
202
330
1F
100
AcDbEntity
  8
0
  6
Continuous
 62
     7
370
    15
100
AcDbCircle
 10
1544.4899018896
 20
2057.6758661686
 30
0.0
 40
4.500000000000455
100
AcDbArc
 50
90.0
 51
270.0
  0
LINE
  5
203
330
1F
100
AcDbEntity
  8
0
  6
Continuous
 62
     7
370
    15
100
AcDbLine
 10
1625.489929864
 20
2080.1758626078
 30
0.0
 11
1594.4899117442
 21
2080.1758626078
 31
0.0
  0
ARC
  5
204
330
1F
100
AcDbEntity
  8
0
  6
Continuous
 62
     7
370
    15
100
AcDbCircle
 10
1625.4899018896
 20
2084.6758661686
 30
0.0
 40
4.500000000000909
100
AcDbArc
 50
270.0
 51
90.0
  0
LINE
  5
205
330
1F
100
AcDbEntity
  8
0
  6
Continuous
 62
     7
370
    15
100
AcDbLine
 10
1594.4899117442
 20
2089.1758659457
 30
0.0
 11
1625.489929864
 21
2089.1758659457
 31
0.0
  0
ARC
  5
206
330
1F
100
AcDbEntity
  8
0
  6
Continuous
 62
     7
370
    15
100
AcDbCircle
 10
1594.4899018896
 20
2084.6758661686
 30
0.0
 40
4.500000000000455
100
AcDbArc
 50
90.0
 51
270.0
  0
LINE
  5
207
330
1F
100
AcDbEntity
  8
0
  6
Continuous
 62
     7
370
    15
100
AcDbLine
 10
1675.4898821803
 20
2080.1758626078
 30
0.0
 11
1644.4898640605
 21
2080.1758626078
 31
0.0
  0
ARC
  5
208
330
1F
100
AcDbEntity
  8
0
  6
Continuous
 62
     7
370
    15
100
AcDbCircle
 10
1675.4899018896
 20
2084.6758661686
 30
0.0
 40
4.500000000000455
100
AcDbArc
 50
270.0
 51
90.0
  0
LINE
  5
209
330
1F
100
AcDbEntity
  8
0
  6
Continuous
 62
     7
370
    15
100
AcDbLine
 10
1644.4898640605
 20
2089.1758659457
 30
0.0
 11
1675.4898821803
 21
2089.1758659457
 31
0.0
  0
ARC
  5
20A
330
1F
100
AcDbEntity
  8
0
  6
Continuous
 62
     7
370
    15
100
AcDbCircle
 10
1644.4899018896
 20
2084.6758661686
 30
0.0
 40
4.500000000000455
100
AcDbArc
 50
90.0
 51
270.0
  0
LINE
  5
20B
330
1F
100
AcDbEntity
  8
0
  6
Continuous
 62
     7
370
    15
100
AcDbLine
 10
1644.4898640605
 20
2062.1758633827
 30
0.0
 11
1675.4898821803
 21
2062.1758633827
 31
0.0
  0
ARC
  5
20C
330
1F
100
AcDbEntity
  8
0
  6
Continuous
 62
     7
370
    15
100
AcDbCircle
 10
1644.4899018896
 20
2057.6758661686
 30
0.0
 40
4.500000000000455
100
AcDbArc
 50
90.0
 51
270.0
  0
LINE
  5
20D
330
1F
100
AcDbEntity
  8
0
  6
Continuous
 62
     7
370
    15
100
AcDbLine
 10
1675.4898821803
 20
2053.1758600448
 30
0.0
 11
1644.4898640605
 21
2053.1758600448
 31
0.0
  0
ARC
  5
20E
330
1F
100
AcDbEntity
  8
0
  6
Continuous
 62
     7
370
    15
100
AcDbCircle
 10
1675.4899018896
 20
2057.6758661686
 30
0.0
 40
4.500000000000909
100
AcDbArc
 50
270.0
 51
90.0
  0
LINE
  5
20F
330
1F
100
AcDbEntity
  8
0
  6
Continuous
 62
     7
370
    15
100
AcDbLine
 10
1625.489929864
 20
2053.1758600448
 30
0.0
 11
1594.4899117442
 21
2053.1758600448
 31
0.0
  0
ARC
  5
210
330
1F
100
AcDbEntity
  8
0
  6
Continuous
 62
     7
370
    15
100
AcDbCircle
 10
1625.4899018896
 20
2057.6758661686
 30
0.0
 40
4.500000000000909
100
AcDbArc
 50
270.0
 51
90.0
  0
LINE
  5
211
330
1F
100
AcDbEntity
  8
0
  6
Continuous
 62
     7
370
    15
100
AcDbLine
 10
1594.4899117442
 20
2062.1758633827
 30
0.0
 11
1625.489929864
 21
2062.1758633827
 31
0.0
  0
ARC
  5
212
330
1F
100
AcDbEntity
  8
0
  6
Continuous
 62
     7
370
    15
100
AcDbCircle
 10
1594.4899018896
 20
2057.6758661686
 30
0.0
 40
4.500000000000909
100
AcDbArc
 50
90.0
 51
270.0
  0
LINE
  5
213
330
1F
100
AcDbEntity
  8
0
  6
Continuous
 62
     7
370
    15
100
AcDbLine
 10
1425.4898821803
 20
2080.1758626078
 30
0.0
 11
1394.4898640605
 21
2080.1758626078
 31
0.0
  0
ARC
  5
214
330
1F
100
AcDbEntity
  8
0
  6
Continuous
 62
     7
370
    15
100
AcDbCircle
 10
1425.4899018896
 20
2084.6758661686
 30
0.0
 40
4.500000000000455
100
AcDbArc
 50
270.0
 51
90.0
  0
LINE
  5
215
330
1F
100
AcDbEntity
  8
0
  6
Continuous
 62
     7
370
    15
100
AcDbLine
 10
1394.4898640605
 20
2089.1758659457
 30
0.0
 11
1425.4898821803
 21
2089.1758659457
 31
0.0
  0
ARC
  5
216
330
1F
100
AcDbEntity
  8
0
  6
Continuous
 62
     7
370
    15
100
AcDbCircle
 10
1394.4899018896
 20
2084.6758661686
 30
0.0
 40
4.500000000000455
100
AcDbArc
 50
90.0
 51
270.0
  0
LINE
  5
217
330
1F
100
AcDbEntity
  8
0
  6
Continuous
 62
     7
370
    15
100
AcDbLine
 10
1475.4899537059
 20
2080.1758626078
 30
0.0
 11
1444.4899355861
 21
2080.1758626078
 31
0.0
  0
ARC
  5
218
330
1F
100
AcDbEntity
  8
0
  6
Continuous
 62
     7
370
    15
100
AcDbCircle
 10
1475.4899018896
 20
2084.6758661686
 30
0.0
 40
4.500000000000455
100
AcDbArc
 50
270.0
 51
90.0
  0
LINE
  5
219
330
1F
100
AcDbEntity
  8
0
  6
Continuous
 62
     7
370
    15
100
AcDbLine
 10
1444.4899355861
 20
2089.1758659457
 30
0.0
 11
1475.4899537059
 21
2089.1758659457
 31
0.0
  0
ARC
  5
21A
330
1F
100
AcDbEntity
  8
0
  6
Continuous
 62
     7
370
    15
100
AcDbCircle
 10
1444.4899018896
 20
2084.6758661686
 30
0.0
 40
4.500000000000909
100
AcDbArc
 50
90.0
 51
270.0
  0
LINE
  5
21B
330
1F
100
AcDbEntity
  8
0
  6
Continuous
 62
     7
370
    15
100
AcDbLine
 10
1444.4899355861
 20
2062.1758633827
 30
0.0
 11
1475.4899537059
 21
2062.1758633827
 31
0.0
  0
ARC
  5
21C
330
1F
100
AcDbEntity
  8
0
  6
Continuous
 62
     7
370
    15
100
AcDbCircle
 10
1444.4899018896
 20
2057.6758661686
 30
0.0
 40
4.500000000000455
100
AcDbArc
 50
90.0
 51
270.0
  0
LINE
  5
21D
330
1F
100
AcDbEntity
  8
0
  6
Continuous
 62
     7
370
    15
100
AcDbLine
 10
1475.4899537059
 20
2053.1758600448
 30
0.0
 11
1444.4899355861
 21
2053.1758600448
 31
0.0
  0
ARC
  5
21E
330
1F
100
AcDbEntity
  8
0
  6
Continuous
 62
     7
370
    15
100
AcDbCircle
 10
1475.4899018896
 20
2057.6758661686
 30
0.0
 40
4.500000000000909
100
AcDbArc
 50
270.0
 51
90.0
  0
LINE
  5
21F
330
1F
100
AcDbEntity
  8
0
  6
Continuous
 62
     7
370
    15
100
AcDbLine
 10
1425.4898821803
 20
2053.1758600448
 30
0.0
 11
1394.4898640605
 21
2053.1758600448
 31
0.0
  0
ARC
  5
220
330
1F
100
AcDbEntity
  8
0
  6
Continuous
 62
     7
370
    15
100
AcDbCircle
 10
1425.4899018896
 20
2057.6758661686
 30
0.0
 40
4.500000000000909
100
AcDbArc
 50
270.0
 51
90.0
  0
LINE
  5
221
330
1F
100
AcDbEntity
  8
0
  6
Continuous
 62
     7
370
    15
100
AcDbLine
 10
1394.4898640605
 20
2062.1758633827
 30
0.0
 11
1425.4898821803
 21
2062.1758633827
 31
0.0
  0
ARC
  5
222
330
1F
100
AcDbEntity
  8
0
  6
Continuous
 62
     7
370
    15
100
AcDbCircle
 10
1394.4899018896
 20
2057.6758661686
 30
0.0
 40
4.500000000000455
100
AcDbArc
 50
90.0
 51
270.0
  0
LINE
  5
223
330
1F
100
AcDbEntity
  8
0
  6
Continuous
 62
     7
370
    15
100
AcDbLine
 10
1644.4898640605
 20
2642.1758764957
 30
0.0
 11
1675.4898821803
 21
2642.1758764957
 31
0.0
  0
ARC
  5
224
330
1F
100
AcDbEntity
  8
0
  6
Continuous
 62
     7
370
    15
100
AcDbCircle
 10
1644.4899018896
 20
2637.6758661687
 30
0.0
 40
4.500000000000909
100
AcDbArc
 50
90.0
 51
270.0
  0
LINE
  5
225
330
1F
100
AcDbEntity
  8
0
  6
Continuous
 62
     7
370
    15
100
AcDbLine
 10
1675.4898821803
 20
2633.1758731579
 30
0.0
 11
1644.4898640605
 21
2633.1758731579
 31
0.0
  0
ARC
  5
226
330
1F
100
AcDbEntity
  8
0
  6
Continuous
 62
     7
370
    15
100
AcDbCircle
 10
1675.4899018896
 20
2637.6758661687
 30
0.0
 40
4.500000000000455
100
AcDbArc
 50
270.0
 51
90.0
  0
LINE
  5
227
330
1F
100
AcDbEntity
  8
0
  6
Continuous
 62
     7
370
    15
100
AcDbLine
 10
1644.4898640605
 20
2669.175856707
 30
0.0
 11
1675.4898821803
 21
2669.175856707
 31
0.0
  0
ARC
  5
228
330
1F
100
AcDbEntity
  8
0
  6
Continuous
 62
     7
370
    15
100
AcDbCircle
 10
1644.4899018896
 20
2664.6758661687
 30
0.0
 40
4.500000000000455
100
AcDbArc
 50
90.0
 51
270.0
  0
LINE
  5
229
330
1F
100
AcDbEntity
  8
0
  6
Continuous
 62
     7
370
    15
100
AcDbLine
 10
1675.4898821803
 20
2660.1758533691
 30
0.0
 11
1644.4898640605
 21
2660.1758533691
 31
0.0
  0
ARC
  5
22A
330
1F
100
AcDbEntity
  8
0
  6
Continuous
 62
     7
370
    15
100
AcDbCircle
 10
1675.4899018896
 20
2664.6758661687
 30
0.0
 40
4.500000000000455
100
AcDbArc
 50
270.0
 51
90.0
  0
LINE
  5
22B
330
1F
100
AcDbEntity
  8
0
  6
Continuous
 62
     7
370
    15
100
AcDbLine
 10
1594.4899117442
 20
2642.1758764957
 30
0.0
 11
1625.489929864
 21
2642.1758764957
 31
0.0
  0
ARC
  5
22C
330
1F
100
AcDbEntity
  8
0
  6
Continuous
 62
     7
370
    15
100
AcDbCircle
 10
1594.4899018896
 20
2637.6758661687
 30
0.0
 40
4.500000000000909
100
AcDbArc
 50
90.0
 51
270.0
  0
LINE
  5
22D
330
1F
100
AcDbEntity
  8
0
  6
Continuous
 62
     7
370
    15
100
AcDbLine
 10
1625.489929864
 20
2633.1758731579
 30
0.0
 11
1594.4899117442
 21
2633.1758731579
 31
0.0
  0
ARC
  5
22E
330
1F
100
AcDbEntity
  8
0
  6
Continuous
 62
     7
370
    15
100
AcDbCircle
 10
1625.4899018896
 20
2637.6758661687
 30
0.0
 40
4.500000000000455
100
AcDbArc
 50
270.0
 51
90.0
  0
LINE
  5
22F
330
1F
100
AcDbEntity
  8
0
  6
Continuous
 62
     7
370
    15
100
AcDbLine
 10
1594.4899117442
 20
2669.175856707
 30
0.0
 11
1625.489929864
 21
2669.175856707
 31
0.0
  0
ARC
  5
230
330
1F
100
AcDbEntity
  8
0
  6
Continuous
 62
     7
370
    15
100
AcDbCircle
 10
1594.4899018896
 20
2664.6758661687
 30
0.0
 40
4.500000000000455
100
AcDbArc
 50
90.0
 51
270.0
  0
LINE
  5
231
330
1F
100
AcDbEntity
  8
0
  6
Continuous
 62
     7
370
    15
100
AcDbLine
 10
1625.489929864
 20
2660.1758533691
 30
0.0
 11
1594.4899117442
 21
2660.1758533691
 31
0.0
  0
ARC
  5
232
330
1F
100
AcDbEntity
  8
0
  6
Continuous
 62
     7
370
    15
100
AcDbCircle
 10
1625.4899018896
 20
2664.6758661687
 30
0.0
 40
4.500000000000455
100
AcDbArc
 50
270.0
 51
90.0
  0
LINE
  5
233
330
1F
100
AcDbEntity
  8
0
  6
Continuous
 62
     7
370
    15
100
AcDbLine
 10
1544.4899594279
 20
2642.1758764957
 30
0.0
 11
1575.4898583385
 21
2642.1758764957
 31
0.0
  0
ARC
  5
234
330
1F
100
AcDbEntity
  8
0
  6
Continuous
 62
     7
370
    15
100
AcDbCircle
 10
1544.4899018896
 20
2637.6758661687
 30
0.0
 40
4.500000000001364
100
AcDbArc
 50
90.0
 51
270.0
  0
LINE
  5
235
330
1F
100
AcDbEntity
  8
0
  6
Continuous
 62
     7
370
    15
100
AcDbLine
 10
1575.4898583385
 20
2633.1758731579
 30
0.0
 11
1544.4899594279
 21
2633.1758731579
 31
0.0
  0
ARC
  5
236
330
1F
100
AcDbEntity
  8
0
  6
Continuous
 62
     7
370
    15
100
AcDbCircle
 10
1575.4899018896
 20
2637.6758661687
 30
0.0
 40
4.500000000000909
100
AcDbArc
 50
270.0
 51
90.0
  0
LINE
  5
237
330
1F
100
AcDbEntity
  8
0
  6
Continuous
 62
     7
370
    15
100
AcDbLine
 10
1544.4899594279
 20
2669.175856707
 30
0.0
 11
1575.4898583385
 21
2669.175856707
 31
0.0
  0
ARC
  5
238
330
1F
100
AcDbEntity
  8
0
  6
Continuous
 62
     7
370
    15
100
AcDbCircle
 10
1544.4899018896
 20
2664.6758661687
 30
0.0
 40
4.500000000000455
100
AcDbArc
 50
90.0
 51
270.0
  0
LINE
  5
239
330
1F
100
AcDbEntity
  8
0
  6
Continuous
 62
     7
370
    15
100
AcDbLine
 10
1575.4898583385
 20
2660.1758533691
 30
0.0
 11
1544.4899594279
 21
2660.1758533691
 31
0.0
  0
ARC
  5
23A
330
1F
100
AcDbEntity
  8
0
  6
Continuous
 62
     7
370
    15
100
AcDbCircle
 10
1575.4899018896
 20
2664.6758661687
 30
0.0
 40
4.500000000000455
100
AcDbArc
 50
270.0
 51
90.0
  0
LINE
  5
23B
330
1F
100
AcDbEntity
  8
0
  6
Continuous
 62
     7
370
    15
100
AcDbLine
 10
1494.4898879024
 20
2642.1758764957
 30
0.0
 11
1525.4899060222
 21
2642.1758764957
 31
0.0
  0
ARC
  5
23C
330
1F
100
AcDbEntity
  8
0
  6
Continuous
 62
     7
370
    15
100
AcDbCircle
 10
1494.4899018896
 20
2637.6758661687
 30
0.0
 40
4.500000000000909
100
AcDbArc
 50
90.0
 51
270.0
  0
LINE
  5
23D
330
1F
100
AcDbEntity
  8
0
  6
Continuous
 62
     7
370
    15
100
AcDbLine
 10
1525.4899060222
 20
2633.1758731579
 30
0.0
 11
1494.4898879024
 21
2633.1758731579
 31
0.0
  0
ARC
  5
23E
330
1F
100
AcDbEntity
  8
0
  6
Continuous
 62
     7
370
    15
100
AcDbCircle
 10
1525.4899018896
 20
2637.6758661687
 30
0.0
 40
4.500000000000455
100
AcDbArc
 50
270.0
 51
90.0
  0
LINE
  5
23F
330
1F
100
AcDbEntity
  8
0
  6
Continuous
 62
     7
370
    15
100
AcDbLine
 10
1494.4898879024
 20
2669.175856707
 30
0.0
 11
1525.4899060222
 21
2669.175856707
 31
0.0
  0
ARC
  5
240
330
1F
100
AcDbEntity
  8
0
  6
Continuous
 62
     7
370
    15
100
AcDbCircle
 10
1494.4899018896
 20
2664.6758661687
 30
0.0
 40
4.500000000000455
100
AcDbArc
 50
90.0
 51
270.0
  0
LINE
  5
241
330
1F
100
AcDbEntity
  8
0
  6
Continuous
 62
     7
370
    15
100
AcDbLine
 10
1525.4899060222
 20
2660.1758533691
 30
0.0
 11
1494.4898879024
 21
2660.1758533691
 31
0.0
  0
ARC
  5
242
330
1F
100
AcDbEntity
  8
0
  6
Continuous
 62
     7
370
    15
100
AcDbCircle
 10
1525.4899018896
 20
2664.6758661687
 30
0.0
 40
4.5
100
AcDbArc
 50
270.0
 51
90.0
  0
LINE
  5
243
330
1F
100
AcDbEntity
  8
0
  6
Continuous
 62
     7
370
    15
100
AcDbLine
 10
1344.4899117442
 20
2642.1758764957
 30
0.0
 11
1375.489929864
 21
2642.1758764957
 31
0.0
  0
ARC
  5
244
330
1F
100
AcDbEntity
  8
0
  6
Continuous
 62
     7
370
    15
100
AcDbCircle
 10
1344.4899018896
 20
2637.6758661687
 30
0.0
 40
4.500000000000909
100
AcDbArc
 50
90.0
 51
270.0
  0
LINE
  5
245
330
1F
100
AcDbEntity
  8
0
  6
Continuous
 62
     7
370
    15
100
AcDbLine
 10
1375.489929864
 20
2633.1758731579
 30
0.0
 11
1344.4899117442
 21
2633.1758731579
 31
0.0
  0
ARC
  5
246
330
1F
100
AcDbEntity
  8
0
  6
Continuous
 62
     7
370
    15
100
AcDbCircle
 10
1375.4899018896
 20
2637.6758661687
 30
0.0
 40
4.500000000000455
100
AcDbArc
 50
270.0
 51
90.0
  0
LINE
  5
247
330
1F
100
AcDbEntity
  8
0
  6
Continuous
 62
     7
370
    15
100
AcDbLine
 10
1344.4899117442
 20
2669.175856707
 30
0.0
 11
1375.489929864
 21
2669.175856707
 31
0.0
  0
ARC
  5
248
330
1F
100
AcDbEntity
  8
0
  6
Continuous
 62
     7
370
    15
100
AcDbCircle
 10
1344.4899018896
 20
2664.6758661687
 30
0.0
 40
4.500000000000455
100
AcDbArc
 50
90.0
 51
270.0
  0
LINE
  5
249
330
1F
100
AcDbEntity
  8
0
  6
Continuous
 62
     7
370
    15
100
AcDbLine
 10
1375.489929864
 20
2660.1758533691
 30
0.0
 11
1344.4899117442
 21
2660.1758533691
 31
0.0
  0
ARC
  5
24A
330
1F
100
AcDbEntity
  8
0
  6
Continuous
 62
     7
370
    15
100
AcDbCircle
 10
1375.4899018896
 20
2664.6758661687
 30
0.0
 40
4.500000000000455
100
AcDbArc
 50
270.0
 51
90.0
  0
LINE
  5
24B
330
1F
100
AcDbEntity
  8
0
  6
Continuous
 62
     7
370
    15
100
AcDbLine
 10
1294.4898998233
 20
2642.1758764957
 30
0.0
 11
1325.4899179431
 21
2642.1758764957
 31
0.0
  0
ARC
  5
24C
330
1F
100
AcDbEntity
  8
0
  6
Continuous
 62
     7
370
    15
100
AcDbCircle
 10
1294.4899018896
 20
2637.6758661687
 30
0.0
 40
4.500000000000909
100
AcDbArc
 50
90.0
 51
270.0
  0
LINE
  5
24D
330
1F
100
AcDbEntity
  8
0
  6
Continuous
 62
     7
370
    15
100
AcDbLine
 10
1325.4899179431
 20
2633.1758731579
 30
0.0
 11
1294.4898998233
 21
2633.1758731579
 31
0.0
  0
ARC
  5
24E
330
1F
100
AcDbEntity
  8
0
  6
Continuous
 62
     7
370
    15
100
AcDbCircle
 10
1325.4899018896
 20
2637.6758661687
 30
0.0
 40
4.500000000000455
100
AcDbArc
 50
270.0
 51
90.0
  0
LINE
  5
24F
330
1F
100
AcDbEntity
  8
0
  6
Continuous
 62
     7
370
    15
100
AcDbLine
 10
1294.4898998233
 20
2669.175856707
 30
0.0
 11
1325.4899179431
 21
2669.175856707
 31
0.0
  0
ARC
  5
250
330
1F
100
AcDbEntity
  8
0
  6
Continuous
 62
     7
370
    15
100
AcDbCircle
 10
1294.4899018896
 20
2664.6758661687
 30
0.0
 40
4.500000000000455
100
AcDbArc
 50
90.0
 51
270.0
  0
LINE
  5
251
330
1F
100
AcDbEntity
  8
0
  6
Continuous
 62
     7
370
    15
100
AcDbLine
 10
1325.4899179431
 20
2660.1758533691
 30
0.0
 11
1294.4898998233
 21
2660.1758533691
 31
0.0
  0
ARC
  5
252
330
1F
100
AcDbEntity
  8
0
  6
Continuous
 62
     7
370
    15
100
AcDbCircle
 10
1325.4899018896
 20
2664.6758661687
 30
0.0
 40
4.500000000000909
100
AcDbArc
 50
270.0
 51
90.0
  0
LINE
  5
253
330
1F
100
AcDbEntity
  8
0
  6
Continuous
 62
     7
370
    15
100
AcDbLine
 10
1244.4898879024
 20
2642.1758764957
 30
0.0
 11
1275.4899060222
 21
2642.1758764957
 31
0.0
  0
ARC
  5
254
330
1F
100
AcDbEntity
  8
0
  6
Continuous
 62
     7
370
    15
100
AcDbCircle
 10
1244.4899018896
 20
2637.6758661687
 30
0.0
 40
4.500000000000455
100
AcDbArc
 50
90.0
 51
270.0
  0
LINE
  5
255
330
1F
100
AcDbEntity
  8
0
  6
Continuous
 62
     7
370
    15
100
AcDbLine
 10
1275.4899060222
 20
2633.1758731579
 30
0.0
 11
1244.4898879024
 21
2633.1758731579
 31
0.0
  0
ARC
  5
256
330
1F
100
AcDbEntity
  8
0
  6
Continuous
 62
     7
370
    15
100
AcDbCircle
 10
1275.4899018896
 20
2637.6758661687
 30
0.0
 40
4.500000000000455
100
AcDbArc
 50
270.0
 51
90.0
  0
LINE
  5
257
330
1F
100
AcDbEntity
  8
0
  6
Continuous
 62
     7
370
    15
100
AcDbLine
 10
1194.4898759814
 20
2642.1758764957
 30
0.0
 11
1225.4898941012
 21
2642.1758764957
 31
0.0
  0
ARC
  5
258
330
1F
100
AcDbEntity
  8
0
  6
Continuous
 62
     7
370
    15
100
AcDbCircle
 10
1194.4899018896
 20
2637.6758661687
 30
0.0
 40
4.500000000000909
100
AcDbArc
 50
90.0
 51
270.0
  0
LINE
  5
259
330
1F
100
AcDbEntity
  8
0
  6
Continuous
 62
     7
370
    15
100
AcDbLine
 10
1225.4898941012
 20
2633.1758731579
 30
0.0
 11
1194.4898759814
 21
2633.1758731579
 31
0.0
  0
ARC
  5
25A
330
1F
100
AcDbEntity
  8
0
  6
Continuous
 62
     7
370
    15
100
AcDbCircle
 10
1225.4899018896
 20
2637.6758661687
 30
0.0
 40
4.500000000000455
100
AcDbArc
 50
270.0
 51
90.0
  0
LINE
  5
25B
330
1F
100
AcDbEntity
  8
0
  6
Continuous
 62
     7
370
    15
100
AcDbLine
 10
1225.4898941012
 20
2660.1758533691
 30
0.0
 11
1194.4898759814
 21
2660.1758533691
 31
0.0
  0
ARC
  5
25C
330
1F
100
AcDbEntity
  8
0
  6
Continuous
 62
     7
370
    15
100
AcDbCircle
 10
1225.4899018896
 20
2664.6758661687
 30
0.0
 40
4.500000000000455
100
AcDbArc
 50
270.0
 51
90.0
  0
LINE
  5
25D
330
1F
100
AcDbEntity
  8
0
  6
Continuous
 62
     7
370
    15
100
AcDbLine
 10
1194.4898759814
 20
2669.175856707
 30
0.0
 11
1225.4898941012
 21
2669.175856707
 31
0.0
  0
ARC
  5
25E
330
1F
100
AcDbEntity
  8
0
  6
Continuous
 62
     7
370
    15
100
AcDbCircle
 10
1194.4899018896
 20
2664.6758661687
 30
0.0
 40
4.5
100
AcDbArc
 50
90.0
 51
270.0
  0
LINE
  5
25F
330
1F
100
AcDbEntity
  8
0
  6
Continuous
 62
     7
370
    15
100
AcDbLine
 10
1244.4898879024
 20
2669.175856707
 30
0.0
 11
1275.4899060222
 21
2669.175856707
 31
0.0
  0
ARC
  5
260
330
1F
100
AcDbEntity
  8
0
  6
Continuous
 62
     7
370
    15
100
AcDbCircle
 10
1244.4899018896
 20
2664.6758661687
 30
0.0
 40
4.5
100
AcDbArc
 50
90.0
 51
270.0
  0
LINE
  5
261
330
1F
100
AcDbEntity
  8
0
  6
Continuous
 62
     7
370
    15
100
AcDbLine
 10
1275.4899060222
 20
2660.1758533691
 30
0.0
 11
1244.4898879024
 21
2660.1758533691
 31
0.0
  0
ARC
  5
262
330
1F
100
AcDbEntity
  8
0
  6
Continuous
 62
     7
370
    15
100
AcDbCircle
 10
1275.4899018896
 20
2664.6758661687
 30
0.0
 40
4.500000000000455
100
AcDbArc
 50
270.0
 51
90.0
  0
LINE
  5
263
330
1F
100
AcDbEntity
  8
0
  6
Continuous
 62
     7
370
    15
100
AcDbLine
 10
1444.4899355861
 20
2642.1758764957
 30
0.0
 11
1475.4899537059
 21
2642.1758764957
 31
0.0
  0
ARC
  5
264
330
1F
100
AcDbEntity
  8
0
  6
Continuous
 62
     7
370
    15
100
AcDbCircle
 10
1444.4899018896
 20
2637.6758661687
 30
0.0
 40
4.500000000000909
100
AcDbArc
 50
90.0
 51
270.0
  0
LINE
  5
265
330
1F
100
AcDbEntity
  8
0
  6
Continuous
 62
     7
370
    15
100
AcDbLine
 10
1475.4899537059
 20
2633.1758731579
 30
0.0
 11
1444.4899355861
 21
2633.1758731579
 31
0.0
  0
ARC
  5
266
330
1F
100
AcDbEntity
  8
0
  6
Continuous
 62
     7
370
    15
100
AcDbCircle
 10
1475.4899018896
 20
2637.6758661687
 30
0.0
 40
4.500000000000455
100
AcDbArc
 50
270.0
 51
90.0
  0
LINE
  5
267
330
1F
100
AcDbEntity
  8
0
  6
Continuous
 62
     7
370
    15
100
AcDbLine
 10
1394.4898640605
 20
2642.1758764957
 30
0.0
 11
1425.4898821803
 21
2642.1758764957
 31
0.0
  0
ARC
  5
268
330
1F
100
AcDbEntity
  8
0
  6
Continuous
 62
     7
370
    15
100
AcDbCircle
 10
1394.4899018896
 20
2637.6758661687
 30
0.0
 40
4.500000000000909
100
AcDbArc
 50
90.0
 51
270.0
  0
LINE
  5
269
330
1F
100
AcDbEntity
  8
0
  6
Continuous
 62
     7
370
    15
100
AcDbLine
 10
1425.4898821803
 20
2633.1758731579
 30
0.0
 11
1394.4898640605
 21
2633.1758731579
 31
0.0
  0
ARC
  5
26A
330
1F
100
AcDbEntity
  8
0
  6
Continuous
 62
     7
370
    15
100
AcDbCircle
 10
1425.4899018896
 20
2637.6758661687
 30
0.0
 40
4.500000000000455
100
AcDbArc
 50
270.0
 51
90.0
  0
LINE
  5
26B
330
1F
100
AcDbEntity
  8
0
  6
Continuous
 62
     7
370
    15
100
AcDbLine
 10
1425.4898821803
 20
2660.1758533691
 30
0.0
 11
1394.4898640605
 21
2660.1758533691
 31
0.0
  0
ARC
  5
26C
330
1F
100
AcDbEntity
  8
0
  6
Continuous
 62
     7
370
    15
100
AcDbCircle
 10
1425.4899018896
 20
2664.6758661687
 30
0.0
 40
4.500000000000909
100
AcDbArc
 50
270.0
 51
90.0
  0
LINE
  5
26D
330
1F
100
AcDbEntity
  8
0
  6
Continuous
 62
     7
370
    15
100
AcDbLine
 10
1394.4898640605
 20
2669.175856707
 30
0.0
 11
1425.4898821803
 21
2669.175856707
 31
0.0
  0
ARC
  5
26E
330
1F
100
AcDbEntity
  8
0
  6
Continuous
 62
     7
370
    15
100
AcDbCircle
 10
1394.4899018896
 20
2664.6758661687
 30
0.0
 40
4.500000000000909
100
AcDbArc
 50
90.0
 51
270.0
  0
LINE
  5
26F
330
1F
100
AcDbEntity
  8
0
  6
Continuous
 62
     7
370
    15
100
AcDbLine
 10
1444.4899355861
 20
2669.175856707
 30
0.0
 11
1475.4899537059
 21
2669.175856707
 31
0.0
  0
ARC
  5
270
330
1F
100
AcDbEntity
  8
0
  6
Continuous
 62
     7
370
    15
100
AcDbCircle
 10
1444.4899018896
 20
2664.6758661687
 30
0.0
 40
4.500000000000455
100
AcDbArc
 50
90.0
 51
270.0
  0
LINE
  5
271
330
1F
100
AcDbEntity
  8
0
  6
Continuous
 62
     7
370
    15
100
AcDbLine
 10
1475.4899537059
 20
2660.1758533691
 30
0.0
 11
1444.4899355861
 21
2660.1758533691
 31
0.0
  0
ARC
  5
272
330
1F
100
AcDbEntity
  8
0
  6
Continuous
 62
     7
370
    15
100
AcDbCircle
 10
1475.4899018896
 20
2664.6758661687
 30
0.0
 40
4.500000000000909
100
AcDbArc
 50
270.0
 51
90.0
  0
LINE
  5
273
330
1F
100
AcDbEntity
  8
0
  6
Continuous
 62
     7
370
    15
100
AcDbLine
 10
1188.4898936244
 20
2995.6758850788
 30
0.0
 11
1188.4898936244
 21
3026.675843594
 31
0.0
  0
ARC
  5
274
330
1F
100
AcDbEntity
  8
0
  6
Continuous
 62
     7
370
    15
100
AcDbCircle
 10
1192.9899018895
 20
2995.6758661687
 30
0.0
 40
4.500000000000227
100
AcDbArc
 50
180.0
 51
0.0
  0
LINE
  5
275
330
1F
100
AcDbEntity
  8
0
  6
Continuous
 62
     7
370
    15
100
AcDbLine
 10
1197.4898969623
 20
3026.675843594
 30
0.0
 11
1197.4898969623
 21
2995.6758850788
 31
0.0
  0
ARC
  5
276
330
1F
100
AcDbEntity
  8
0
  6
Continuous
 62
     7
370
    15
100
AcDbCircle
 10
1192.9899018895
 20
3026.6758661687
 30
0.0
 40
4.5
100
AcDbArc
 50
0.0
 51
180.0
  0
LINE
  5
277
330
1F
100
AcDbEntity
  8
0
  6
Continuous
 62
     7
370
    15
100
AcDbLine
 10
1212.9899060222
 20
2681.1758810257
 30
0.0
 11
1212.9899060222
 21
3201.1758321499
 31
0.0
  0
LINE
  5
278
330
1F
100
AcDbEntity
  8
0
  6
Continuous
 62
     7
370
    15
100
AcDbLine
 10
1676.9898926707
 20
3201.1758321499
 30
0.0
 11
1676.9898926707
 21
2681.1758810257
 31
0.0
  0
LINE
  5
279
330
1F
100
AcDbEntity
  8
0
  6
Continuous
 62
     7
370
    15
100
AcDbLine
 10
1188.4898936244
 20
2345.6758642172
 30
0.0
 11
1188.4898936244
 21
2376.6758674358
 31
0.0
  0
ARC
  5
27A
330
1F
100
AcDbEntity
  8
0
  6
Continuous
 62
     7
370
    15
100
AcDbCircle
 10
1192.9899018895
 20
2345.6758661687
 30
0.0
 40
4.5
100
AcDbArc
 50
180.0
 51
0.0
  0
LINE
  5
27B
330
1F
100
AcDbEntity
  8
0
  6
Continuous
 62
     7
370
    15
100
AcDbLine
 10
1197.4898969623
 20
2376.6758674358
 30
0.0
 11
1197.4898969623
 21
2345.6758642172
 31
0.0
  0
ARC
  5
27C
330
1F
100
AcDbEntity
  8
0
  6
Continuous
 62
     7
370
    15
100
AcDbCircle
 10
1192.9899018895
 20
2376.6758661687
 30
0.0
 40
4.500000000000227
100
AcDbArc
 50
0.0
 51
180.0
  0
LINE
  5
27D
330
1F
100
AcDbEntity
  8
0
  6
Continuous
 62
     7
370
    15
100
AcDbLine
 10
1212.9899060222
 20
2101.1758679127
 30
0.0
 11
1212.9899060222
 21
2621.1758786415
 31
0.0
  0
LINE
  5
27E
330
1F
100
AcDbEntity
  8
0
  6
Continuous
 62
     7
370
    15
100
AcDbLine
 10
1188.4898936244
 20
1695.6758731579
 30
0.0
 11
1188.4898936244
 21
1726.6758614754
 31
0.0
  0
ARC
  5
27F
330
1F
100
AcDbEntity
  8
0
  6
Continuous
 62
     7
370
    15
100
AcDbCircle
 10
1192.9899018895
 20
1695.6758661687
 30
0.0
 40
4.500000000000227
100
AcDbArc
 50
180.0
 51
0.0
  0
LINE
  5
280
330
1F
100
AcDbEntity
  8
0
  6
Continuous
 62
     7
370
    15
100
AcDbLine
 10
1197.4898969623
 20
1726.6758614754
 30
0.0
 11
1197.4898969623
 21
1695.6758731579
 31
0.0
  0
ARC
  5
281
330
1F
100
AcDbEntity
  8
0
  6
Continuous
 62
     7
370
    15
100
AcDbCircle
 10
1192.9899018895
 20
1726.6758661687
 30
0.0
 40
4.5
100
AcDbArc
 50
0.0
 51
180.0
  0
LINE
  5
282
330
1F
100
AcDbEntity
  8
0
  6
Continuous
 62
     7
370
    15
100
AcDbLine
 10
1212.9899060222
 20
1521.175884602
 30
0.0
 11
1212.9899060222
 21
2041.1758655285
 31
0.0
  0
LINE
  5
283
330
1F
100
AcDbEntity
  8
0
  6
Continuous
 62
     7
370
    15
100
AcDbLine
 10
1676.9898926707
 20
2041.1758655285
 30
0.0
 11
1676.9898926707
 21
1521.175884602
 31
0.0
  0
LINE
  5
284
330
1F
100
AcDbEntity
  8
0
  6
Continuous
 62
     7
370
    15
100
AcDbLine
 10
1676.9898926707
 20
2621.1758786415
 30
0.0
 11
1676.9898926707
 21
2101.1758679127
 31
0.0
  0
LINE
  5
285
330
1F
100
AcDbEntity
  8
0
  6
Continuous
 62
     7
370
    15
100
AcDbLine
 10
1676.9898926707
 20
3221.9184869503
 30
0.0
 11
1676.9898926707
 21
3213.4331697201
 31
0.0
  0
LINE
  5
286
330
1F
100
AcDbEntity
  8
0
  6
Continuous
 62
     7
370
    15
100
AcDbLine
 10
1676.9898926707
 20
3248.9185565685
 30
0.0
 11
1676.9898926707
 21
3240.4332393383
 31
0.0
  0
LINE
  5
287
330
1F
100
AcDbEntity
  8
0
  6
Continuous
 62
     7
370
    15
100
AcDbLine
 10
1212.9899060222
 20
3213.1759160732
 30
0.0
 11
1212.9899060222
 21
3222.1758598064
 31
0.0
  0
LINE
  5
288
330
1F
100
AcDbEntity
  8
0
  6
Continuous
 62
     7
370
    15
100
AcDbLine
 10
1212.9899060222
 20
3240.1758664821
 30
0.0
 11
1212.9899060222
 21
3249.1758102154
 31
0.0
  0
LINE
  5
289
330
1F
100
AcDbEntity
  8
0
  6
Continuous
 62
     7
370
    15
100
AcDbLine
 10
1212.9899060222
 20
1473.1758469318
 30
0.0
 11
1212.9899060222
 21
1482.1758502697
 31
0.0
  0
LINE
  5
28A
330
1F
100
AcDbEntity
  8
0
  6
Continuous
 62
     7
370
    15
100
AcDbLine
 10
1212.9899060222
 20
1500.1758569454
 30
0.0
 11
1212.9899060222
 21
1509.1758602833
 31
0.0
  0
LINE
  5
28B
330
1F
100
AcDbEntity
  8
0
  6
Continuous
 62
     7
370
    15
100
AcDbLine
 10
1676.9898926707
 20
1481.9184774135
 30
0.0
 11
1676.9898926707
 21
1473.433219788
 31
0.0
  0
LINE
  5
28C
330
1F
100
AcDbEntity
  8
0
  6
Continuous
 62
     7
370
    15
100
AcDbLine
 10
1676.9898926707
 20
1508.9184874271
 30
0.0
 11
1676.9898926707
 21
1500.4332298015
 31
0.0
  0
LINE
  5
28D
330
1F
100
AcDbEntity
  8
0
  6
Continuous
 62
     7
370
    15
100
AcDbLine
 10
1212.9899060222
 20
2053.1758600448
 30
0.0
 11
1212.9899060222
 21
2062.1758633827
 31
0.0
  0
LINE
  5
28E
330
1F
100
AcDbEntity
  8
0
  6
Continuous
 62
     7
370
    15
100
AcDbLine
 10
1212.9899060222
 20
2080.1758626078
 30
0.0
 11
1212.9899060222
 21
2089.1758659457
 31
0.0
  0
LINE
  5
28F
330
1F
100
AcDbEntity
  8
0
  6
Continuous
 62
     7
370
    15
100
AcDbLine
 10
1676.9898926707
 20
2061.9185054277
 30
0.0
 11
1676.9898926707
 21
2053.433232901
 31
0.0
  0
LINE
  5
290
330
1F
100
AcDbEntity
  8
0
  6
Continuous
 62
     7
370
    15
100
AcDbLine
 10
1676.9898926707
 20
2088.9185079907
 30
0.0
 11
1676.9898926707
 21
2080.4332280134
 31
0.0
  0
LINE
  5
291
330
1F
100
AcDbEntity
  8
0
  6
Continuous
 62
     7
370
    15
100
AcDbLine
 10
1212.9899060222
 20
2633.1758731579
 30
0.0
 11
1212.9899060222
 21
2642.1758764957
 31
0.0
  0
LINE
  5
292
330
1F
100
AcDbEntity
  8
0
  6
Continuous
 62
     7
370
    15
100
AcDbLine
 10
1212.9899060222
 20
2660.1758533691
 30
0.0
 11
1212.9899060222
 21
2669.175856707
 31
0.0
  0
LINE
  5
293
330
1F
100
AcDbEntity
  8
0
  6
Continuous
 62
     7
370
    15
100
AcDbLine
 10
1676.9898926707
 20
2641.9185036396
 30
0.0
 11
1676.9898926707
 21
2633.4332162117
 31
0.0
  0
LINE
  5
294
330
1F
100
AcDbEntity
  8
0
  6
Continuous
 62
     7
370
    15
100
AcDbLine
 10
1676.9898926707
 20
2668.9185136532
 30
0.0
 11
1676.9898926707
 21
2660.4332262253
 31
0.0
  0
DIMENSION
  5
295
330
1F
100
AcDbEntity
  8
0
  6
Continuous
 62
     7
370
     0
100
AcDbDimension
  2
_D_3
 10
1734.9899018896
 20
1355.1758411686
 30
0.0
 11
1449.6034944633
 21
1355.1758411686
 31
0.0
 70
   160
  1
<>
 71
     2
 42
-1.0
  3
SLDDIMSTYLE0
100
AcDbAlignedDimension
 13
1134.9899018896
 23
1461.1758661686
 33
0.0
 14
1734.9899018896
 24
1461.1758661687
 34
0.0
 50
0.0
100
AcDbRotatedDimension
  0
LINE
  5
29F
330
1F
100
AcDbEntity
  8
0
  6
Continuous
 62
     7
370
    15
100
AcDbLine
 10
-194.9415255253
 20
1044.2987775919
 30
0.0
 11
-194.9415255253
 21
1041.298756611
 31
0.0
  0
LINE
  5
2A0
330
1F
100
AcDbEntity
  8
0
  6
Continuous
 62
     7
370
    15
100
AcDbLine
 10
-168.9415324395
 20
1041.298756611
 30
0.0
 11
-168.9415324395
 21
1044.2987775919
 31
0.0
  0
LINE
  5
2A1
330
1F
100
AcDbEntity
  8
0
  6
Continuous
 62
     7
370
    15
100
AcDbLine
 10
-169.6115929549
 20
1038.2987356302
 30
0.0
 11
-169.6115929549
 21
1041.298756611
 31
0.0
  0
LINE
  5
2A2
330
1F
100
AcDbEntity
  8
0
  6
Continuous
 62
     7
370
    15
100
AcDbLine
 10
-254.6115863984
 20
1041.298756611
 30
0.0
 11
-254.6115863984
 21
1038.2987356302
 31
0.0
  0
LINE
  5
2A3
330
1F
100
AcDbEntity
  8
0
  6
Continuous
 62
     7
370
    15
100
AcDbLine
 10
-198.9415336316
 20
1071.2987280008
 30
0.0
 11
-198.9415336316
 21
1072.2987747308
 31
0.0
  0
LINE
  5
2A4
330
1F
100
AcDbEntity
  8
0
  6
Continuous
 62
     7
370
    15
100
AcDbLine
 10
-164.9415243332
 20
1072.2987747308
 30
0.0
 11
-164.9415243332
 21
1071.2987280008
 31
0.0
  0
LINE
  5
2A5
330
1F
100
AcDbEntity
  8
0
  6
Continuous
 62
     7
370
    15
100
AcDbLine
 10
-165.9415263598
 20
1073.2988214609
 30
0.0
 11
-197.941531605
 21
1073.2988214609
 31
0.0
  0
ARC
  5
2A6
330
1F
100
AcDbEntity
  8
0
  6
Continuous
 62
     7
370
    15
100
AcDbCircle
 10
-165.9415273489
 20
1072.2987686909
 30
0.0
 40
1.0
100
AcDbArc
 50
360.0
 51
90.0
  0
ARC
  5
2A7
330
1F
100
AcDbEntity
  8
0
  6
Continuous
 62
     7
370
    15
100
AcDbCircle
 10
-197.9415273489
 20
1072.2987686909
 30
0.0
 40
1.0
100
AcDbArc
 50
90.0
 51
180.0
  0
LINE
  5
2A8
330
1F
100
AcDbEntity
  8
0
  6
Continuous
 62
     7
370
    15
100
AcDbLine
 10
-187.7695966427
 20
1041.298756611
 30
0.0
 11
-168.9415324395
 21
1041.298756611
 31
0.0
  0
LINE
  5
2A9
330
1F
100
AcDbEntity
  8
0
  6
Continuous
 62
     7
370
    15
100
AcDbLine
 10
-181.6116023724
 20
1038.2987356302
 30
0.0
 11
-169.6115929549
 21
1038.2987356302
 31
0.0
  0
LINE
  5
2AA
330
1F
100
AcDbEntity
  8
0
  6
Continuous
 62
     7
370
    15
100
AcDbLine
 10
-181.6116023724
 20
1041.298756611
 30
0.0
 11
-181.6116023724
 21
1038.2987356302
 31
0.0
  0
LINE
  5
2AB
330
1F
100
AcDbEntity
  8
0
  6
Continuous
 62
     7
370
    15
100
AcDbLine
 10
-247.1258092587
 20
1041.298756611
 30
0.0
 11
-187.7695966427
 21
1041.298756611
 31
0.0
  0
LINE
  5
2AC
330
1F
100
AcDbEntity
  8
0
  6
Continuous
 62
     7
370
    15
100
AcDbLine
 10
-247.1258092587
 20
1038.2987356302
 30
0.0
 11
-181.6116023724
 21
1038.2987356302
 31
0.0
  0
LINE
  5
2AD
330
1F
100
AcDbEntity
  8
0
  6
Continuous
 62
     7
370
    15
100
AcDbLine
 10
-254.6115863984
 20
1041.298756611
 30
0.0
 11
-247.1258092587
 21
1041.298756611
 31
0.0
  0
LINE
  5
2AE
330
1F
100
AcDbEntity
  8
0
  6
Continuous
 62
     7
370
    15
100
AcDbLine
 10
-254.6115863984
 20
1038.2987356302
 30
0.0
 11
-247.1258092587
 21
1038.2987356302
 31
0.0
  0
LINE
  5
2AF
330
1F
100
AcDbEntity
  8
0
  6
Continuous
 62
     7
370
    15
100
AcDbLine
 10
582.7456962402
 20
1046.2987518427
 30
0.0
 11
569.8712717826
 21
1046.2987518427
 31
0.0
  0
LINE
  5
2B0
330
1F
100
AcDbEntity
  8
0
  6
Continuous
 62
     7
370
    15
100
AcDbLine
 10
-316.7543161576
 20
1046.2987518427
 30
0.0
 11
-329.6287108128
 21
1046.2987518427
 31
0.0
  0
LINE
  5
2B1
330
1F
100
AcDbEntity
  8
0
  6
Continuous
 62
     7
370
    15
100
AcDbLine
 10
-341.4415169423
 20
1013.298759472
 30
0.0
 11
-343.4415209954
 21
1013.298759472
 31
0.0
  0
LINE
  5
2B2
330
1F
100
AcDbEntity
  8
0
  6
Continuous
 62
     7
370
    15
100
AcDbLine
 10
-343.4415209954
 20
1013.298759472
 30
0.0
 11
-343.4415209954
 21
549.2987728235
 31
0.0
  0
LINE
  5
2B3
330
1F
100
AcDbEntity
  8
0
  6
Continuous
 62
     7
370
    15
100
AcDbLine
 10
-343.4415209954
 20
549.2987728235
 30
0.0
 11
-341.4415169423
 21
549.2987728235
 31
0.0
  0
LINE
  5
2B4
330
1F
100
AcDbEntity
  8
0
  6
Continuous
 62
     7
370
    15
100
AcDbLine
 10
594.5585023696
 20
549.2987728235
 30
0.0
 11
596.5584766204
 21
549.2987728235
 31
0.0
  0
LINE
  5
2B5
330
1F
100
AcDbEntity
  8
0
  6
Continuous
 62
     7
370
    15
100
AcDbLine
 10
596.5584766204
 20
549.2987728235
 30
0.0
 11
596.5584766204
 21
1013.298759472
 31
0.0
  0
LINE
  5
2B6
330
1F
100
AcDbEntity
  8
0
  6
Continuous
 62
     7
370
    15
100
AcDbLine
 10
596.5584766204
 20
1013.298759472
 30
0.0
 11
594.5585023696
 21
1013.298759472
 31
0.0
  0
CIRCLE
  5
2B7
330
1F
100
AcDbEntity
  8
0
  6
Continuous
 62
     7
370
    15
100
AcDbCircle
 10
-323.1915273489
 20
1049.0487686909
 30
0.0
 40
7.0
  0
LINE
  5
2B8
330
1F
100
AcDbEntity
  8
0
  6
Continuous
 62
     7
370
    15
100
AcDbLine
 10
626.5584480102
 20
471.2987637636
 30
0.0
 11
-373.4415221875
 21
471.2987637636
 31
0.0
  0
LINE
  5
2B9
330
1F
100
AcDbEntity
  8
0
  6
Continuous
 62
     7
370
    15
100
AcDbLine
 10
-373.4415221875
 20
1071.2987280008
 30
0.0
 11
-373.4415221875
 21
471.2987637636
 31
0.0
  0
LINE
  5
2BA
330
1F
100
AcDbEntity
  8
0
  6
Continuous
 62
     7
370
    15
100
AcDbLine
 10
626.5584480102
 20
1071.2987280008
 30
0.0
 11
-373.4415221875
 21
1071.2987280008
 31
0.0
  0
LINE
  5
2BB
330
1F
100
AcDbEntity
  8
0
  6
Continuous
 62
     7
370
    15
100
AcDbLine
 10
626.5584480102
 20
1071.2987280008
 30
0.0
 11
626.5584480102
 21
471.2987637636
 31
0.0
  0
LINE
  5
2BC
330
1F
100
AcDbEntity
  8
0
  6
Continuous
 62
     7
370
    15
100
AcDbLine
 10
608.0584775741
 20
811.7988205072
 30
0.0
 11
608.0584775741
 21
780.7988023874
 31
0.0
  0
ARC
  5
2BD
330
1F
100
AcDbEntity
  8
0
  6
Continuous
 62
     7
370
    15
100
AcDbCircle
 10
612.5584726512
 20
780.7987686909
 30
0.0
 40
4.5
100
AcDbArc
 50
180.0
 51
0.0
  0
LINE
  5
2BE
330
1F
100
AcDbEntity
  8
0
  6
Continuous
 62
     7
370
    15
100
AcDbLine
 10
617.058480912
 20
780.7988023874
 30
0.0
 11
617.058480912
 21
811.7988205072
 31
0.0
  0
ARC
  5
2BF
330
1F
100
AcDbEntity
  8
0
  6
Continuous
 62
     7
370
    15
100
AcDbCircle
 10
612.5584726512
 20
811.7987686909
 30
0.0
 40
4.5
100
AcDbArc
 50
0.0
 51
180.0
  0
LINE
  5
2C0
330
1F
100
AcDbEntity
  8
0
  6
Continuous
 62
     7
370
    15
100
AcDbLine
 10
608.0584775741
 20
1011.7987489816
 30
0.0
 11
608.0584775741
 21
980.7987308618
 31
0.0
  0
ARC
  5
2C1
330
1F
100
AcDbEntity
  8
0
  6
Continuous
 62
     7
370
    15
100
AcDbCircle
 10
612.5584726512
 20
980.7987686909
 30
0.0
 40
4.500000000000114
100
AcDbArc
 50
180.0
 51
0.0
  0
LINE
  5
2C2
330
1F
100
AcDbEntity
  8
0
  6
Continuous
 62
     7
370
    15
100
AcDbLine
 10
617.058480912
 20
980.7987308618
 30
0.0
 11
617.058480912
 21
1011.7987489816
 31
0.0
  0
ARC
  5
2C3
330
1F
100
AcDbEntity
  8
0
  6
Continuous
 62
     7
370
    15
100
AcDbCircle
 10
612.5584726512
 20
1011.7987686909
 30
0.0
 40
4.5
100
AcDbArc
 50
0.0
 51
180.0
  0
LINE
  5
2C4
330
1F
100
AcDbEntity
  8
0
  6
Continuous
 62
     7
370
    15
100
AcDbLine
 10
608.0584775741
 20
961.7987966653
 30
0.0
 11
608.0584775741
 21
930.7987785455
 31
0.0
  0
ARC
  5
2C5
330
1F
100
AcDbEntity
  8
0
  6
Continuous
 62
     7
370
    15
100
AcDbCircle
 10
612.5584726512
 20
930.7987686909
 30
0.0
 40
4.500000000000114
100
AcDbArc
 50
180.0
 51
0.0
  0
LINE
  5
2C6
330
1F
100
AcDbEntity
  8
0
  6
Continuous
 62
     7
370
    15
100
AcDbLine
 10
617.058480912
 20
930.7987785455
 30
0.0
 11
617.058480912
 21
961.7987966653
 31
0.0
  0
ARC
  5
2C7
330
1F
100
AcDbEntity
  8
0
  6
Continuous
 62
     7
370
    15
100
AcDbCircle
 10
612.5584726512
 20
961.7987686909
 30
0.0
 40
4.5
100
AcDbArc
 50
0.0
 51
180.0
  0
LINE
  5
2C8
330
1F
100
AcDbEntity
  8
0
  6
Continuous
 62
     7
370
    15
100
AcDbLine
 10
608.0584775741
 20
911.7987251398
 30
0.0
 11
608.0584775741
 21
880.7988262293
 31
0.0
  0
ARC
  5
2C9
330
1F
100
AcDbEntity
  8
0
  6
Continuous
 62
     7
370
    15
100
AcDbCircle
 10
612.5584726512
 20
880.7987686909
 30
0.0
 40
4.499999999999886
100
AcDbArc
 50
180.0
 51
0.0
  0
LINE
  5
2CA
330
1F
100
AcDbEntity
  8
0
  6
Continuous
 62
     7
370
    15
100
AcDbLine
 10
617.058480912
 20
880.7988262293
 30
0.0
 11
617.058480912
 21
911.7987251398
 31
0.0
  0
ARC
  5
2CB
330
1F
100
AcDbEntity
  8
0
  6
Continuous
 62
     7
370
    15
100
AcDbCircle
 10
612.5584726512
 20
911.7987686909
 30
0.0
 40
4.5
100
AcDbArc
 50
0.0
 51
180.0
  0
LINE
  5
2CC
330
1F
100
AcDbEntity
  8
0
  6
Continuous
 62
     7
370
    15
100
AcDbLine
 10
608.0584775741
 20
861.7987728235
 30
0.0
 11
608.0584775741
 21
830.7987547037
 31
0.0
  0
ARC
  5
2CD
330
1F
100
AcDbEntity
  8
0
  6
Continuous
 62
     7
370
    15
100
AcDbCircle
 10
612.5584726512
 20
830.7987686909
 30
0.0
 40
4.500000000000114
100
AcDbArc
 50
180.0
 51
0.0
  0
LINE
  5
2CE
330
1F
100
AcDbEntity
  8
0
  6
Continuous
 62
     7
370
    15
100
AcDbLine
 10
617.058480912
 20
830.7987547037
 30
0.0
 11
617.058480912
 21
861.7987728235
 31
0.0
  0
ARC
  5
2CF
330
1F
100
AcDbEntity
  8
0
  6
Continuous
 62
     7
370
    15
100
AcDbCircle
 10
612.5584726512
 20
861.7987686909
 30
0.0
 40
4.5
100
AcDbArc
 50
0.0
 51
180.0
  0
LINE
  5
2D0
330
1F
100
AcDbEntity
  8
0
  6
Continuous
 62
     7
370
    15
100
AcDbLine
 10
608.0584775741
 20
761.7987489816
 30
0.0
 11
608.0584775741
 21
730.7987308618
 31
0.0
  0
ARC
  5
2D1
330
1F
100
AcDbEntity
  8
0
  6
Continuous
 62
     7
370
    15
100
AcDbCircle
 10
612.5584726512
 20
730.7987686909
 30
0.0
 40
4.500000000000114
100
AcDbArc
 50
180.0
 51
0.0
  0
LINE
  5
2D2
330
1F
100
AcDbEntity
  8
0
  6
Continuous
 62
     7
370
    15
100
AcDbLine
 10
617.058480912
 20
730.7987308618
 30
0.0
 11
617.058480912
 21
761.7987489816
 31
0.0
  0
ARC
  5
2D3
330
1F
100
AcDbEntity
  8
0
  6
Continuous
 62
     7
370
    15
100
AcDbCircle
 10
612.5584726512
 20
761.7987686909
 30
0.0
 40
4.5
100
AcDbArc
 50
0.0
 51
180.0
  0
LINE
  5
2D4
330
1F
100
AcDbEntity
  8
0
  6
Continuous
 62
     7
370
    15
100
AcDbLine
 10
608.0584775741
 20
711.7987966653
 30
0.0
 11
608.0584775741
 21
680.7987785455
 31
0.0
  0
ARC
  5
2D5
330
1F
100
AcDbEntity
  8
0
  6
Continuous
 62
     7
370
    15
100
AcDbCircle
 10
612.5584726512
 20
680.7987686909
 30
0.0
 40
4.500000000000114
100
AcDbArc
 50
180.0
 51
0.0
  0
LINE
  5
2D6
330
1F
100
AcDbEntity
  8
0
  6
Continuous
 62
     7
370
    15
100
AcDbLine
 10
617.058480912
 20
680.7987785455
 30
0.0
 11
617.058480912
 21
711.7987966653
 31
0.0
  0
ARC
  5
2D7
330
1F
100
AcDbEntity
  8
0
  6
Continuous
 62
     7
370
    15
100
AcDbCircle
 10
612.5584726512
 20
711.7987686909
 30
0.0
 40
4.500000000000114
100
AcDbArc
 50
0.0
 51
180.0
  0
LINE
  5
2D8
330
1F
100
AcDbEntity
  8
0
  6
Continuous
 62
     7
370
    15
100
AcDbLine
 10
608.0584775741
 20
661.7987847444
 30
0.0
 11
608.0584775741
 21
630.7987666246
 31
0.0
  0
ARC
  5
2D9
330
1F
100
AcDbEntity
  8
0
  6
Continuous
 62
     7
370
    15
100
AcDbCircle
 10
612.5584726512
 20
630.7987686909
 30
0.0
 40
4.500000000000114
100
AcDbArc
 50
180.0
 51
0.0
  0
LINE
  5
2DA
330
1F
100
AcDbEntity
  8
0
  6
Continuous
 62
     7
370
    15
100
AcDbLine
 10
617.058480912
 20
630.7987666246
 30
0.0
 11
617.058480912
 21
661.7987847444
 31
0.0
  0
ARC
  5
2DB
330
1F
100
AcDbEntity
  8
0
  6
Continuous
 62
     7
370
    15
100
AcDbCircle
 10
612.5584726512
 20
661.7987686909
 30
0.0
 40
4.500000000000114
100
AcDbArc
 50
0.0
 51
180.0
  0
LINE
  5
2DC
330
1F
100
AcDbEntity
  8
0
  6
Continuous
 62
     7
370
    15
100
AcDbLine
 10
608.0584775741
 20
611.7987728235
 30
0.0
 11
608.0584775741
 21
580.7987547037
 31
0.0
  0
ARC
  5
2DD
330
1F
100
AcDbEntity
  8
0
  6
Continuous
 62
     7
370
    15
100
AcDbCircle
 10
612.5584726512
 20
580.7987686909
 30
0.0
 40
4.500000000000341
100
AcDbArc
 50
180.0
 51
0.0
  0
LINE
  5
2DE
330
1F
100
AcDbEntity
  8
0
  6
Continuous
 62
     7
370
    15
100
AcDbLine
 10
617.058480912
 20
580.7987547037
 30
0.0
 11
617.058480912
 21
611.7987728235
 31
0.0
  0
ARC
  5
2DF
330
1F
100
AcDbEntity
  8
0
  6
Continuous
 62
     7
370
    15
100
AcDbCircle
 10
612.5584726512
 20
611.7987686909
 30
0.0
 40
4.500000000000114
100
AcDbArc
 50
0.0
 51
180.0
  0
LINE
  5
2E0
330
1F
100
AcDbEntity
  8
0
  6
Continuous
 62
     7
370
    15
100
AcDbLine
 10
608.0584775741
 20
561.7987609026
 30
0.0
 11
608.0584775741
 21
530.7987427827
 31
0.0
  0
ARC
  5
2E1
330
1F
100
AcDbEntity
  8
0
  6
Continuous
 62
     7
370
    15
100
AcDbCircle
 10
612.5584726512
 20
530.7987686909
 30
0.0
 40
4.5
100
AcDbArc
 50
180.0
 51
0.0
  0
LINE
  5
2E2
330
1F
100
AcDbEntity
  8
0
  6
Continuous
 62
     7
370
    15
100
AcDbLine
 10
617.058480912
 20
530.7987427827
 30
0.0
 11
617.058480912
 21
561.7987609026
 31
0.0
  0
ARC
  5
2E3
330
1F
100
AcDbEntity
  8
0
  6
Continuous
 62
     7
370
    15
100
AcDbCircle
 10
612.5584726512
 20
561.7987686909
 30
0.0
 40
4.500000000000114
100
AcDbArc
 50
0.0
 51
180.0
  0
LINE
  5
2E4
330
1F
100
AcDbEntity
  8
0
  6
Continuous
 62
     7
370
    15
100
AcDbLine
 10
-354.9415219491
 20
730.7987308618
 30
0.0
 11
-354.9415219491
 21
761.7987489816
 31
0.0
  0
ARC
  5
2E5
330
1F
100
AcDbEntity
  8
0
  6
Continuous
 62
     7
370
    15
100
AcDbCircle
 10
-359.4415272968
 20
761.7987686909
 30
0.0
 40
4.500000000000114
100
AcDbArc
 50
0.0
 51
180.0
  0
LINE
  5
2E6
330
1F
100
AcDbEntity
  8
0
  6
Continuous
 62
     7
370
    15
100
AcDbLine
 10
-363.9415252869
 20
761.7987489816
 30
0.0
 11
-363.9415252869
 21
730.7987308618
 31
0.0
  0
ARC
  5
2E7
330
1F
100
AcDbEntity
  8
0
  6
Continuous
 62
     7
370
    15
100
AcDbCircle
 10
-359.4415272968
 20
730.7987686909
 30
0.0
 40
4.500000000000057
100
AcDbArc
 50
180.0
 51
0.0
  0
LINE
  5
2E8
330
1F
100
AcDbEntity
  8
0
  6
Continuous
 62
     7
370
    15
100
AcDbLine
 10
-354.9415219491
 20
530.7987427827
 30
0.0
 11
-354.9415219491
 21
561.7987609026
 31
0.0
  0
ARC
  5
2E9
330
1F
100
AcDbEntity
  8
0
  6
Continuous
 62
     7
370
    15
100
AcDbCircle
 10
-359.4415272968
 20
561.7987686909
 30
0.0
 40
4.500000000000114
100
AcDbArc
 50
360.0
 51
180.0
  0
LINE
  5
2EA
330
1F
100
AcDbEntity
  8
0
  6
Continuous
 62
     7
370
    15
100
AcDbLine
 10
-363.9415252869
 20
561.7987609026
 30
0.0
 11
-363.9415252869
 21
530.7987427827
 31
0.0
  0
ARC
  5
2EB
330
1F
100
AcDbEntity
  8
0
  6
Continuous
 62
     7
370
    15
100
AcDbCircle
 10
-359.4415272968
 20
530.7987686909
 30
0.0
 40
4.5
100
AcDbArc
 50
180.0
 51
0.0
  0
LINE
  5
2EC
330
1F
100
AcDbEntity
  8
0
  6
Continuous
 62
     7
370
    15
100
AcDbLine
 10
-354.9415219491
 20
580.7987547037
 30
0.0
 11
-354.9415219491
 21
611.7987728235
 31
0.0
  0
ARC
  5
2ED
330
1F
100
AcDbEntity
  8
0
  6
Continuous
 62
     7
370
    15
100
AcDbCircle
 10
-359.4415272968
 20
611.7987686909
 30
0.0
 40
4.5
100
AcDbArc
 50
0.0
 51
180.0
  0
LINE
  5
2EE
330
1F
100
AcDbEntity
  8
0
  6
Continuous
 62
     7
370
    15
100
AcDbLine
 10
-363.9415252869
 20
611.7987728235
 30
0.0
 11
-363.9415252869
 21
580.7987547037
 31
0.0
  0
ARC
  5
2EF
330
1F
100
AcDbEntity
  8
0
  6
Continuous
 62
     7
370
    15
100
AcDbCircle
 10
-359.4415272968
 20
580.7987686909
 30
0.0
 40
4.500000000000057
100
AcDbArc
 50
180.0
 51
0.0
  0
LINE
  5
2F0
330
1F
100
AcDbEntity
  8
0
  6
Continuous
 62
     7
370
    15
100
AcDbLine
 10
-354.9415219491
 20
630.7987666246
 30
0.0
 11
-354.9415219491
 21
661.7987847444
 31
0.0
  0
ARC
  5
2F1
330
1F
100
AcDbEntity
  8
0
  6
Continuous
 62
     7
370
    15
100
AcDbCircle
 10
-359.4415272968
 20
661.7987686909
 30
0.0
 40
4.5
100
AcDbArc
 50
0.0
 51
180.0
  0
LINE
  5
2F2
330
1F
100
AcDbEntity
  8
0
  6
Continuous
 62
     7
370
    15
100
AcDbLine
 10
-363.9415252869
 20
661.7987847444
 30
0.0
 11
-363.9415252869
 21
630.7987666246
 31
0.0
  0
ARC
  5
2F3
330
1F
100
AcDbEntity
  8
0
  6
Continuous
 62
     7
370
    15
100
AcDbCircle
 10
-359.4415272968
 20
630.7987686909
 30
0.0
 40
4.499999999999943
100
AcDbArc
 50
180.0
 51
0.0
  0
LINE
  5
2F4
330
1F
100
AcDbEntity
  8
0
  6
Continuous
 62
     7
370
    15
100
AcDbLine
 10
-354.9415219491
 20
680.7987785455
 30
0.0
 11
-354.9415219491
 21
711.7987966653
 31
0.0
  0
ARC
  5
2F5
330
1F
100
AcDbEntity
  8
0
  6
Continuous
 62
     7
370
    15
100
AcDbCircle
 10
-359.4415272968
 20
711.7987686909
 30
0.0
 40
4.500000000000171
100
AcDbArc
 50
0.0
 51
180.0
  0
LINE
  5
2F6
330
1F
100
AcDbEntity
  8
0
  6
Continuous
 62
     7
370
    15
100
AcDbLine
 10
-363.9415252869
 20
711.7987966653
 30
0.0
 11
-363.9415252869
 21
680.7987785455
 31
0.0
  0
ARC
  5
2F7
330
1F
100
AcDbEntity
  8
0
  6
Continuous
 62
     7
370
    15
100
AcDbCircle
 10
-359.4415272968
 20
680.7987686909
 30
0.0
 40
4.5
100
AcDbArc
 50
180.0
 51
0.0
  0
LINE
  5
2F8
330
1F
100
AcDbEntity
  8
0
  6
Continuous
 62
     7
370
    15
100
AcDbLine
 10
-354.9415219491
 20
780.7988023874
 30
0.0
 11
-354.9415219491
 21
811.7988205072
 31
0.0
  0
ARC
  5
2F9
330
1F
100
AcDbEntity
  8
0
  6
Continuous
 62
     7
370
    15
100
AcDbCircle
 10
-359.4415272968
 20
811.7987686909
 30
0.0
 40
4.5
100
AcDbArc
 50
0.0
 51
180.0
  0
LINE
  5
2FA
330
1F
100
AcDbEntity
  8
0
  6
Continuous
 62
     7
370
    15
100
AcDbLine
 10
-363.9415252869
 20
811.7988205072
 30
0.0
 11
-363.9415252869
 21
780.7988023874
 31
0.0
  0
ARC
  5
2FB
330
1F
100
AcDbEntity
  8
0
  6
Continuous
 62
     7
370
    15
100
AcDbCircle
 10
-359.4415272968
 20
780.7987686909
 30
0.0
 40
4.499999999999943
100
AcDbArc
 50
180.0
 51
0.0
  0
LINE
  5
2FC
330
1F
100
AcDbEntity
  8
0
  6
Continuous
 62
     7
370
    15
100
AcDbLine
 10
-354.9415219491
 20
830.7987547037
 30
0.0
 11
-354.9415219491
 21
861.7987728235
 31
0.0
  0
ARC
  5
2FD
330
1F
100
AcDbEntity
  8
0
  6
Continuous
 62
     7
370
    15
100
AcDbCircle
 10
-359.4415272968
 20
861.7987686909
 30
0.0
 40
4.5
100
AcDbArc
 50
0.0
 51
180.0
  0
LINE
  5
2FE
330
1F
100
AcDbEntity
  8
0
  6
Continuous
 62
     7
370
    15
100
AcDbLine
 10
-363.9415252869
 20
861.7987728235
 30
0.0
 11
-363.9415252869
 21
830.7987547037
 31
0.0
  0
ARC
  5
2FF
330
1F
100
AcDbEntity
  8
0
  6
Continuous
 62
     7
370
    15
100
AcDbCircle
 10
-359.4415272968
 20
830.7987686909
 30
0.0
 40
4.5
100
AcDbArc
 50
180.0
 51
0.0
  0
LINE
  5
300
330
1F
100
AcDbEntity
  8
0
  6
Continuous
 62
     7
370
    15
100
AcDbLine
 10
-354.9415219491
 20
880.7988262293
 30
0.0
 11
-354.9415219491
 21
911.7987251398
 31
0.0
  0
ARC
  5
301
330
1F
100
AcDbEntity
  8
0
  6
Continuous
 62
     7
370
    15
100
AcDbCircle
 10
-359.4415272968
 20
911.7987686909
 30
0.0
 40
4.500000000000171
100
AcDbArc
 50
0.0
 51
180.0
  0
LINE
  5
302
330
1F
100
AcDbEntity
  8
0
  6
Continuous
 62
     7
370
    15
100
AcDbLine
 10
-363.9415252869
 20
911.7987251398
 30
0.0
 11
-363.9415252869
 21
880.7988262293
 31
0.0
  0
ARC
  5
303
330
1F
100
AcDbEntity
  8
0
  6
Continuous
 62
     7
370
    15
100
AcDbCircle
 10
-359.4415272968
 20
880.7987686909
 30
0.0
 40
4.500000000000057
100
AcDbArc
 50
180.0
 51
0.0
  0
LINE
  5
304
330
1F
100
AcDbEntity
  8
0
  6
Continuous
 62
     7
370
    15
100
AcDbLine
 10
-354.9415219491
 20
930.7987785455
 30
0.0
 11
-354.9415219491
 21
961.7987966653
 31
0.0
  0
ARC
  5
305
330
1F
100
AcDbEntity
  8
0
  6
Continuous
 62
     7
370
    15
100
AcDbCircle
 10
-359.4415272968
 20
961.7987686909
 30
0.0
 40
4.500000000000284
100
AcDbArc
 50
0.0
 51
180.0
  0
LINE
  5
306
330
1F
100
AcDbEntity
  8
0
  6
Continuous
 62
     7
370
    15
100
AcDbLine
 10
-363.9415252869
 20
961.7987966653
 30
0.0
 11
-363.9415252869
 21
930.7987785455
 31
0.0
  0
ARC
  5
307
330
1F
100
AcDbEntity
  8
0
  6
Continuous
 62
     7
370
    15
100
AcDbCircle
 10
-359.4415272968
 20
930.7987686909
 30
0.0
 40
4.5
100
AcDbArc
 50
180.0
 51
0.0
  0
LINE
  5
308
330
1F
100
AcDbEntity
  8
0
  6
Continuous
 62
     7
370
    15
100
AcDbLine
 10
-354.9415219491
 20
980.7987308618
 30
0.0
 11
-354.9415219491
 21
1011.7987489816
 31
0.0
  0
ARC
  5
309
330
1F
100
AcDbEntity
  8
0
  6
Continuous
 62
     7
370
    15
100
AcDbCircle
 10
-359.4415272968
 20
1011.7987686909
 30
0.0
 40
4.5
100
AcDbArc
 50
0.0
 51
180.0
  0
LINE
  5
30A
330
1F
100
AcDbEntity
  8
0
  6
Continuous
 62
     7
370
    15
100
AcDbLine
 10
-363.9415252869
 20
1011.7987489816
 30
0.0
 11
-363.9415252869
 21
980.7987308618
 31
0.0
  0
ARC
  5
30B
330
1F
100
AcDbEntity
  8
0
  6
Continuous
 62
     7
370
    15
100
AcDbCircle
 10
-359.4415272968
 20
980.7987686909
 30
0.0
 40
4.500000000000057
100
AcDbArc
 50
180.0
 51
0.0
  0
CIRCLE
  5
30C
330
1F
100
AcDbEntity
  8
0
  6
Continuous
 62
     7
370
    15
100
AcDbCircle
 10
-323.4415273489
 20
489.2987686909
 30
0.0
 40
7.0
  0
CIRCLE
  5
30D
330
1F
100
AcDbEntity
  8
0
  6
Continuous
 62
     7
370
    15
100
AcDbCircle
 10
576.5584726511
 20
489.2987686909
 30
0.0
 40
6.999999999999886
  0
CIRCLE
  5
30E
330
1F
100
AcDbEntity
  8
0
  6
Continuous
 62
     7
370
    15
100
AcDbCircle
 10
576.3084726512
 20
1049.0487686909
 30
0.0
 40
6.999999999999773
  0
LINE
  5
30F
330
1F
100
AcDbEntity
  8
0
  6
Continuous
 62
     7
370
    15
100
AcDbLine
 10
-341.4415169423
 20
1033.2987403986
 30
0.0
 11
-341.4415169423
 21
1013.298759472
 31
0.0
  0
LINE
  5
310
330
1F
100
AcDbEntity
  8
0
  6
Continuous
 62
     7
370
    15
100
AcDbLine
 10
-228.9415199225
 20
1042.2988033411
 30
0.0
 11
-255.4415214722
 21
1042.2988033411
 31
0.0
  0
LINE
  5
311
330
1F
100
AcDbEntity
  8
0
  6
Continuous
 62
     7
370
    15
100
AcDbLine
 10
-255.4415214722
 20
1042.2988033411
 30
0.0
 11
-341.4415169423
 21
1033.2987403986
 31
0.0
  0
LINE
  5
312
330
1F
100
AcDbEntity
  8
0
  6
Continuous
 62
     7
370
    15
100
AcDbLine
 10
-341.4415169423
 20
549.2987728235
 30
0.0
 11
-341.4415169423
 21
509.2987513658
 31
0.0
  0
LINE
  5
313
330
1F
100
AcDbEntity
  8
0
  6
Continuous
 62
     7
370
    15
100
AcDbLine
 10
-228.9415199225
 20
1044.2987775919
 30
0.0
 11
-228.9415199225
 21
1042.2988033411
 31
0.0
  0
LINE
  5
314
330
1F
100
AcDbEntity
  8
0
  6
Continuous
 62
     7
370
    15
100
AcDbLine
 10
482.0584606464
 20
1044.2987775919
 30
0.0
 11
-228.9415199225
 21
1044.2987775919
 31
0.0
  0
LINE
  5
315
330
1F
100
AcDbEntity
  8
0
  6
Continuous
 62
     7
370
    15
100
AcDbLine
 10
482.0584606464
 20
1042.2988033411
 30
0.0
 11
482.0584606464
 21
1044.2987775919
 31
0.0
  0
LINE
  5
316
330
1F
100
AcDbEntity
  8
0
  6
Continuous
 62
     7
370
    15
100
AcDbLine
 10
594.5585023696
 20
1033.2987403986
 30
0.0
 11
508.5584770973
 21
1042.2988033411
 31
0.0
  0
LINE
  5
317
330
1F
100
AcDbEntity
  8
0
  6
Continuous
 62
     7
370
    15
100
AcDbLine
 10
508.5584770973
 20
1042.2988033411
 30
0.0
 11
482.0584606464
 21
1042.2988033411
 31
0.0
  0
LINE
  5
318
330
1F
100
AcDbEntity
  8
0
  6
Continuous
 62
     7
370
    15
100
AcDbLine
 10
594.5585023696
 20
1013.298759472
 30
0.0
 11
594.5585023696
 21
1033.2987403986
 31
0.0
  0
LINE
  5
319
330
1F
100
AcDbEntity
  8
0
  6
Continuous
 62
     7
370
    15
100
AcDbLine
 10
-341.4415169423
 20
509.2987513658
 30
0.0
 11
594.5585023696
 21
509.2987513658
 31
0.0
  0
LINE
  5
31A
330
1F
100
AcDbEntity
  8
0
  6
Continuous
 62
     7
370
    15
100
AcDbLine
 10
594.5585023696
 20
509.2987513658
 30
0.0
 11
594.5585023696
 21
549.2987728235
 31
0.0
  0
LINE
  5
31B
330
1F
100
AcDbEntity
  8
0
  6
Continuous
 62
     7
370
    15
100
AcDbLine
 10
-354.9415219491
 20
549.7987961885
 30
0.0
 11
-363.9415252869
 21
540.7987928506
 31
0.0
  0
LINE
  5
31C
330
1F
100
AcDbEntity
  8
0
  6
Continuous
 62
     7
370
    15
100
AcDbLine
 10
-363.9415252869
 20
1001.7987585184
 30
0.0
 11
-354.9415219491
 21
992.7988147852
 31
0.0
  0
LINE
  5
31D
330
1F
100
AcDbEntity
  8
0
  6
Continuous
 62
     7
370
    15
100
AcDbLine
 10
608.0584775741
 20
992.7988147852
 30
0.0
 11
617.058480912
 21
1001.7987585184
 31
0.0
  0
LINE
  5
31E
330
1F
100
AcDbEntity
  8
0
  6
Continuous
 62
     7
370
    15
100
AcDbLine
 10
617.058480912
 20
540.7987928506
 30
0.0
 11
608.0584775741
 21
549.7987961885
 31
0.0
  0
DIMENSION
  5
31F
330
1F
100
AcDbEntity
  8
0
  6
Continuous
 62
     7
370
     0
100
AcDbDimension
  2
_D_4
 10
576.5584726511
 20
365.2987686908
 30
0.0
 11
109.3242546406
 21
365.2987686908
 31
0.0
 70
   160
  1
<>
 71
     2
 42
-1.0
  3
SLDDIMSTYLE0
100
AcDbAlignedDimension
 13
-323.4415273489
 23
489.2987686909
 33
0.0
 14
576.5584726511
 24
489.2987686909
 34
0.0
 50
0.0
100
AcDbRotatedDimension
  0
DIMENSION
  5
329
330
1F
100
AcDbEntity
  8
0
  6
Continuous
 62
     7
370
     0
100
AcDbDimension
  2
_D_5
 10
-467.4416305018
 20
489.2987686909
 30
0.0
 11
-467.4416305018
 21
781.9841884041
 31
0.0
 70
   160
  1
<>
 71
     2
 42
-1.0
  3
SLDDIMSTYLE1
100
AcDbAlignedDimension
 13
-323.1915273489
 23
1049.0487686909
 33
0.0
 14
-323.4415273489
 24
489.2987686909
 34
0.0
 50
90.0
100
AcDbRotatedDimension
  0
ENDSEC
  0
SECTION
  2
OBJECTS
  0
DICTIONARY
  5
C
330
0
100
AcDbDictionary
281
     1
  3
ACAD_GROUP
350
D
  3
ACAD_LAYOUT
350
1A
  3
ACAD_MLINESTYLE
350
17
  3
ACAD_PLOTSETTINGS
350
19
  3
ACAD_PLOTSTYLENAME
350
E
  3
ACAD_SCALELIST
350
47
  0
DICTIONARY
  5
D
102
{ACAD_REACTORS
330
C
102
}
330
C
100
AcDbDictionary
281
     1
  0
DICTIONARY
  5
1A
102
{ACAD_REACTORS
330
C
102
}
330
C
100
AcDbDictionary
281
     1
  3
Layout1
350
1E
  3
Layout2
350
26
  3
Model
350
22
  0
DICTIONARY
  5
17
102
{ACAD_REACTORS
330
C
102
}
330
C
100
AcDbDictionary
281
     1
  3
Standard
350
18
  0
DICTIONARY
  5
19
102
{ACAD_REACTORS
330
C
102
}
330
C
100
AcDbDictionary
281
     1
  0
ACDBDICTIONARYWDFLT
  5
E
102
{ACAD_REACTORS
330
C
102
}
330
C
100
AcDbDictionary
281
     1
  3
Normal
350
F
100
AcDbDictionaryWithDefault
340
F
  0
DICTIONARY
  5
47
102
{ACAD_REACTORS
330
C
102
}
330
C
100
AcDbDictionary
281
     1
  3
A0
350
48
  3
A1
350
49
  3
A2
350
4A
  3
A3
350
4B
  3
A4
350
4C
  3
A5
350
4D
  3
A6
350
4E
  3
A7
350
4F
  3
A8
350
50
  3
A9
350
51
  3
B0
350
52
  3
B1
350
53
  3
B2
350
54
  3
B3
350
55
  3
B4
350
56
  3
B5
350
57
  3
B6
350
58
  3
B7
350
59
  3
B8
350
5A
  3
B9
350
5B
  3
C0
350
5C
  3
C1
350
5D
  3
C2
350
5E
  3
C3
350
5F
  3
C4
350
60
  3
C5
350
61
  3
C6
350
62
  3
C7
350
63
  3
C8
350
64
  3
C9
350
65
  3
D0
350
66
  3
D1
350
67
  3
D2
350
68
  0
LAYOUT
  5
1E
102
{ACAD_REACTORS
330
1A
102
}
330
1A
100
AcDbPlotSettings
  1

  2
none_device
  4

  6

 40
0.0
 41
0.0
 42
0.0
 43
0.0
 44
0.0
 45
0.0
 46
0.0
 47
0.0
 48
0.0
 49
0.0
140
0.0
141
0.0
142
1.0
143
1.0
 70
   688
 72
     1
 73
     0
 74
     5
  7

 75
    16
147
1.0
148
0.0
149
0.0
100
AcDbLayout
  1
Layout1
 70
     1
 71
     1
 10
0.0
 20
0.0
 11
420.0
 21
297.0
 12
0.0
 22
0.0
 32
0.0
 14
1.0000000000E+20
 24
1.0000000000E+20
 34
1.0000000000E+20
 15
-1.0000000000E+20
 25
-1.0000000000E+20
 35
-1.0000000000E+20
146
0.0
 13
0.0
 23
0.0
 33
0.0
 16
1.0
 26
0.0
 36
0.0
 17
0.0
 27
1.0
 37
0.0
 76
     0
330
1B
  0
LAYOUT
  5
26
102
{ACAD_REACTORS
330
1A
102
}
330
1A
100
AcDbPlotSettings
  1

  2
none_device
  4

  6

 40
0.0
 41
0.0
 42
0.0
 43
0.0
 44
0.0
 45
0.0
 46
0.0
 47
0.0
 48
0.0
 49
0.0
140
0.0
141
0.0
142
1.0
143
1.0
 70
   688
 72
     1
 73
     0
 74
     5
  7

 75
    16
147
1.0
148
0.0
149
0.0
100
AcDbLayout
  1
Layout2
 70
     1
 71
     2
 10
0.0
 20
0.0
 11
0.0
 21
0.0
 12
0.0
 22
0.0
 32
0.0
 14
0.0
 24
0.0
 34
0.0
 15
0.0
 25
0.0
 35
0.0
146
0.0
 13
0.0
 23
0.0
 33
0.0
 16
1.0
 26
0.0
 36
0.0
 17
0.0
 27
1.0
 37
0.0
 76
     0
330
23
  0
LAYOUT
  5
22
102
{ACAD_REACTORS
330
1A
102
}
330
1A
100
AcDbPlotSettings
  1

  2
none_device
  4
Letter_(8.50_x_11.00_Inches)
  6

 40
6.35
 41
6.35
 42
6.35000508
 43
6.35000508
 44
215.9
 45
279.4
 46
0.0
 47
0.0
 48
0.0
 49
0.0
140
0.0
141
0.0
142
1.0
143
1.0
 70
  1712
 72
     1
 73
     0
 74
     0
  7

 75
     0
147
1.0
148
0.0
149
0.0
100
AcDbLayout
  1
Model
 70
     1
 71
     0
 10
0.0
 20
0.0
 11
279.4
 21
215.9
 12
0.0
 22
0.0
 32
0.0
 14
0.0
 24
0.0
 34
0.0
 15
279.4
 25
215.9
 35
0.0
146
0.0
 13
0.0
 23
0.0
 33
0.0
 16
1.0
 26
0.0
 36
0.0
 17
0.0
 27
1.0
 37
0.0
 76
     0
330
1F
331
29
  0
MLINESTYLE
  5
18
102
{ACAD_REACTORS
330
17
102
}
330
17
100
AcDbMlineStyle
  2
Standard
 70
     0
  3

 62
   256
 51
90.0
 52
90.0
 71
     2
 49
0.5
 62
   256
  6
BYLAYER
 49
-0.5
 62
   256
  6
BYLAYER
  0
ACDBPLACEHOLDER
  5
F
102
{ACAD_REACTORS
330
E
102
}
330
E
  0
SCALE
  5
48
102
{ACAD_REACTORS
330
47
102
}
330
47
100
AcDbScale
 70
     0
300
1:1
140
1.0
141
1.0
290
     1
  0
SCALE
  5
49
102
{ACAD_REACTORS
330
47
102
}
330
47
100
AcDbScale
 70
     0
300
1:2
140
1.0
141
2.0
290
     0
  0
SCALE
  5
4A
102
{ACAD_REACTORS
330
47
102
}
330
47
100
AcDbScale
 70
     0
300
1:4
140
1.0
141
4.0
290
     0
  0
SCALE
  5
4B
102
{ACAD_REACTORS
330
47
102
}
330
47
100
AcDbScale
 70
     0
300
1:5
140
1.0
141
5.0
290
     0
  0
SCALE
  5
4C
102
{ACAD_REACTORS
330
47
102
}
330
47
100
AcDbScale
 70
     0
300
1:8
140
1.0
141
8.0
290
     0
  0
SCALE
  5
4D
102
{ACAD_REACTORS
330
47
102
}
330
47
100
AcDbScale
 70
     0
300
1:10
140
1.0
141
10.0
290
     0
  0
SCALE
  5
4E
102
{ACAD_REACTORS
330
47
102
}
330
47
100
AcDbScale
 70
     0
300
1:16
140
1.0
141
16.0
290
     0
  0
SCALE
  5
4F
102
{ACAD_REACTORS
330
47
102
}
330
47
100
AcDbScale
 70
     0
300
1:20
140
1.0
141
20.0
290
     0
  0
SCALE
  5
50
102
{ACAD_REACTORS
330
47
102
}
330
47
100
AcDbScale
 70
     0
300
1:30
140
1.0
141
30.0
290
     0
  0
SCALE
  5
51
102
{ACAD_REACTORS
330
47
102
}
330
47
100
AcDbScale
 70
     0
300
1:40
140
1.0
141
40.0
290
     0
  0
SCALE
  5
52
102
{ACAD_REACTORS
330
47
102
}
330
47
100
AcDbScale
 70
     0
300
1:50
140
1.0
141
50.0
290
     0
  0
SCALE
  5
53
102
{ACAD_REACTORS
330
47
102
}
330
47
100
AcDbScale
 70
     0
300
1:100
140
1.0
141
100.0
290
     0
  0
SCALE
  5
54
102
{ACAD_REACTORS
330
47
102
}
330
47
100
AcDbScale
 70
     0
300
2:1
140
2.0
141
1.0
290
     0
  0
SCALE
  5
55
102
{ACAD_REACTORS
330
47
102
}
330
47
100
AcDbScale
 70
     0
300
4:1
140
4.0
141
1.0
290
     0
  0
SCALE
  5
56
102
{ACAD_REACTORS
330
47
102
}
330
47
100
AcDbScale
 70
     0
300
8:1
140
8.0
141
1.0
290
     0
  0
SCALE
  5
57
102
{ACAD_REACTORS
330
47
102
}
330
47
100
AcDbScale
 70
     0
300
10:1
140
10.0
141
1.0
290
     0
  0
SCALE
  5
58
102
{ACAD_REACTORS
330
47
102
}
330
47
100
AcDbScale
 70
     0
300
100:1
140
100.0
141
1.0
290
     0
  0
SCALE
  5
59
102
{ACAD_REACTORS
330
47
102
}
330
47
100
AcDbScale
 70
     0
300
1/128" = 1'-0"
140
0.0078125
141
12.0
290
     0
  0
SCALE
  5
5A
102
{ACAD_REACTORS
330
47
102
}
330
47
100
AcDbScale
 70
     0
300
1/64" = 1'-0"
140
0.015625
141
12.0
290
     0
  0
SCALE
  5
5B
102
{ACAD_REACTORS
330
47
102
}
330
47
100
AcDbScale
 70
     0
300
1/32" = 1'-0"
140
0.03125
141
12.0
290
     0
  0
SCALE
  5
5C
102
{ACAD_REACTORS
330
47
102
}
330
47
100
AcDbScale
 70
     0
300
1/16" = 1'-0"
140
0.0625
141
12.0
290
     0
  0
SCALE
  5
5D
102
{ACAD_REACTORS
330
47
102
}
330
47
100
AcDbScale
 70
     0
300
3/32" = 1'-0"
140
0.09375
141
12.0
290
     0
  0
SCALE
  5
5E
102
{ACAD_REACTORS
330
47
102
}
330
47
100
AcDbScale
 70
     0
300
1/8" = 1'-0"
140
0.125
141
12.0
290
     0
  0
SCALE
  5
5F
102
{ACAD_REACTORS
330
47
102
}
330
47
100
AcDbScale
 70
     0
300
3/16" = 1'-0"
140
0.1875
141
12.0
290
     0
  0
SCALE
  5
60
102
{ACAD_REACTORS
330
47
102
}
330
47
100
AcDbScale
 70
     0
300
1/4" = 1'-0"
140
0.25
141
12.0
290
     0
  0
SCALE
  5
61
102
{ACAD_REACTORS
330
47
102
}
330
47
100
AcDbScale
 70
     0
300
3/8" = 1'-0"
140
0.375
141
12.0
290
     0
  0
SCALE
  5
62
102
{ACAD_REACTORS
330
47
102
}
330
47
100
AcDbScale
 70
     0
300
1/2" = 1'-0"
140
0.5
141
12.0
290
     0
  0
SCALE
  5
63
102
{ACAD_REACTORS
330
47
102
}
330
47
100
AcDbScale
 70
     0
300
3/4" = 1'-0"
140
0.75
141
12.0
290
     0
  0
SCALE
  5
64
102
{ACAD_REACTORS
330
47
102
}
330
47
100
AcDbScale
 70
     0
300
1" = 1'-0"
140
1.0
141
12.0
290
     0
  0
SCALE
  5
65
102
{ACAD_REACTORS
330
47
102
}
330
47
100
AcDbScale
 70
     0
300
1-1/2" = 1'-0"
140
1.5
141
12.0
290
     0
  0
SCALE
  5
66
102
{ACAD_REACTORS
330
47
102
}
330
47
100
AcDbScale
 70
     0
300
3" = 1'-0"
140
3.0
141
12.0
290
     0
  0
SCALE
  5
67
102
{ACAD_REACTORS
330
47
102
}
330
47
100
AcDbScale
 70
     0
300
6" = 1'-0"
140
6.0
141
12.0
290
     0
  0
SCALE
  5
68
102
{ACAD_REACTORS
330
47
102
}
330
47
100
AcDbScale
 70
     0
300
1'-0" = 1'-0"
140
12.0
141
12.0
290
     0
  0
ENDSEC
  0
EOF
