  0
SECTION
  2
HEADER
  9
$ACADVER
  1
AC1015
  9
$ACADMAINTVER
 70
     6
  9
$DWGCODEPAGE
  3
ANSI_1251
  9
$INSBASE
 10
0.0
 20
0.0
 30
0.0
  9
$EXTMIN
 10
0.0
 20
0.0
 30
0.0
  9
$EXTMAX
 10
279.4
 20
215.9
 30
0.0
  9
$LIMMIN
 10
0.0
 20
0.0
  9
$LIMMAX
 10
279.4
 20
215.9
  9
$ORTHOMODE
 70
     0
  9
$REGENMODE
 70
     1
  9
$FILLMODE
 70
     1
  9
$QTEXTMODE
 70
     0
  9
$MIRRTEXT
 70
     1
  9
$LTSCALE
 40
1.0
  9
$ATTMODE
 70
     1
  9
$TEXTSIZE
 40
5.0
  9
$TRACEWID
 40
1.0
  9
$TEXTSTYLE
  7
Standard
  9
$CLAYER
  8
0
  9
$CELTYPE
  6
ByLayer
  9
$CECOLOR
 62
   256
  9
$CELTSCALE
 40
1.0
  9
$DISPSILH
 70
     0
  9
$DIMSCALE
 40
1.0
  9
$DIMASZ
 40
5.0
  9
$DIMEXO
 40
1.0
  9
$DIMDLI
 40
3.75
  9
$DIMRND
 40
0.0
  9
$DIMDLE
 40
0.0
  9
$DIMEXE
 40
1.0
  9
$DIMTP
 40
0.0
  9
$DIMTM
 40
0.0
  9
$DIMTXT
 40
5.0
  9
$DIMCEN
 40
2.5
  9
$DIMTSZ
 40
0.0
  9
$DIMTOL
 70
     0
  9
$DIMLIM
 70
     0
  9
$DIMTIH
 70
     1
  9
$DIMTOH
 70
     1
  9
$DIMSE1
 70
     0
  9
$DIMSE2
 70
     0
  9
$DIMTAD
 70
     1
  9
$DIMZIN
 70
     0
  9
$DIMBLK
  1

  9
$DIMASO
 70
     1
  9
$DIMSHO
 70
     1
  9
$DIMPOST
  1

  9
$DIMAPOST
  1

  9
$DIMALT
 70
     0
  9
$DIMALTD
 70
     3
  9
$DIMALTF
 40
0.0393700787
  9
$DIMLFAC
 40
50.0
  9
$DIMTOFL
 70
     1
  9
$DIMTVP
 40
0.0
  9
$DIMTIX
 70
     0
  9
$DIMSOXD
 70
     0
  9
$DIMSAH
 70
     0
  9
$DIMBLK1
  1

  9
$DIMBLK2
  1

  9
$DIMSTYLE
  2
ISO-25
  9
$DIMCLRD
 70
     0
  9
$DIMCLRE
 70
     0
  9
$DIMCLRT
 70
     0
  9
$DIMTFAC
 40
1.0
  9
$DIMGAP
 40
1.524
  9
$DIMJUST
 70
     0
  9
$DIMSD1
 70
     0
  9
$DIMSD2
 70
     0
  9
$DIMTOLJ
 70
     0
  9
$DIMTZIN
 70
     0
  9
$DIMALTZ
 70
     0
  9
$DIMALTTZ
 70
     0
  9
$DIMUPT
 70
     0
  9
$DIMDEC
 70
     2
  9
$DIMTDEC
 70
     2
  9
$DIMALTU
 70
     2
  9
$DIMALTTD
 70
     3
  9
$DIMTXSTY
  7
Standard
  9
$DIMAUNIT
 70
     0
  9
$DIMADEC
 70
     2
  9
$DIMALTRND
 40
0.0
  9
$DIMAZIN
 70
     0
  9
$DIMDSEP
 70
    44
  9
$DIMATFIT
 70
     3
  9
$DIMFRAC
 70
     0
  9
$DIMLDRBLK
  1

  9
$DIMLUNIT
 70
     2
  9
$DIMLWD
 70
    -2
  9
$DIMLWE
 70
    -2
  9
$DIMTMOVE
 70
     0
  9
$LUNITS
 70
     2
  9
$LUPREC
 70
     2
  9
$SKETCHINC
 40
1.0
  9
$FILLETRAD
 40
10.0
  9
$AUNITS
 70
     0
  9
$AUPREC
 70
     2
  9
$MENU
  1
.
  9
$ELEVATION
 40
0.0
  9
$PELEVATION
 40
0.0
  9
$THICKNESS
 40
0.0
  9
$LIMCHECK
 70
     0
  9
$CHAMFERA
 40
0.0
  9
$CHAMFERB
 40
0.0
  9
$CHAMFERC
 40
0.0
  9
$CHAMFERD
 40
0.0
  9
$SKPOLY
 70
     0
  9
$TDCREATE
 40
2457948.424711597
  9
$TDUCREATE
 40
2457948.299711597
  9
$TDUPDATE
 40
2457948.424712407
  9
$TDUUPDATE
 40
2457948.299712407
  9
$TDINDWG
 40
0.0000000116
  9
$TDUSRTIMER
 40
0.0000000116
  9
$USRTIMER
 70
     1
  9
$ANGBASE
 50
0.0
  9
$ANGDIR
 70
     0
  9
$PDMODE
 70
     0
  9
$PDSIZE
 40
-1.0
  9
$PLINEWID
 40
0.0
  9
$SPLFRAME
 70
     0
  9
$SPLINETYPE
 70
     6
  9
$SPLINESEGS
 70
     8
  9
$HANDSEED
  5
334
  9
$SURFTAB1
 70
     6
  9
$SURFTAB2
 70
     6
  9
$SURFTYPE
 70
     6
  9
$SURFU
 70
     6
  9
$SURFV
 70
     6
  9
$UCSBASE
  2

  9
$UCSNAME
  2

  9
$UCSORG
 10
0.0
 20
0.0
 30
0.0
  9
$UCSXDIR
 10
1.0
 20
0.0
 30
0.0
  9
$UCSYDIR
 10
0.0
 20
1.0
 30
0.0
  9
$UCSORTHOREF
  2

  9
$UCSORTHOVIEW
 70
     0
  9
$UCSORGTOP
 10
0.0
 20
0.0
 30
0.0
  9
$UCSORGBOTTOM
 10
0.0
 20
0.0
 30
0.0
  9
$UCSORGLEFT
 10
0.0
 20
0.0
 30
0.0
  9
$UCSORGRIGHT
 10
0.0
 20
0.0
 30
0.0
  9
$UCSORGFRONT
 10
0.0
 20
0.0
 30
0.0
  9
$UCSORGBACK
 10
0.0
 20
0.0
 30
0.0
  9
$PUCSBASE
  2

  9
$PUCSNAME
  2

  9
$PUCSORG
 10
0.0
 20
0.0
 30
0.0
  9
$PUCSXDIR
 10
1.0
 20
0.0
 30
0.0
  9
$PUCSYDIR
 10
0.0
 20
1.0
 30
0.0
  9
$PUCSORTHOREF
  2

  9
$PUCSORTHOVIEW
 70
     0
  9
$PUCSORGTOP
 10
0.0
 20
0.0
 30
0.0
  9
$PUCSORGBOTTOM
 10
0.0
 20
0.0
 30
0.0
  9
$PUCSORGLEFT
 10
0.0
 20
0.0
 30
0.0
  9
$PUCSORGRIGHT
 10
0.0
 20
0.0
 30
0.0
  9
$PUCSORGFRONT
 10
0.0
 20
0.0
 30
0.0
  9
$PUCSORGBACK
 10
0.0
 20
0.0
 30
0.0
  9
$USERI1
 70
     0
  9
$USERI2
 70
     0
  9
$USERI3
 70
     0
  9
$USERI4
 70
     0
  9
$USERI5
 70
     0
  9
$USERR1
 40
0.0
  9
$USERR2
 40
0.0
  9
$USERR3
 40
0.0
  9
$USERR4
 40
0.0
  9
$USERR5
 40
0.0
  9
$WORLDVIEW
 70
     1
  9
$SHADEDGE
 70
     3
  9
$SHADEDIF
 70
    70
  9
$TILEMODE
 70
     1
  9
$MAXACTVP
 70
    64
  9
$PINSBASE
 10
0.0
 20
0.0
 30
0.0
  9
$PLIMCHECK
 70
     0
  9
$PEXTMIN
 10
1.0000000000E+20
 20
1.0000000000E+20
 30
1.0000000000E+20
  9
$PEXTMAX
 10
-1.0000000000E+20
 20
-1.0000000000E+20
 30
-1.0000000000E+20
  9
$PLIMMIN
 10
0.0
 20
0.0
  9
$PLIMMAX
 10
420.0
 20
297.0
  9
$UNITMODE
 70
     0
  9
$VISRETAIN
 70
     1
  9
$PLINEGEN
 70
     0
  9
$PSLTSCALE
 70
     1
  9
$TREEDEPTH
 70
  3020
  9
$CMLSTYLE
  2
Standard
  9
$CMLJUST
 70
     0
  9
$CMLSCALE
 40
20.0
  9
$PROXYGRAPHICS
 70
     1
  9
$MEASUREMENT
 70
     1
  9
$CELWEIGHT
370
    -1
  9
$ENDCAPS
280
     0
  9
$JOINSTYLE
280
     0
  9
$LWDISPLAY
290
     1
  9
$INSUNITS
 70
     4
  9
$HYPERLINKBASE
  1

  9
$STYLESHEET
  1

  9
$XEDIT
290
     1
  9
$CEPSNTYPE
380
     0
  9
$PSTYLEMODE
290
     1
  9
$FINGERPRINTGUID
  2
{082C7D9F-D22D-4F80-9E4C-CC3469918E90}
  9
$VERSIONGUID
  2
{FAEB1C32-E019-11D5-929B-00C0DF256EC4}
  9
$EXTNAMES
290
     1
  9
$PSVPSCALE
 40
0.0
  9
$OLESTARTUP
290
     0
  0
ENDSEC
  0
SECTION
  2
CLASSES
  0
CLASS
  1
ACDBDICTIONARYWDFLT
  2
AcDbDictionaryWithDefault
  3
ObjectDBX Classes
 90
        0
280
     0
281
     0
  0
CLASS
  1
VISUALSTYLE
  2
AcDbVisualStyle
  3
ObjectDBX Classes
 90
     4095
280
     0
281
     0
  0
CLASS
  1
MATERIAL
  2
AcDbMaterial
  3
ObjectDBX Classes
 90
     1153
280
     0
281
     0
  0
CLASS
  1
SCALE
  2
AcDbScale
  3
ObjectDBX Classes
 90
     1153
280
     0
281
     0
  0
CLASS
  1
SUN
  2
AcDbSun
  3
SCENEOE
 90
     1153
280
     0
281
     0
  0
CLASS
  1
ACDBPLACEHOLDER
  2
AcDbPlaceHolder
  3
ObjectDBX Classes
 90
        0
280
     0
281
     0
  0
CLASS
  1
LAYOUT
  2
AcDbLayout
  3
ObjectDBX Classes
 90
        0
280
     0
281
     0
  0
ENDSEC
  0
SECTION
  2
TABLES
  0
TABLE
  2
VPORT
  5
8
330
0
100
AcDbSymbolTable
 70
     1
  0
VPORT
  5
29
330
8
100
AcDbSymbolTableRecord
100
AcDbViewportTableRecord
  2
*Active
 70
     0
 10
0.0
 20
0.0
 11
1.0
 21
1.0
 12
139.7
 22
107.95
 13
0.0
 23
0.0
 14
10.0
 24
10.0
 15
10.0
 25
10.0
 16
0.0
 26
0.0
 36
1.0
 17
0.0
 27
0.0
 37
0.0
 40
215.9
 41
1.2941176471
 42
50.0
 43
0.0
 44
0.0
 50
0.0
 51
0.0
 71
     0
 72
  2000
 73
     1
 74
     3
 75
     0
 76
     0
 77
     0
 78
     0
281
     0
 65
     1
110
0.0
120
0.0
130
0.0
111
1.0
121
0.0
131
0.0
112
0.0
122
1.0
132
0.0
 79
     0
146
0.0
  0
ENDTAB
  0
TABLE
  2
LTYPE
  5
5
330
0
100
AcDbSymbolTable
 70
     6
  0
LTYPE
  5
14
330
5
100
AcDbSymbolTableRecord
100
AcDbLinetypeTableRecord
  2
ByBlock
 70
     0
  3

 72
    65
 73
     0
 40
0.0
  0
LTYPE
  5
15
330
5
100
AcDbSymbolTableRecord
100
AcDbLinetypeTableRecord
  2
ByLayer
 70
     0
  3

 72
    65
 73
     0
 40
0.0
  0
LTYPE
  5
16
330
5
100
AcDbSymbolTableRecord
100
AcDbLinetypeTableRecord
  2
Continuous
 70
     0
  3
Solid line
 72
    65
 73
     0
 40
0.0
  0
LTYPE
  5
6A
330
5
100
AcDbSymbolTableRecord
100
AcDbLinetypeTableRecord
  2
HIDDEN
 70
     0
  3
Hidden __ __ __ __ __ __ __ __ __ __ __ __ __ __
 72
    65
 73
     2
 40
1.905
 49
1.27
 74
     0
 49
-0.635
 74
     0
  0
LTYPE
  5
6B
330
5
100
AcDbSymbolTableRecord
100
AcDbLinetypeTableRecord
  2
PHANTOM
 70
     0
  3
Phantom ______  __  __  ______  __  __  ______
 72
    65
 73
     6
 40
12.7
 49
6.35
 74
     0
 49
-1.27
 74
     0
 49
1.27
 74
     0
 49
-1.27
 74
     0
 49
1.27
 74
     0
 49
-1.27
 74
     0
  0
LTYPE
  5
6C
330
5
100
AcDbSymbolTableRecord
100
AcDbLinetypeTableRecord
  2
CENTER
 70
     0
  3
Center ____ _ ____ _ ____ _ ____ _ ____ _ ____
 72
    65
 73
     4
 40
10.16
 49
6.35
 74
     0
 49
-1.27
 74
     0
 49
1.27
 74
     0
 49
-1.27
 74
     0
  0
LTYPE
  5
6D
330
5
100
AcDbSymbolTableRecord
100
AcDbLinetypeTableRecord
  2
CENTERX2
 70
     0
  3
Center (2x) ________  __  ________  __  _____
 72
    65
 73
     4
 40
20.32
 49
12.7
 74
     0
 49
-2.54
 74
     0
 49
2.54
 74
     0
 49
-2.54
 74
     0
  0
LTYPE
  5
6E
330
5
100
AcDbSymbolTableRecord
100
AcDbLinetypeTableRecord
  2
DOT2
 70
     0
  3
Dot (.5x) ........................................
 72
    65
 73
     2
 40
0.635
 49
0.0
 74
     0
 49
-0.635
 74
     0
  0
ENDTAB
  0
TABLE
  2
LAYER
  5
2
330
0
100
AcDbSymbolTable
 70
     1
  0
LAYER
  5
10
330
2
100
AcDbSymbolTableRecord
100
AcDbLayerTableRecord
  2
0
 70
     0
 62
     7
  6
Continuous
370
    -3
390
F
  0
ENDTAB
  0
TABLE
  2
STYLE
  5
3
330
0
100
AcDbSymbolTable
 70
     2
  0
STYLE
  5
11
330
3
100
AcDbSymbolTableRecord
100
AcDbTextStyleTableRecord
  2
Standard
 70
     0
 40
0.0
 41
1.0
 50
0.0
 71
     0
 42
5.0
  3
txt
  4

  0
STYLE
  5
A1
330
3
100
AcDbSymbolTableRecord
100
AcDbTextStyleTableRecord
  2
SLDTEXTSTYLE0
 70
     0
 40
0.0
 41
0.7
 50
0.0
 71
     0
 42
5.0
  3
TXT
  4

  0
ENDTAB
  0
TABLE
  2
VIEW
  5
6
330
0
100
AcDbSymbolTable
 70
     0
  0
ENDTAB
  0
TABLE
  2
UCS
  5
7
330
0
100
AcDbSymbolTable
 70
     0
  0
ENDTAB
  0
TABLE
  2
APPID
  5
9
330
0
100
AcDbSymbolTable
 70
     1
  0
APPID
  5
12
330
9
100
AcDbSymbolTableRecord
100
AcDbRegAppTableRecord
  2
ACAD
 70
     0
  0
ENDTAB
  0
TABLE
  2
DIMSTYLE
  5
A
330
0
100
AcDbSymbolTable
 70
     3
100
AcDbDimStyleTable
  0
DIMSTYLE
105
27
330
A
100
AcDbSymbolTableRecord
100
AcDbDimStyleTableRecord
  2
ISO-25
 70
     0
 41
2.5
 42
0.625
 43
3.75
 44
1.25
 73
     0
 74
     0
 77
     1
 78
     8
140
2.5
141
2.5
143
0.0393700787
147
0.625
171
     3
172
     1
178
     0
271
     2
272
     2
274
     3
278
    44
283
     0
284
     8
340
11
  0
DIMSTYLE
105
A2
102
{ACAD_REACTORS
330
A0
330
AC
330
B6
330
140
330
32A
102
}
330
A
100
AcDbSymbolTableRecord
100
AcDbDimStyleTableRecord
  2
SLDDIMSTYLE0
 70
     0
 41
5.0
 44
0.0
 45
0.000000001
 73
     0
 74
     0
 77
     1
 78
    12
 79
     3
140
28.0
147
7.0
173
     1
178
     0
271
     2
272
     2
276
     2
284
    12
340
A1
  0
DIMSTYLE
105
14B
102
{ACAD_REACTORS
330
14A
102
}
330
A
100
AcDbSymbolTableRecord
100
AcDbDimStyleTableRecord
  2
SLDDIMSTYLE1
 70
     0
 41
5.0
 44
0.0
 45
0.000000001
 73
     0
 74
     0
 77
     1
 78
    12
 79
     3
140
28.0
147
7.0
173
     1
178
     0
271
     0
272
     2
276
     2
284
    12
340
A1
  0
ENDTAB
  0
TABLE
  2
BLOCK_RECORD
  5
1
330
0
100
AcDbSymbolTable
 70
     7
  0
BLOCK_RECORD
  5
1F
330
1
100
AcDbSymbolTableRecord
100
AcDbBlockTableRecord
  2
*Model_Space
340
22
  0
BLOCK_RECORD
  5
1B
330
1
100
AcDbSymbolTableRecord
100
AcDbBlockTableRecord
  2
*Paper_Space
340
1E
  0
BLOCK_RECORD
  5
23
330
1
100
AcDbSymbolTableRecord
100
AcDbBlockTableRecord
  2
*Paper_Space0
340
26
  0
BLOCK_RECORD
  5
A3
330
1
100
AcDbSymbolTableRecord
100
AcDbBlockTableRecord
  2
_D
340
0
  0
BLOCK_RECORD
  5
AD
330
1
100
AcDbSymbolTableRecord
100
AcDbBlockTableRecord
  2
_D_1
340
0
  0
BLOCK_RECORD
  5
B7
330
1
100
AcDbSymbolTableRecord
100
AcDbBlockTableRecord
  2
_D_2
340
0
  0
BLOCK_RECORD
  5
141
330
1
100
AcDbSymbolTableRecord
100
AcDbBlockTableRecord
  2
_D_3
340
0
  0
BLOCK_RECORD
  5
14C
330
1
100
AcDbSymbolTableRecord
100
AcDbBlockTableRecord
  2
_D_4
340
0
  0
BLOCK_RECORD
  5
32B
330
1
100
AcDbSymbolTableRecord
100
AcDbBlockTableRecord
  2
_D_5
340
0
  0
ENDTAB
  0
ENDSEC
  0
SECTION
  2
BLOCKS
  0
BLOCK
  5
20
330
1F
100
AcDbEntity
  8
0
100
AcDbBlockBegin
  2
*Model_Space
 70
     0
 10
0.0
 20
0.0
 30
0.0
  3
*Model_Space
  1
*Model_Space
  0
ENDBLK
  5
21
330
1F
100
AcDbEntity
  8
0
100
AcDbBlockEnd
  0
BLOCK
  5
1C
330
1B
100
AcDbEntity
 67
     1
  8
0
100
AcDbBlockBegin
  2
*Paper_Space
 70
     0
 10
0.0
 20
0.0
 30
0.0
  3
*Paper_Space
  1
*Paper_Space
  0
ENDBLK
  5
1D
330
1B
100
AcDbEntity
 67
     1
  8
0
100
AcDbBlockEnd
  0
BLOCK
  5
24
330
23
100
AcDbEntity
  8
0
100
AcDbBlockBegin
  2
*Paper_Space0
 70
     0
 10
0.0
 20
0.0
 30
0.0
  3
*Paper_Space0
  1
*Paper_Space0
  0
ENDBLK
  5
25
330
23
100
AcDbEntity
  8
0
100
AcDbBlockEnd
  0
BLOCK
  5
A4
330
A3
100
AcDbEntity
  8
0
100
AcDbBlockBegin
  2
_D
 70
     0
 10
0.0
 20
0.0
 30
0.0
  3
_D
  1
_D
  0
SOLID
  5
A6
330
A3
100
AcDbEntity
  8
0
  6
Continuous
 62
     7
370
     0
100
AcDbTrace
 10
1044.4911509029
 20
890.6304164974
 30
0.0
 11
1072.4911509029
 21
886.3227241897
 31
0.0
 12
1072.4911509029
 22
894.9381088051
 32
0.0
 13
1072.4911509029
 23
894.9381088051
 33
0.0
  0
SOLID
  5
A7
330
A3
100
AcDbEntity
  8
0
  6
Continuous
 62
     7
370
     0
100
AcDbTrace
 10
1844.4911509029
 20
890.6304164975
 30
0.0
 11
1816.4911509029
 21
894.9381088052
 31
0.0
 12
1816.4911509029
 22
886.3227241898
 32
0.0
 13
1816.4911509029
 23
886.3227241898
 33
0.0
  0
LINE
  5
A8
330
A3
100
AcDbEntity
  8
0
  6
Continuous
 62
     7
370
     0
100
AcDbLine
 10
1044.4911509029
 20
983.6304414975
 30
0.0
 11
1044.4911509029
 21
889.6304164974
 31
0.0
  0
LINE
  5
A9
330
A3
100
AcDbEntity
  8
0
  6
Continuous
 62
     7
370
     0
100
AcDbLine
 10
1844.4911509029
 20
983.6304414975
 30
0.0
 11
1844.4911509029
 21
889.6304164975
 31
0.0
  0
LINE
  5
AA
330
A3
100
AcDbEntity
  8
0
  6
Continuous
 62
     7
370
     0
100
AcDbLine
 10
1044.4911509029
 20
890.6304164974
 30
0.0
 11
1844.4911509029
 21
890.6304164975
 31
0.0
  0
MTEXT
  5
AB
330
A3
100
AcDbEntity
  8
0
  6
Continuous
 62
     7
370
     0
100
AcDbMText
 10
1415.9820428809
 20
926.7243141424
 30
0.0
 40
28.0
 41
0.0
 71
     1
 72
     1
  1
800
  7
SLDTEXTSTYLE0
 73
     1
 44
1.0
  0
ENDBLK
  5
A5
330
A3
100
AcDbEntity
  8
0
100
AcDbBlockEnd
  0
BLOCK
  5
AE
330
AD
100
AcDbEntity
  8
0
100
AcDbBlockBegin
  2
_D_1
 70
     0
 10
0.0
 20
0.0
 30
0.0
  3
_D_1
  1
_D_1
  0
SOLID
  5
B0
330
AD
100
AcDbEntity
  8
0
  6
Continuous
 62
     7
370
     0
100
AcDbTrace
 10
926.49104775
 20
984.6304414975
 30
0.0
 11
930.7987400577
 21
1012.6304414975
 31
0.0
 12
922.1833554423
 22
1012.6304414975
 32
0.0
 13
922.1833554423
 23
1012.6304414975
 33
0.0
  0
SOLID
  5
B1
330
AD
100
AcDbEntity
  8
0
  6
Continuous
 62
     7
370
     0
100
AcDbTrace
 10
926.49104775
 20
2984.6304414975
 30
0.0
 11
922.1833554423
 21
2956.6304414975
 31
0.0
 12
930.7987400577
 22
2956.6304414975
 32
0.0
 13
930.7987400577
 23
2956.6304414975
 33
0.0
  0
LINE
  5
B2
330
AD
100
AcDbEntity
  8
0
  6
Continuous
 62
     7
370
     0
100
AcDbLine
 10
1043.4911509029
 20
984.6304414975
 30
0.0
 11
925.49104775
 21
984.6304414975
 31
0.0
  0
LINE
  5
B3
330
AD
100
AcDbEntity
  8
0
  6
Continuous
 62
     7
370
     0
100
AcDbLine
 10
1043.4911509029
 20
2984.6304414975
 30
0.0
 11
925.49104775
 21
2984.6304414975
 31
0.0
  0
LINE
  5
B4
330
AD
100
AcDbEntity
  8
0
  6
Continuous
 62
     7
370
     0
100
AcDbLine
 10
926.49104775
 20
984.6304414975
 30
0.0
 11
926.49104775
 21
2984.6304414975
 31
0.0
  0
MTEXT
  5
B5
330
AD
100
AcDbEntity
  8
0
  6
Continuous
 62
     7
370
     0
100
AcDbMText
 10
890.397150105
 20
1944.5557131863
 30
0.0
 40
28.0
 41
0.0
 71
     1
 72
     1
  1
2000
  7
SLDTEXTSTYLE0
 11
6.944615092633338E-15
 21
1.0
 31
0.0
 73
     1
 44
1.0
  0
ENDBLK
  5
AF
330
AD
100
AcDbEntity
  8
0
100
AcDbBlockEnd
  0
BLOCK
  5
B8
330
B7
100
AcDbEntity
  8
0
100
AcDbBlockBegin
  2
_D_2
 70
     0
 10
0.0
 20
0.0
 30
0.0
  3
_D_2
  1
_D_2
  0
SOLID
  5
BA
330
B7
100
AcDbEntity
  8
0
  6
Continuous
 62
     7
370
     0
100
AcDbTrace
 10
819.3928565476
 20
984.6304414975
 30
0.0
 11
823.7005488553
 21
1012.6304414975
 31
0.0
 12
815.08516424
 22
1012.6304414975
 32
0.0
 13
815.08516424
 23
1012.6304414975
 33
0.0
  0
SOLID
  5
BB
330
B7
100
AcDbEntity
  8
0
  6
Continuous
 62
     7
370
     0
100
AcDbTrace
 10
819.3928565477
 20
3184.6304414975
 30
0.0
 11
815.08516424
 21
3156.6304414975
 31
0.0
 12
823.7005488554
 22
3156.6304414975
 32
0.0
 13
823.7005488554
 23
3156.6304414975
 33
0.0
  0
LINE
  5
BC
330
B7
100
AcDbEntity
  8
0
  6
Continuous
 62
     7
370
     0
100
AcDbLine
 10
1043.4911509029
 20
984.6304414975
 30
0.0
 11
818.3928565476
 21
984.6304414975
 31
0.0
  0
LINE
  5
BD
330
B7
100
AcDbEntity
  8
0
  6
Continuous
 62
     7
370
     0
100
AcDbLine
 10
1043.4911509028
 20
3184.6304414975
 30
0.0
 11
818.3928565477
 21
3184.6304414975
 31
0.0
  0
LINE
  5
BE
330
B7
100
AcDbEntity
  8
0
  6
Continuous
 62
     7
370
     0
100
AcDbLine
 10
819.3928565476
 20
984.6304414975
 30
0.0
 11
819.3928565477
 21
3184.6304414975
 31
0.0
  0
MTEXT
  5
BF
330
B7
100
AcDbEntity
  8
0
  6
Continuous
 62
     7
370
     0
100
AcDbMText
 10
783.2989589027
 20
1944.5557131863
 30
0.0
 40
28.0
 41
0.0
 71
     1
 72
     1
  1
2200
  7
SLDTEXTSTYLE0
 11
6.944615092633338E-15
 21
1.0
 31
0.0
 73
     1
 44
1.0
  0
ENDBLK
  5
B9
330
B7
100
AcDbEntity
  8
0
100
AcDbBlockEnd
  0
BLOCK
  5
142
330
141
100
AcDbEntity
  8
0
100
AcDbBlockBegin
  2
_D_3
 70
     0
 10
0.0
 20
0.0
 30
0.0
  3
_D_3
  1
_D_3
  0
SOLID
  5
144
330
141
100
AcDbEntity
  8
0
  6
Continuous
 62
     7
370
     0
100
AcDbTrace
 10
1094.4911509029
 20
-104.0357502191
 30
0.0
 11
1122.4911509029
 21
-108.3434425268
 31
0.0
 12
1122.4911509029
 22
-99.7280579115
 32
0.0
 13
1122.4911509029
 23
-99.7280579115
 33
0.0
  0
SOLID
  5
145
330
141
100
AcDbEntity
  8
0
  6
Continuous
 62
     7
370
     0
100
AcDbTrace
 10
1794.4911509029
 20
-104.0357502192
 30
0.0
 11
1766.4911509029
 21
-99.7280579115
 31
0.0
 12
1766.4911509029
 22
-108.3434425268
 32
0.0
 13
1766.4911509029
 23
-108.3434425268
 33
0.0
  0
LINE
  5
146
330
141
100
AcDbEntity
  8
0
  6
Continuous
 62
     7
370
     0
100
AcDbLine
 10
1094.4911509029
 20
0.9642497809
 30
0.0
 11
1094.4911509029
 21
-105.0357502191
 31
0.0
  0
LINE
  5
147
330
141
100
AcDbEntity
  8
0
  6
Continuous
 62
     7
370
     0
100
AcDbLine
 10
1794.4911509029
 20
0.9642497809
 30
0.0
 11
1794.4911509029
 21
-105.0357502192
 31
0.0
  0
LINE
  5
148
330
141
100
AcDbEntity
  8
0
  6
Continuous
 62
     7
370
     0
100
AcDbLine
 10
1094.4911509029
 20
-104.0357502191
 30
0.0
 11
1794.4911509029
 21
-104.0357502192
 31
0.0
  0
MTEXT
  5
149
330
141
100
AcDbEntity
  8
0
  6
Continuous
 62
     7
370
     0
100
AcDbMText
 10
1410.067696004
 20
-67.9418525742
 30
0.0
 40
28.0
 41
0.0
 71
     1
 72
     1
  1
700
  7
SLDTEXTSTYLE0
 73
     1
 44
1.0
  0
ENDBLK
  5
143
330
141
100
AcDbEntity
  8
0
100
AcDbBlockEnd
  0
BLOCK
  5
14D
330
14C
100
AcDbEntity
  8
0
100
AcDbBlockBegin
  2
_D_4
 70
     0
 10
0.0
 20
0.0
 30
0.0
  3
_D_4
  1
_D_4
  0
SOLID
  5
14F
330
14C
100
AcDbEntity
  8
0
  6
Continuous
 62
     7
370
     0
100
AcDbTrace
 10
968.49104775
 20
1.9642497809
 30
0.0
 11
972.7987400577
 21
29.9642497809
 31
0.0
 12
964.1833554423
 22
29.9642497809
 32
0.0
 13
964.1833554423
 23
29.9642497809
 33
0.0
  0
SOLID
  5
150
330
14C
100
AcDbEntity
  8
0
  6
Continuous
 62
     7
370
     0
100
AcDbTrace
 10
968.49104775
 20
561.714249781
 30
0.0
 11
964.1833554423
 21
533.714249781
 31
0.0
 12
972.7987400577
 22
533.714249781
 32
0.0
 13
972.7987400577
 23
533.714249781
 33
0.0
  0
LINE
  5
151
330
14C
100
AcDbEntity
  8
0
  6
Continuous
 62
     7
370
     0
100
AcDbLine
 10
1093.4911509029
 20
1.9642497809
 30
0.0
 11
967.49104775
 21
1.9642497809
 31
0.0
  0
LINE
  5
152
330
14C
100
AcDbEntity
  8
0
  6
Continuous
 62
     7
370
     0
100
AcDbLine
 10
1093.7411509028
 20
561.714249781
 30
0.0
 11
967.49104775
 21
561.714249781
 31
0.0
  0
LINE
  5
153
330
14C
100
AcDbEntity
  8
0
  6
Continuous
 62
     7
370
     0
100
AcDbLine
 10
968.49104775
 20
1.9642497809
 30
0.0
 11
968.49104775
 21
561.714249781
 31
0.0
  0
MTEXT
  5
154
330
14C
100
AcDbEntity
  8
0
  6
Continuous
 62
     7
370
     0
100
AcDbMText
 10
932.397150105
 20
270.6972204466
 30
0.0
 40
28.0
 41
0.0
 71
     1
 72
     1
  1
560
  7
SLDTEXTSTYLE0
 11
6.123233995736766E-17
 21
1.0
 31
0.0
 73
     1
 44
1.0
  0
ENDBLK
  5
14E
330
14C
100
AcDbEntity
  8
0
100
AcDbBlockEnd
  0
BLOCK
  5
32C
330
32B
100
AcDbEntity
  8
0
100
AcDbBlockBegin
  2
_D_5
 70
     0
 10
0.0
 20
0.0
 30
0.0
  3
_D_5
  1
_D_5
  0
SOLID
  5
32E
330
32B
100
AcDbEntity
  8
0
  6
Continuous
 62
     7
370
     0
100
AcDbTrace
 10
2460.129933747
 20
890.6304164975
 30
0.0
 11
2488.129933747
 21
886.3227241898
 31
0.0
 12
2488.129933747
 22
894.9381088052
 32
0.0
 13
2488.129933747
 23
894.9381088052
 33
0.0
  0
SOLID
  5
32F
330
32B
100
AcDbEntity
  8
0
  6
Continuous
 62
     7
370
     0
100
AcDbTrace
 10
3060.129933747
 20
890.6304164975
 30
0.0
 11
3032.129933747
 21
894.9381088052
 31
0.0
 12
3032.129933747
 22
886.3227241898
 32
0.0
 13
3032.129933747
 23
886.3227241898
 33
0.0
  0
LINE
  5
330
330
32B
100
AcDbEntity
  8
0
  6
Continuous
 62
     7
370
     0
100
AcDbLine
 10
2460.129933747
 20
983.6304414975
 30
0.0
 11
2460.129933747
 21
889.6304164975
 31
0.0
  0
LINE
  5
331
330
32B
100
AcDbEntity
  8
0
  6
Continuous
 62
     7
370
     0
100
AcDbLine
 10
3060.129933747
 20
983.6304414975
 30
0.0
 11
3060.129933747
 21
889.6304164975
 31
0.0
  0
LINE
  5
332
330
32B
100
AcDbEntity
  8
0
  6
Continuous
 62
     7
370
     0
100
AcDbLine
 10
2460.129933747
 20
890.6304164975
 30
0.0
 11
3060.129933747
 21
890.6304164975
 31
0.0
  0
MTEXT
  5
333
330
32B
100
AcDbEntity
  8
0
  6
Continuous
 62
     7
370
     0
100
AcDbMText
 10
2732.1183921412
 20
926.7243141424
 30
0.0
 40
28.0
 41
0.0
 71
     1
 72
     1
  1
600
  7
SLDTEXTSTYLE0
 73
     1
 44
1.0
  0
ENDBLK
  5
32D
330
32B
100
AcDbEntity
  8
0
100
AcDbBlockEnd
  0
ENDSEC
  0
SECTION
  2
ENTITIES
  0
LINE
  5
6F
330
1F
100
AcDbEntity
  8
0
  6
Continuous
 62
     7
370
    15
100
AcDbLine
 10
1245.9911486733
 20
2021.6304421289
 30
0.0
 11
1245.9911486733
 21
1948.6304414555
 31
0.0
  0
LWPOLYLINE
  5
70
330
1F
100
AcDbEntity
  8
0
  6
Continuous
 62
     7
370
    15
100
AcDbPolyline
 90
       10
 70
   128
 43
0.0
 10
1245.9911486733
 20
1948.6304414555
 10
1245.9835565317
 20
1948.6380376717
 10
1245.9609961736
 20
1948.6605952358
 10
1245.9241605031
 20
1948.6974288108
 10
1245.8741745579
 20
1948.7474192962
 10
1245.8125433552
 20
1948.8090477049
 10
1245.7411518919
 20
1948.8804414965
 10
1245.6621608365
 20
1948.9594313878
 10
1245.5779767263
 20
1949.0436173607
 10
1245.49114766
 20
1949.1304415375
  0
LINE
  5
71
330
1F
100
AcDbEntity
  8
0
  6
Continuous
 62
     7
370
    15
100
AcDbLine
 10
1225.9911528456
 20
1948.6304414555
 30
0.0
 11
1225.9911528456
 21
2021.6304421289
 31
0.0
  0
LWPOLYLINE
  5
72
330
1F
100
AcDbEntity
  8
0
  6
Continuous
 62
     7
370
    15
100
AcDbPolyline
 90
       10
 70
   128
 43
0.0
 10
1225.9911528456
 20
1948.6304414555
 10
1225.9987449872
 20
1948.6380376717
 10
1226.0213053453
 20
1948.6605952358
 10
1226.0581410158
 20
1948.6974288108
 10
1226.108126961
 20
1948.7474192962
 10
1226.1697581637
 20
1948.8090477049
 10
1226.241149627
 20
1948.8804414965
 10
1226.3201406825
 20
1948.9594313878
 10
1226.4043247926
 20
1949.0436173607
 10
1226.4911538589
 20
1949.1304415375
  0
ARC
  5
73
330
1F
100
AcDbEntity
  8
0
  6
Continuous
 62
     7
370
    15
100
AcDbCircle
 10
1235.9911509029
 20
2021.6304414973
 30
0.0
 40
10.0
100
AcDbArc
 50
0.0
 51
180.0
  0
LINE
  5
74
330
1F
100
AcDbEntity
  8
0
  6
Continuous
 62
     7
370
    15
100
AcDbLine
 10
1251.9911533821
 20
1929.6304419501
 30
0.0
 11
1219.9911481368
 21
1929.6304419501
 31
0.0
  0
LINE
  5
75
330
1F
100
AcDbEntity
  8
0
  6
Continuous
 62
     7
370
    15
100
AcDbLine
 10
1252.991147958
 20
2038.6304393275
 30
0.0
 11
1252.991147958
 21
1930.630442114
 31
0.0
  0
LINE
  5
76
330
1F
100
AcDbEntity
  8
0
  6
Continuous
 62
     7
370
    15
100
AcDbLine
 10
1225.9911528456
 20
1938.6304415626
 30
0.0
 11
1225.9911528456
 21
1948.13044149
 31
0.0
  0
LWPOLYLINE
  5
77
330
1F
100
AcDbEntity
  8
0
  6
Continuous
 62
     7
370
    15
100
AcDbPolyline
 90
        9
 70
   128
 43
0.0
 10
1226.4911538589
 20
1947.630441408
 10
1226.3936034071
 20
1947.7279867375
 10
1226.299808048
 20
1947.8217832608
 10
1226.2133664119
 20
1947.9082265267
 10
1226.1375940072
 20
1947.9839949732
 10
1226.0754189122
 20
1948.0461763548
 10
1226.0292104113
 20
1948.0923813632
 10
1226.000756644
 20
1948.1208341991
 10
1225.9911528456
 20
1948.13044149
  0
LWPOLYLINE
  5
78
330
1F
100
AcDbEntity
  8
0
  6
Continuous
 62
     7
370
    15
100
AcDbPolyline
 90
       10
 70
   128
 43
0.0
 10
1245.9911486733
 20
1938.1304414807
 10
1245.9835565317
 20
1938.1380373476
 10
1245.9609961736
 20
1938.1605949117
 10
1245.9241605031
 20
1938.1974287195
 10
1245.8741745579
 20
1938.2474193213
 10
1245.8125433552
 20
1938.3090477301
 10
1245.7411518919
 20
1938.380441056
 10
1245.6621608365
 20
1938.4594311802
 10
1245.5779767263
 20
1938.543617153
 10
1245.49114766
 20
1938.6304415626
  0
LINE
  5
79
330
1F
100
AcDbEntity
  8
0
  6
Continuous
 62
     7
370
    15
100
AcDbLine
 10
1245.9911486733
 20
1938.1304414807
 30
0.0
 11
1226.4911538589
 21
1938.1304414807
 31
0.0
  0
LINE
  5
7A
330
1F
100
AcDbEntity
  8
0
  6
Continuous
 62
     7
370
    15
100
AcDbLine
 10
1218.9911535609
 20
1930.630442114
 30
0.0
 11
1218.9911535609
 21
2038.6304393275
 31
0.0
  0
LINE
  5
7B
330
1F
100
AcDbEntity
  8
0
  6
Continuous
 62
     7
370
    15
100
AcDbLine
 10
1245.9911486733
 20
1947.630441408
 30
0.0
 11
1245.9911486733
 21
1938.1304414807
 31
0.0
  0
LINE
  5
7C
330
1F
100
AcDbEntity
  8
0
  6
Continuous
 62
     7
370
    15
100
AcDbLine
 10
1225.9911528456
 20
1948.13044149
 30
0.0
 11
1245.49114766
 21
1948.13044149
 31
0.0
  0
LINE
  5
7D
330
1F
100
AcDbEntity
  8
0
  6
Continuous
 62
     7
370
    15
100
AcDbLine
 10
1219.9911481368
 20
2039.630441354
 30
0.0
 11
1251.9911533821
 21
2039.630441354
 31
0.0
  0
ARC
  5
7E
330
1F
100
AcDbEntity
  8
0
  6
Continuous
 62
     7
370
    15
100
AcDbCircle
 10
1251.9911509029
 20
1930.6304414973
 30
0.0
 40
1.0
100
AcDbArc
 50
270.0
 51
0.0
  0
ARC
  5
7F
330
1F
100
AcDbEntity
  8
0
  6
Continuous
 62
     7
370
    15
100
AcDbCircle
 10
1226.4911509029
 20
1938.6304414973
 30
0.0
 40
0.5
100
AcDbArc
 50
180.0
 51
270.0
  0
ARC
  5
80
330
1F
100
AcDbEntity
  8
0
  6
Continuous
 62
     7
370
    15
100
AcDbCircle
 10
1245.4911509029
 20
1947.6304414973
 30
0.0
 40
0.5000000000002274
100
AcDbArc
 50
0.0
 51
90.0
  0
ARC
  5
81
330
1F
100
AcDbEntity
  8
0
  6
Continuous
 62
     7
370
    15
100
AcDbCircle
 10
1219.9911509029
 20
1930.6304414973
 30
0.0
 40
1.000000000000227
100
AcDbArc
 50
180.0
 51
270.0
  0
ARC
  5
82
330
1F
100
AcDbEntity
  8
0
  6
Continuous
 62
     7
370
    15
100
AcDbCircle
 10
1219.9911509029
 20
2038.6304414973
 30
0.0
 40
1.0
100
AcDbArc
 50
90.0
 51
180.0
  0
ARC
  5
83
330
1F
100
AcDbEntity
  8
0
  6
Continuous
 62
     7
370
    15
100
AcDbCircle
 10
1251.9911509029
 20
2038.6304414973
 30
0.0
 40
1.0
100
AcDbArc
 50
0.0
 51
90.0
  0
LWPOLYLINE
  5
84
330
1F
100
AcDbEntity
  8
0
  6
Continuous
 62
     7
370
    15
100
AcDbPolyline
 90
       10
 70
   128
 43
0.0
 10
1224.4911498058
 20
1935.1304419203
 10
1224.5779714215
 20
1935.2172653986
 10
1224.6621629822
 20
1935.3014513714
 10
1224.7411540377
 20
1935.3804414956
 10
1224.812545501
 20
1935.4518357528
 10
1224.8741767037
 20
1935.5134641616
 10
1224.9241626489
 20
1935.5634538321
 10
1224.9609983194
 20
1935.6002876399
 10
1224.9835512268
 20
1935.622845204
 10
1224.9911508191
 20
1935.6304410709
  0
LINE
  5
85
330
1F
100
AcDbEntity
  8
0
  6
Continuous
 62
     7
370
    15
100
AcDbLine
 10
1246.9911506998
 20
1935.6304410709
 30
0.0
 11
1224.9911508191
 21
1935.6304410709
 31
0.0
  0
LWPOLYLINE
  5
86
330
1F
100
AcDbEntity
  8
0
  6
Continuous
 62
     7
370
    15
100
AcDbPolyline
 90
       10
 70
   128
 43
0.0
 10
1246.9911506998
 20
1935.6304410709
 10
1246.9987502921
 20
1935.622845204
 10
1247.0213031995
 20
1935.6002876399
 10
1247.05813887
 20
1935.5634538321
 10
1247.1081322658
 20
1935.5134641616
 10
1247.1697560179
 20
1935.4518357528
 10
1247.2411474812
 20
1935.3804414956
 10
1247.3201385367
 20
1935.3014513714
 10
1247.4043300974
 20
1935.2172653986
 10
1247.4911517131
 20
1935.1304419203
  0
LINE
  5
87
330
1F
100
AcDbEntity
  8
0
  6
Continuous
 62
     7
370
    15
100
AcDbLine
 10
1246.9911506998
 20
2033.6304440958
 30
0.0
 11
1246.9911506998
 21
1935.6304410709
 31
0.0
  0
LWPOLYLINE
  5
88
330
1F
100
AcDbEntity
  8
0
  6
Continuous
 62
     7
370
    15
100
AcDbPolyline
 90
       10
 70
   128
 43
0.0
 10
1246.9911506998
 20
2033.6304440958
 10
1246.9987502921
 20
2033.6380362375
 10
1247.0213031995
 20
2033.6605965955
 10
1247.05813887
 20
2033.697432266
 10
1247.1081322658
 20
2033.7474182112
 10
1247.1697560179
 20
2033.8090494139
 10
1247.2411474812
 20
2033.8804408772
 10
1247.3201385367
 20
2033.9594319327
 10
1247.4043300974
 20
2034.0436160428
 10
1247.4911517131
 20
2034.1304451091
  0
LINE
  5
89
330
1F
100
AcDbEntity
  8
0
  6
Continuous
 62
     7
370
    15
100
AcDbLine
 10
1224.9911508191
 20
1935.6304410709
 30
0.0
 11
1224.9911508191
 21
2033.6304440958
 31
0.0
  0
LWPOLYLINE
  5
8A
330
1F
100
AcDbEntity
  8
0
  6
Continuous
 62
     7
370
    15
100
AcDbPolyline
 90
        9
 70
   128
 43
0.0
 10
1224.9911508191
 20
2033.6304440958
 10
1224.9815470207
 20
2033.6400478942
 10
1224.9530932534
 20
2033.6685016615
 10
1224.9068847525
 20
2033.7147101624
 10
1224.8447022068
 20
2033.7768852575
 10
1224.7689372528
 20
2033.8526576621
 10
1224.6824956167
 20
2033.9390992982
 10
1224.588692807
 20
2034.0328946573
 10
1224.4911498058
 20
2034.1304451091
  0
LINE
  5
8B
330
1F
100
AcDbEntity
  8
0
  6
Continuous
 62
     7
370
    15
100
AcDbLine
 10
1245.9911486733
 20
1948.6304414555
 30
0.0
 11
1225.9911528456
 21
1948.6304414555
 31
0.0
  0
LINE
  5
8C
330
1F
100
AcDbEntity
  8
0
  6
Continuous
 62
     7
370
    15
100
AcDbLine
 10
1224.9911508191
 20
2033.6304440958
 30
0.0
 11
1246.9911506998
 21
2033.6304440958
 31
0.0
  0
LINE
  5
8D
330
1F
100
AcDbEntity
  8
0
  6
Continuous
 62
     7
370
    15
100
AcDbLine
 10
1166.991152488
 20
1047.6304650171
 30
0.0
 11
1166.991152488
 21
2921.630418287
 31
0.0
  0
LINE
  5
8E
330
1F
100
AcDbEntity
  8
0
  6
Continuous
 62
     7
370
    15
100
AcDbLine
 10
1166.991152488
 20
2921.630418287
 30
0.0
 11
1720.9911427128
 21
2921.630418287
 31
0.0
  0
LINE
  5
8F
330
1F
100
AcDbEntity
  8
0
  6
Continuous
 62
     7
370
    15
100
AcDbLine
 10
1720.9911427128
 20
2921.630418287
 30
0.0
 11
1720.9911427128
 21
1047.6304650171
 31
0.0
  0
LINE
  5
90
330
1F
100
AcDbEntity
  8
0
  6
Continuous
 62
     7
370
    15
100
AcDbLine
 10
1720.9911427128
 20
1047.6304650171
 30
0.0
 11
1166.991152488
 21
1047.6304650171
 31
0.0
  0
LINE
  5
91
330
1F
100
AcDbEntity
  8
0
  6
Continuous
 62
     7
370
    15
100
AcDbLine
 10
1844.4911620247
 20
2984.6303820474
 30
0.0
 11
1844.4911620247
 21
3184.6304297311
 31
0.0
  0
LINE
  5
92
330
1F
100
AcDbEntity
  8
0
  6
Continuous
 62
     7
370
    15
100
AcDbLine
 10
1044.4911501038
 20
2984.6303820474
 30
0.0
 11
1844.4911620247
 21
2984.6303820474
 31
0.0
  0
LINE
  5
93
330
1F
100
AcDbEntity
  8
0
  6
Continuous
 62
     7
370
    15
100
AcDbLine
 10
1044.4911501038
 20
3184.6304297311
 30
0.0
 11
1044.4911501038
 21
2984.6303820474
 31
0.0
  0
LINE
  5
94
330
1F
100
AcDbEntity
  8
0
  6
Continuous
 62
     7
370
    15
100
AcDbLine
 10
1844.4911620247
 20
3184.6304297311
 30
0.0
 11
1044.4911501038
 21
3184.6304297311
 31
0.0
  0
LINE
  5
95
330
1F
100
AcDbEntity
  8
0
  6
Continuous
 62
     7
370
    15
100
AcDbLine
 10
1164.4911548722
 20
2924.6304392679
 30
0.0
 11
1724.4911572564
 21
2924.6304392679
 31
0.0
  0
LINE
  5
96
330
1F
100
AcDbEntity
  8
0
  6
Continuous
 62
     7
370
    15
100
AcDbLine
 10
1164.4911548722
 20
1044.6304440362
 30
0.0
 11
1164.4911548722
 21
2924.6304392679
 31
0.0
  0
LINE
  5
97
330
1F
100
AcDbEntity
  8
0
  6
Continuous
 62
     7
370
    15
100
AcDbLine
 10
1724.4911572564
 20
1044.6304440362
 30
0.0
 11
1164.4911548722
 21
1044.6304440362
 31
0.0
  0
LINE
  5
98
330
1F
100
AcDbEntity
  8
0
  6
Continuous
 62
     7
370
    15
100
AcDbLine
 10
1724.4911572564
 20
2924.6304392679
 30
0.0
 11
1724.4911572564
 21
1044.6304440362
 31
0.0
  0
LINE
  5
99
330
1F
100
AcDbEntity
  8
0
  6
Continuous
 62
     7
370
    15
100
AcDbLine
 10
1844.4911620247
 20
984.630441652
 30
0.0
 11
1844.4911620247
 21
2984.6303820474
 31
0.0
  0
LINE
  5
9A
330
1F
100
AcDbEntity
  8
0
  6
Continuous
 62
     7
370
    15
100
AcDbLine
 10
1044.4911501038
 20
984.630441652
 30
0.0
 11
1844.4911620247
 21
984.630441652
 31
0.0
  0
LINE
  5
9B
330
1F
100
AcDbEntity
  8
0
  6
Continuous
 62
     7
370
    15
100
AcDbLine
 10
1044.4911501038
 20
2984.6303820474
 30
0.0
 11
1044.4911501038
 21
984.630441652
 31
0.0
  0
LINE
  5
9C
330
1F
100
AcDbEntity
  8
0
  6
Continuous
 62
     7
370
    15
100
AcDbLine
 10
1188.9911523688
 20
2924.6304392679
 30
0.0
 11
1188.9911523688
 21
2921.630418287
 31
0.0
  0
LINE
  5
9D
330
1F
100
AcDbEntity
  8
0
  6
Continuous
 62
     7
370
    15
100
AcDbLine
 10
1188.9911523688
 20
1047.6304650171
 30
0.0
 11
1188.9911523688
 21
1044.6304440362
 31
0.0
  0
LINE
  5
9E
330
1F
100
AcDbEntity
  8
0
  6
Continuous
 62
     7
370
    15
100
AcDbLine
 10
1699.9911448586
 20
1044.6304440362
 30
0.0
 11
1699.9911448586
 21
1047.6304650171
 31
0.0
  0
LINE
  5
9F
330
1F
100
AcDbEntity
  8
0
  6
Continuous
 62
     7
370
    15
100
AcDbLine
 10
1699.9911448586
 20
2921.630418287
 30
0.0
 11
1699.9911448586
 21
2924.6304392679
 31
0.0
  0
DIMENSION
  5
A0
330
1F
100
AcDbEntity
  8
0
  6
Continuous
 62
     7
370
     0
100
AcDbDimension
  2
_D
 10
1844.4911509029
 20
890.6304164975
 30
0.0
 11
1442.8737084141
 21
890.6304164975
 31
0.0
 70
   160
  1
<>
 71
     2
 42
-1.0
  3
SLDDIMSTYLE0
100
AcDbAlignedDimension
 13
1044.4911509029
 23
984.6304414975
 33
0.0
 14
1844.4911509029
 24
984.6304414975
 34
0.0
 50
0.0
100
AcDbRotatedDimension
  0
DIMENSION
  5
AC
330
1F
100
AcDbEntity
  8
0
  6
Continuous
 62
     7
370
     0
100
AcDbDimension
  2
_D_1
 10
926.49104775
 20
2984.6304414975
 30
0.0
 11
926.49104775
 21
1980.4112672305
 31
0.0
 70
   160
  1
<>
 71
     2
 42
-1.0
  3
SLDDIMSTYLE0
100
AcDbAlignedDimension
 13
1044.4911509029
 23
984.6304414975
 33
0.0
 14
1044.4911509029
 24
2984.6304414975
 34
0.0
 50
90.0
100
AcDbRotatedDimension
  0
DIMENSION
  5
B6
330
1F
100
AcDbEntity
  8
0
  6
Continuous
 62
     7
370
     0
100
AcDbDimension
  2
_D_2
 10
819.3928565477
 20
3184.6304414975
 30
0.0
 11
819.3928565477
 21
1980.4112672305
 31
0.0
 70
   160
  1
<>
 71
     2
 42
-1.0
  3
SLDDIMSTYLE0
100
AcDbAlignedDimension
 13
1044.4911509029
 23
984.6304414975
 33
0.0
 14
1044.4911509028
 24
3184.6304414975
 34
0.0
 50
90.0
100
AcDbRotatedDimension
  0
LINE
  5
C0
330
1F
100
AcDbEntity
  8
0
  6
Continuous
 62
     7
370
    15
100
AcDbLine
 10
1222.9911542165
 20
556.9642507346
 30
0.0
 11
1222.9911542165
 21
553.9642297538
 31
0.0
  0
LINE
  5
C1
330
1F
100
AcDbEntity
  8
0
  6
Continuous
 62
     7
370
    15
100
AcDbLine
 10
1248.9911473024
 20
553.9642297538
 30
0.0
 11
1248.9911473024
 21
556.9642507346
 31
0.0
  0
LINE
  5
C2
330
1F
100
AcDbEntity
  8
0
  6
Continuous
 62
     7
370
    15
100
AcDbLine
 10
1248.3210793364
 20
550.9642087729
 30
0.0
 11
1248.3210793364
 21
553.9642297538
 31
0.0
  0
LINE
  5
C3
330
1F
100
AcDbEntity
  8
0
  6
Continuous
 62
     7
370
    15
100
AcDbLine
 10
1163.3210858929
 20
553.9642297538
 30
0.0
 11
1163.3210858929
 21
550.9642087729
 31
0.0
  0
LINE
  5
C4
330
1F
100
AcDbEntity
  8
0
  6
Continuous
 62
     7
370
    15
100
AcDbLine
 10
1252.991147958
 20
584.9642478736
 30
0.0
 11
1252.991147958
 21
583.9642011435
 31
0.0
  0
LINE
  5
C5
330
1F
100
AcDbEntity
  8
0
  6
Continuous
 62
     7
370
    15
100
AcDbLine
 10
1251.9911533821
 20
585.9642946036
 30
0.0
 11
1219.9911481368
 21
585.9642946036
 31
0.0
  0
LINE
  5
C6
330
1F
100
AcDbEntity
  8
0
  6
Continuous
 62
     7
370
    15
100
AcDbLine
 10
1218.9911535609
 20
583.9642011435
 30
0.0
 11
1218.9911535609
 21
584.9642478736
 31
0.0
  0
ARC
  5
C7
330
1F
100
AcDbEntity
  8
0
  6
Continuous
 62
     7
370
    15
100
AcDbCircle
 10
1251.9911509029
 20
584.964249781
 30
0.0
 40
0.9999999999998863
100
AcDbArc
 50
0.0
 51
90.0
  0
ARC
  5
C8
330
1F
100
AcDbEntity
  8
0
  6
Continuous
 62
     7
370
    15
100
AcDbCircle
 10
1219.9911509029
 20
584.964249781
 30
0.0
 40
1.0
100
AcDbArc
 50
90.0
 51
180.0
  0
LINE
  5
C9
330
1F
100
AcDbEntity
  8
0
  6
Continuous
 62
     7
370
    15
100
AcDbLine
 10
1230.1630830991
 20
553.9642297538
 30
0.0
 11
1248.9911473024
 21
553.9642297538
 31
0.0
  0
LINE
  5
CA
330
1F
100
AcDbEntity
  8
0
  6
Continuous
 62
     7
370
    15
100
AcDbLine
 10
1170.8068779337
 20
550.9642087729
 30
0.0
 11
1236.3210773694
 21
550.9642087729
 31
0.0
  0
LINE
  5
CB
330
1F
100
AcDbEntity
  8
0
  6
Continuous
 62
     7
370
    15
100
AcDbLine
 10
1170.8068779337
 20
553.9642297538
 30
0.0
 11
1230.1630830991
 21
553.9642297538
 31
0.0
  0
LINE
  5
CC
330
1F
100
AcDbEntity
  8
0
  6
Continuous
 62
     7
370
    15
100
AcDbLine
 10
1236.3210773694
 20
553.9642297538
 30
0.0
 11
1236.3210773694
 21
550.9642087729
 31
0.0
  0
LINE
  5
CD
330
1F
100
AcDbEntity
  8
0
  6
Continuous
 62
     7
370
    15
100
AcDbLine
 10
1236.3210773694
 20
550.9642087729
 30
0.0
 11
1248.3210793364
 21
550.9642087729
 31
0.0
  0
LINE
  5
CE
330
1F
100
AcDbEntity
  8
0
  6
Continuous
 62
     7
370
    15
100
AcDbLine
 10
1163.3210858929
 20
553.9642297538
 30
0.0
 11
1170.8068779337
 21
553.9642297538
 31
0.0
  0
LINE
  5
CF
330
1F
100
AcDbEntity
  8
0
  6
Continuous
 62
     7
370
    15
100
AcDbLine
 10
1163.3210858929
 20
550.9642087729
 30
0.0
 11
1170.8068779337
 21
550.9642087729
 31
0.0
  0
LINE
  5
D0
330
1F
100
AcDbEntity
  8
0
  6
Continuous
 62
     7
370
    15
100
AcDbLine
 10
1800.6783506501
 20
558.9642249854
 30
0.0
 11
1787.8039559948
 21
558.9642249854
 31
0.0
  0
LINE
  5
D1
330
1F
100
AcDbEntity
  8
0
  6
Continuous
 62
     7
370
    15
100
AcDbLine
 10
1101.1783412325
 20
558.9642249854
 30
0.0
 11
1088.3039614785
 21
558.9642249854
 31
0.0
  0
LINE
  5
D2
330
1F
100
AcDbEntity
  8
0
  6
Continuous
 62
     7
370
    15
100
AcDbLine
 10
1076.491155349
 20
61.9642459662
 30
0.0
 11
1074.4911512959
 21
61.9642459662
 31
0.0
  0
LINE
  5
D3
330
1F
100
AcDbEntity
  8
0
  6
Continuous
 62
     7
370
    15
100
AcDbLine
 10
1814.4911608326
 20
61.9642459662
 30
0.0
 11
1812.4911567795
 21
61.9642459662
 31
0.0
  0
LINE
  5
D4
330
1F
100
AcDbEntity
  8
0
  6
Continuous
 62
     7
370
    15
100
AcDbLine
 10
1814.4911608326
 20
525.9642326148
 30
0.0
 11
1814.4911608326
 21
61.9642459662
 31
0.0
  0
LINE
  5
D5
330
1F
100
AcDbEntity
  8
0
  6
Continuous
 62
     7
370
    15
100
AcDbLine
 10
1812.4911567795
 20
525.9642326148
 30
0.0
 11
1814.4911608326
 21
525.9642326148
 31
0.0
  0
LINE
  5
D6
330
1F
100
AcDbEntity
  8
0
  6
Continuous
 62
     7
370
    15
100
AcDbLine
 10
1074.4911512959
 20
525.9642326148
 30
0.0
 11
1076.491155349
 21
525.9642326148
 31
0.0
  0
LINE
  5
D7
330
1F
100
AcDbEntity
  8
0
  6
Continuous
 62
     7
370
    15
100
AcDbLine
 10
1074.4911512959
 20
61.9642459662
 30
0.0
 11
1074.4911512959
 21
525.9642326148
 31
0.0
  0
LINE
  5
D8
330
1F
100
AcDbEntity
  8
0
  6
Continuous
 62
     7
370
    15
100
AcDbLine
 10
1044.4911501038
 20
-16.0357630937
 30
0.0
 11
1844.4911620247
 21
-16.0357630937
 31
0.0
  0
LINE
  5
D9
330
1F
100
AcDbEntity
  8
0
  6
Continuous
 62
     7
370
    15
100
AcDbLine
 10
1044.4911501038
 20
583.9642011435
 30
0.0
 11
1044.4911501038
 21
-16.0357630937
 31
0.0
  0
LINE
  5
DA
330
1F
100
AcDbEntity
  8
0
  6
Continuous
 62
     7
370
    15
100
AcDbLine
 10
1044.4911501038
 20
583.9642011435
 30
0.0
 11
1844.4911620247
 21
583.9642011435
 31
0.0
  0
LINE
  5
DB
330
1F
100
AcDbEntity
  8
0
  6
Continuous
 62
     7
370
    15
100
AcDbLine
 10
1844.4911620247
 20
-16.0357630937
 30
0.0
 11
1844.4911620247
 21
583.9642011435
 31
0.0
  0
ARC
  5
DC
330
1F
100
AcDbEntity
  8
0
  6
Continuous
 62
     7
370
    15
100
AcDbCircle
 10
1830.491150903
 20
324.4642497809
 30
0.0
 40
4.500000000000227
100
AcDbArc
 50
0.0000000001
 51
179.9999999999
  0
LINE
  5
DD
330
1F
100
AcDbEntity
  8
0
  6
Continuous
 62
     7
370
    15
100
AcDbLine
 10
1825.9911617863
 20
293.4642755301
 30
0.0
 11
1825.9911617863
 21
324.4642936499
 31
0.0
  0
ARC
  5
DE
330
1F
100
AcDbEntity
  8
0
  6
Continuous
 62
     7
370
    15
100
AcDbCircle
 10
1830.491150903
 20
293.4642497809
 30
0.0
 40
4.5
100
AcDbArc
 50
179.9999999999
 51
0.0000000001
  0
LINE
  5
DF
330
1F
100
AcDbEntity
  8
0
  6
Continuous
 62
     7
370
    15
100
AcDbLine
 10
1834.9911353219
 20
324.4642936499
 30
0.0
 11
1834.9911353219
 21
293.4642755301
 31
0.0
  0
ARC
  5
E0
330
1F
100
AcDbEntity
  8
0
  6
Continuous
 62
     7
370
    15
100
AcDbCircle
 10
1830.491150903
 20
524.4642497809
 30
0.0
 40
4.500000000000227
100
AcDbArc
 50
0.0
 51
180.0
  0
LINE
  5
E1
330
1F
100
AcDbEntity
  8
0
  6
Continuous
 62
     7
370
    15
100
AcDbLine
 10
1825.9911617863
 20
493.4642040046
 30
0.0
 11
1825.9911617863
 21
524.4642221244
 31
0.0
  0
ARC
  5
E2
330
1F
100
AcDbEntity
  8
0
  6
Continuous
 62
     7
370
    15
100
AcDbCircle
 10
1830.491150903
 20
493.4642497809
 30
0.0
 40
4.500000000000227
100
AcDbArc
 50
180.0
 51
0.0
  0
LINE
  5
E3
330
1F
100
AcDbEntity
  8
0
  6
Continuous
 62
     7
370
    15
100
AcDbLine
 10
1834.9911353219
 20
524.4642221244
 30
0.0
 11
1834.9911353219
 21
493.4642040046
 31
0.0
  0
ARC
  5
E4
330
1F
100
AcDbEntity
  8
0
  6
Continuous
 62
     7
370
    15
100
AcDbCircle
 10
1830.491150903
 20
474.4642497809
 30
0.0
 40
4.500000000000227
100
AcDbArc
 50
0.0
 51
180.0
  0
LINE
  5
E5
330
1F
100
AcDbEntity
  8
0
  6
Continuous
 62
     7
370
    15
100
AcDbLine
 10
1825.9911617863
 20
443.4642516883
 30
0.0
 11
1825.9911617863
 21
474.4642698081
 31
0.0
  0
ARC
  5
E6
330
1F
100
AcDbEntity
  8
0
  6
Continuous
 62
     7
370
    15
100
AcDbCircle
 10
1830.491150903
 20
443.4642497809
 30
0.0
 40
4.5
100
AcDbArc
 50
180.0
 51
0.0
  0
LINE
  5
E7
330
1F
100
AcDbEntity
  8
0
  6
Continuous
 62
     7
370
    15
100
AcDbLine
 10
1834.9911353219
 20
474.4642698081
 30
0.0
 11
1834.9911353219
 21
443.4642516883
 31
0.0
  0
ARC
  5
E8
330
1F
100
AcDbEntity
  8
0
  6
Continuous
 62
     7
370
    15
100
AcDbCircle
 10
1830.491150903
 20
424.4642497809
 30
0.0
 40
4.500000000000227
100
AcDbArc
 50
0.0
 51
180.0
  0
LINE
  5
E9
330
1F
100
AcDbEntity
  8
0
  6
Continuous
 62
     7
370
    15
100
AcDbLine
 10
1825.9911617863
 20
393.464299372
 30
0.0
 11
1825.9911617863
 21
424.4641982825
 31
0.0
  0
ARC
  5
EA
330
1F
100
AcDbEntity
  8
0
  6
Continuous
 62
     7
370
    15
100
AcDbCircle
 10
1830.491150903
 20
393.4642497809
 30
0.0
 40
4.5
100
AcDbArc
 50
180.0
 51
0.0
  0
LINE
  5
EB
330
1F
100
AcDbEntity
  8
0
  6
Continuous
 62
     7
370
    15
100
AcDbLine
 10
1834.9911353219
 20
424.4641982825
 30
0.0
 11
1834.9911353219
 21
393.464299372
 31
0.0
  0
ARC
  5
EC
330
1F
100
AcDbEntity
  8
0
  6
Continuous
 62
     7
370
    15
100
AcDbCircle
 10
1830.491150903
 20
374.4642497809
 30
0.0
 40
4.5
100
AcDbArc
 50
0.0
 51
180.0
  0
LINE
  5
ED
330
1F
100
AcDbEntity
  8
0
  6
Continuous
 62
     7
370
    15
100
AcDbLine
 10
1825.9911617863
 20
343.4642278464
 30
0.0
 11
1825.9911617863
 21
374.4642459662
 31
0.0
  0
ARC
  5
EE
330
1F
100
AcDbEntity
  8
0
  6
Continuous
 62
     7
370
    15
100
AcDbCircle
 10
1830.491150903
 20
343.4642497809
 30
0.0
 40
4.5
100
AcDbArc
 50
179.9999999999
 51
0.0000000001
  0
LINE
  5
EF
330
1F
100
AcDbEntity
  8
0
  6
Continuous
 62
     7
370
    15
100
AcDbLine
 10
1834.9911353219
 20
374.4642459662
 30
0.0
 11
1834.9911353219
 21
343.4642278464
 31
0.0
  0
ARC
  5
F0
330
1F
100
AcDbEntity
  8
0
  6
Continuous
 62
     7
370
    15
100
AcDbCircle
 10
1830.491150903
 20
274.4642497809
 30
0.0
 40
4.5
100
AcDbArc
 50
0.0000000001
 51
179.9999999999
  0
LINE
  5
F1
330
1F
100
AcDbEntity
  8
0
  6
Continuous
 62
     7
370
    15
100
AcDbLine
 10
1825.9911617863
 20
243.4642040046
 30
0.0
 11
1825.9911617863
 21
274.4642221244
 31
0.0
  0
ARC
  5
F2
330
1F
100
AcDbEntity
  8
0
  6
Continuous
 62
     7
370
    15
100
AcDbCircle
 10
1830.491150903
 20
243.4642497809
 30
0.0
 40
4.500000000000227
100
AcDbArc
 50
179.9999999999
 51
0.0000000001
  0
LINE
  5
F3
330
1F
100
AcDbEntity
  8
0
  6
Continuous
 62
     7
370
    15
100
AcDbLine
 10
1834.9911353219
 20
274.4642221244
 30
0.0
 11
1834.9911353219
 21
243.4642040046
 31
0.0
  0
ARC
  5
F4
330
1F
100
AcDbEntity
  8
0
  6
Continuous
 62
     7
370
    15
100
AcDbCircle
 10
1830.491150903
 20
224.4642497809
 30
0.0
 40
4.500000000000227
100
AcDbArc
 50
0.0000000001
 51
179.9999999999
  0
LINE
  5
F5
330
1F
100
AcDbEntity
  8
0
  6
Continuous
 62
     7
370
    15
100
AcDbLine
 10
1825.9911617863
 20
193.4642516883
 30
0.0
 11
1825.9911617863
 21
224.4642698081
 31
0.0
  0
ARC
  5
F6
330
1F
100
AcDbEntity
  8
0
  6
Continuous
 62
     7
370
    15
100
AcDbCircle
 10
1830.491150903
 20
193.4642497809
 30
0.0
 40
4.5
100
AcDbArc
 50
179.9999999999
 51
0.0000000001
  0
LINE
  5
F7
330
1F
100
AcDbEntity
  8
0
  6
Continuous
 62
     7
370
    15
100
AcDbLine
 10
1834.9911353219
 20
224.4642698081
 30
0.0
 11
1834.9911353219
 21
193.4642516883
 31
0.0
  0
ARC
  5
F8
330
1F
100
AcDbEntity
  8
0
  6
Continuous
 62
     7
370
    15
100
AcDbCircle
 10
1830.491150903
 20
174.4642497809
 30
0.0
 40
4.5
100
AcDbArc
 50
0.0000000001
 51
179.9999999999
  0
LINE
  5
F9
330
1F
100
AcDbEntity
  8
0
  6
Continuous
 62
     7
370
    15
100
AcDbLine
 10
1825.9911617863
 20
143.464299372
 30
0.0
 11
1825.9911617863
 21
174.4641982825
 31
0.0
  0
ARC
  5
FA
330
1F
100
AcDbEntity
  8
0
  6
Continuous
 62
     7
370
    15
100
AcDbCircle
 10
1830.491150903
 20
143.4642497809
 30
0.0
 40
4.5
100
AcDbArc
 50
179.9999999999
 51
0.0000000001
  0
LINE
  5
FB
330
1F
100
AcDbEntity
  8
0
  6
Continuous
 62
     7
370
    15
100
AcDbLine
 10
1834.9911353219
 20
174.4641982825
 30
0.0
 11
1834.9911353219
 21
143.464299372
 31
0.0
  0
ARC
  5
FC
330
1F
100
AcDbEntity
  8
0
  6
Continuous
 62
     7
370
    15
100
AcDbCircle
 10
1830.491150903
 20
124.4642497809
 30
0.0
 40
4.5
100
AcDbArc
 50
0.0000000001
 51
179.9999999999
  0
LINE
  5
FD
330
1F
100
AcDbEntity
  8
0
  6
Continuous
 62
     7
370
    15
100
AcDbLine
 10
1825.9911617863
 20
93.4642278464
 30
0.0
 11
1825.9911617863
 21
124.4642459662
 31
0.0
  0
ARC
  5
FE
330
1F
100
AcDbEntity
  8
0
  6
Continuous
 62
     7
370
    15
100
AcDbCircle
 10
1830.491150903
 20
93.4642497809
 30
0.0
 40
4.500000000000227
100
AcDbArc
 50
179.9999999999
 51
0.0000000001
  0
LINE
  5
FF
330
1F
100
AcDbEntity
  8
0
  6
Continuous
 62
     7
370
    15
100
AcDbLine
 10
1834.9911353219
 20
124.4642459662
 30
0.0
 11
1834.9911353219
 21
93.4642278464
 31
0.0
  0
ARC
  5
100
330
1F
100
AcDbEntity
  8
0
  6
Continuous
 62
     7
370
    15
100
AcDbCircle
 10
1830.491150903
 20
74.4642497809
 30
0.0
 40
4.5
100
AcDbArc
 50
359.9999999999
 51
179.9999999999
  0
LINE
  5
101
330
1F
100
AcDbEntity
  8
0
  6
Continuous
 62
     7
370
    15
100
AcDbLine
 10
1825.9911617863
 20
43.4642755301
 30
0.0
 11
1825.9911617863
 21
74.4642340453
 31
0.0
  0
ARC
  5
102
330
1F
100
AcDbEntity
  8
0
  6
Continuous
 62
     7
370
    15
100
AcDbCircle
 10
1830.491150903
 20
43.4642497809
 30
0.0
 40
4.5
100
AcDbArc
 50
179.9999999999
 51
0.0000000001
  0
LINE
  5
103
330
1F
100
AcDbEntity
  8
0
  6
Continuous
 62
     7
370
    15
100
AcDbLine
 10
1834.9911353219
 20
74.4642340453
 30
0.0
 11
1834.9911353219
 21
43.4642755301
 31
0.0
  0
CIRCLE
  5
104
330
1F
100
AcDbEntity
  8
0
  6
Continuous
 62
     7
370
    15
100
AcDbCircle
 10
1794.2411509029
 20
561.714249781
 30
0.0
 40
7.000000000000114
  0
ARC
  5
105
330
1F
100
AcDbEntity
  8
0
  6
Continuous
 62
     7
370
    15
100
AcDbCircle
 10
1058.4911509549
 20
243.464249781
 30
0.0
 40
4.500000000000227
100
AcDbArc
 50
179.9999999999
 51
0.0000000001
  0
LINE
  5
106
330
1F
100
AcDbEntity
  8
0
  6
Continuous
 62
     7
370
    15
100
AcDbLine
 10
1062.9911503422
 20
274.4642221244
 30
0.0
 11
1062.9911503422
 21
243.4642040046
 31
0.0
  0
ARC
  5
107
330
1F
100
AcDbEntity
  8
0
  6
Continuous
 62
     7
370
    15
100
AcDbCircle
 10
1058.4911509549
 20
274.464249781
 30
0.0
 40
4.5
100
AcDbArc
 50
0.0000000001
 51
179.9999999999
  0
LINE
  5
108
330
1F
100
AcDbEntity
  8
0
  6
Continuous
 62
     7
370
    15
100
AcDbLine
 10
1053.9911470044
 20
243.4642040046
 30
0.0
 11
1053.9911470044
 21
274.4642221244
 31
0.0
  0
ARC
  5
109
330
1F
100
AcDbEntity
  8
0
  6
Continuous
 62
     7
370
    15
100
AcDbCircle
 10
1058.4911509549
 20
43.464249781
 30
0.0
 40
4.5
100
AcDbArc
 50
179.9999999999
 51
0.0000000001
  0
LINE
  5
10A
330
1F
100
AcDbEntity
  8
0
  6
Continuous
 62
     7
370
    15
100
AcDbLine
 10
1062.9911503422
 20
74.4642340453
 30
0.0
 11
1062.9911503422
 21
43.4642755301
 31
0.0
  0
ARC
  5
10B
330
1F
100
AcDbEntity
  8
0
  6
Continuous
 62
     7
370
    15
100
AcDbCircle
 10
1058.4911509549
 20
74.464249781
 30
0.0
 40
4.5
100
AcDbArc
 50
0.0000000001
 51
179.9999999999
  0
LINE
  5
10C
330
1F
100
AcDbEntity
  8
0
  6
Continuous
 62
     7
370
    15
100
AcDbLine
 10
1053.9911470044
 20
43.4642755301
 30
0.0
 11
1053.9911470044
 21
74.4642340453
 31
0.0
  0
ARC
  5
10D
330
1F
100
AcDbEntity
  8
0
  6
Continuous
 62
     7
370
    15
100
AcDbCircle
 10
1058.4911509549
 20
93.464249781
 30
0.0
 40
4.500000000000227
100
AcDbArc
 50
179.9999999999
 51
0.0000000001
  0
LINE
  5
10E
330
1F
100
AcDbEntity
  8
0
  6
Continuous
 62
     7
370
    15
100
AcDbLine
 10
1062.9911503422
 20
124.4642459662
 30
0.0
 11
1062.9911503422
 21
93.4642278464
 31
0.0
  0
ARC
  5
10F
330
1F
100
AcDbEntity
  8
0
  6
Continuous
 62
     7
370
    15
100
AcDbCircle
 10
1058.4911509549
 20
124.464249781
 30
0.0
 40
4.500000000000227
100
AcDbArc
 50
0.0000000001
 51
179.9999999999
  0
LINE
  5
110
330
1F
100
AcDbEntity
  8
0
  6
Continuous
 62
     7
370
    15
100
AcDbLine
 10
1053.9911470044
 20
93.4642278464
 30
0.0
 11
1053.9911470044
 21
124.4642459662
 31
0.0
  0
ARC
  5
111
330
1F
100
AcDbEntity
  8
0
  6
Continuous
 62
     7
370
    15
100
AcDbCircle
 10
1058.4911509549
 20
143.464249781
 30
0.0
 40
4.5
100
AcDbArc
 50
179.9999999999
 51
0.0000000001
  0
LINE
  5
112
330
1F
100
AcDbEntity
  8
0
  6
Continuous
 62
     7
370
    15
100
AcDbLine
 10
1062.9911503422
 20
174.4641982825
 30
0.0
 11
1062.9911503422
 21
143.464299372
 31
0.0
  0
ARC
  5
113
330
1F
100
AcDbEntity
  8
0
  6
Continuous
 62
     7
370
    15
100
AcDbCircle
 10
1058.4911509549
 20
174.464249781
 30
0.0
 40
4.500000000000227
100
AcDbArc
 50
0.0000000001
 51
179.9999999999
  0
LINE
  5
114
330
1F
100
AcDbEntity
  8
0
  6
Continuous
 62
     7
370
    15
100
AcDbLine
 10
1053.9911470044
 20
143.464299372
 30
0.0
 11
1053.9911470044
 21
174.4641982825
 31
0.0
  0
ARC
  5
115
330
1F
100
AcDbEntity
  8
0
  6
Continuous
 62
     7
370
    15
100
AcDbCircle
 10
1058.4911509549
 20
193.464249781
 30
0.0
 40
4.5
100
AcDbArc
 50
179.9999999999
 51
0.0000000001
  0
LINE
  5
116
330
1F
100
AcDbEntity
  8
0
  6
Continuous
 62
     7
370
    15
100
AcDbLine
 10
1062.9911503422
 20
224.4642698081
 30
0.0
 11
1062.9911503422
 21
193.4642516883
 31
0.0
  0
ARC
  5
117
330
1F
100
AcDbEntity
  8
0
  6
Continuous
 62
     7
370
    15
100
AcDbCircle
 10
1058.4911509549
 20
224.464249781
 30
0.0
 40
4.500000000000227
100
AcDbArc
 50
0.0000000001
 51
179.9999999999
  0
LINE
  5
118
330
1F
100
AcDbEntity
  8
0
  6
Continuous
 62
     7
370
    15
100
AcDbLine
 10
1053.9911470044
 20
193.4642516883
 30
0.0
 11
1053.9911470044
 21
224.4642698081
 31
0.0
  0
ARC
  5
119
330
1F
100
AcDbEntity
  8
0
  6
Continuous
 62
     7
370
    15
100
AcDbCircle
 10
1058.4911509549
 20
293.464249781
 30
0.0
 40
4.5
100
AcDbArc
 50
179.9999999999
 51
0.0000000001
  0
LINE
  5
11A
330
1F
100
AcDbEntity
  8
0
  6
Continuous
 62
     7
370
    15
100
AcDbLine
 10
1062.9911503422
 20
324.4642936499
 30
0.0
 11
1062.9911503422
 21
293.4642755301
 31
0.0
  0
ARC
  5
11B
330
1F
100
AcDbEntity
  8
0
  6
Continuous
 62
     7
370
    15
100
AcDbCircle
 10
1058.4911509549
 20
324.464249781
 30
0.0
 40
4.500000000000227
100
AcDbArc
 50
0.0000000001
 51
179.9999999999
  0
LINE
  5
11C
330
1F
100
AcDbEntity
  8
0
  6
Continuous
 62
     7
370
    15
100
AcDbLine
 10
1053.9911470044
 20
293.4642755301
 30
0.0
 11
1053.9911470044
 21
324.4642936499
 31
0.0
  0
ARC
  5
11D
330
1F
100
AcDbEntity
  8
0
  6
Continuous
 62
     7
370
    15
100
AcDbCircle
 10
1058.4911509549
 20
343.464249781
 30
0.0
 40
4.500000000000227
100
AcDbArc
 50
179.9999999999
 51
0.0000000001
  0
LINE
  5
11E
330
1F
100
AcDbEntity
  8
0
  6
Continuous
 62
     7
370
    15
100
AcDbLine
 10
1062.9911503422
 20
374.4642459662
 30
0.0
 11
1062.9911503422
 21
343.4642278464
 31
0.0
  0
ARC
  5
11F
330
1F
100
AcDbEntity
  8
0
  6
Continuous
 62
     7
370
    15
100
AcDbCircle
 10
1058.4911509549
 20
374.464249781
 30
0.0
 40
4.5
100
AcDbArc
 50
0.0
 51
180.0
  0
LINE
  5
120
330
1F
100
AcDbEntity
  8
0
  6
Continuous
 62
     7
370
    15
100
AcDbLine
 10
1053.9911470044
 20
343.4642278464
 30
0.0
 11
1053.9911470044
 21
374.4642459662
 31
0.0
  0
ARC
  5
121
330
1F
100
AcDbEntity
  8
0
  6
Continuous
 62
     7
370
    15
100
AcDbCircle
 10
1058.4911509549
 20
393.464249781
 30
0.0
 40
4.500000000000227
100
AcDbArc
 50
180.0
 51
0.0
  0
LINE
  5
122
330
1F
100
AcDbEntity
  8
0
  6
Continuous
 62
     7
370
    15
100
AcDbLine
 10
1062.9911503422
 20
424.4641982825
 30
0.0
 11
1062.9911503422
 21
393.464299372
 31
0.0
  0
ARC
  5
123
330
1F
100
AcDbEntity
  8
0
  6
Continuous
 62
     7
370
    15
100
AcDbCircle
 10
1058.4911509549
 20
424.464249781
 30
0.0
 40
4.5
100
AcDbArc
 50
0.0
 51
180.0
  0
LINE
  5
124
330
1F
100
AcDbEntity
  8
0
  6
Continuous
 62
     7
370
    15
100
AcDbLine
 10
1053.9911470044
 20
393.464299372
 30
0.0
 11
1053.9911470044
 21
424.4641982825
 31
0.0
  0
ARC
  5
125
330
1F
100
AcDbEntity
  8
0
  6
Continuous
 62
     7
370
    15
100
AcDbCircle
 10
1058.4911509549
 20
443.464249781
 30
0.0
 40
4.500000000000227
100
AcDbArc
 50
180.0
 51
0.0
  0
LINE
  5
126
330
1F
100
AcDbEntity
  8
0
  6
Continuous
 62
     7
370
    15
100
AcDbLine
 10
1062.9911503422
 20
474.4642698081
 30
0.0
 11
1062.9911503422
 21
443.4642516883
 31
0.0
  0
ARC
  5
127
330
1F
100
AcDbEntity
  8
0
  6
Continuous
 62
     7
370
    15
100
AcDbCircle
 10
1058.4911509549
 20
474.464249781
 30
0.0
 40
4.5
100
AcDbArc
 50
0.0
 51
180.0
  0
LINE
  5
128
330
1F
100
AcDbEntity
  8
0
  6
Continuous
 62
     7
370
    15
100
AcDbLine
 10
1053.9911470044
 20
443.4642516883
 30
0.0
 11
1053.9911470044
 21
474.4642698081
 31
0.0
  0
ARC
  5
129
330
1F
100
AcDbEntity
  8
0
  6
Continuous
 62
     7
370
    15
100
AcDbCircle
 10
1058.4911509549
 20
493.464249781
 30
0.0
 40
4.500000000000227
100
AcDbArc
 50
180.0
 51
0.0
  0
LINE
  5
12A
330
1F
100
AcDbEntity
  8
0
  6
Continuous
 62
     7
370
    15
100
AcDbLine
 10
1062.9911503422
 20
524.4642221244
 30
0.0
 11
1062.9911503422
 21
493.4642040046
 31
0.0
  0
ARC
  5
12B
330
1F
100
AcDbEntity
  8
0
  6
Continuous
 62
     7
370
    15
100
AcDbCircle
 10
1058.4911509549
 20
524.464249781
 30
0.0
 40
4.5
100
AcDbArc
 50
0.0
 51
180.0
  0
LINE
  5
12C
330
1F
100
AcDbEntity
  8
0
  6
Continuous
 62
     7
370
    15
100
AcDbLine
 10
1053.9911470044
 20
493.4642040046
 30
0.0
 11
1053.9911470044
 21
524.4642221244
 31
0.0
  0
CIRCLE
  5
12D
330
1F
100
AcDbEntity
  8
0
  6
Continuous
 62
     7
370
    15
100
AcDbCircle
 10
1094.4911509029
 20
1.9642497809
 30
0.0
 40
7.000000000000227
  0
CIRCLE
  5
12E
330
1F
100
AcDbEntity
  8
0
  6
Continuous
 62
     7
370
    15
100
AcDbCircle
 10
1794.4911509029
 20
1.9642497809
 30
0.0
 40
7.0
  0
CIRCLE
  5
12F
330
1F
100
AcDbEntity
  8
0
  6
Continuous
 62
     7
370
    15
100
AcDbCircle
 10
1094.7411509028
 20
561.714249781
 30
0.0
 40
6.999999999999773
  0
LINE
  5
130
330
1F
100
AcDbEntity
  8
0
  6
Continuous
 62
     7
370
    15
100
AcDbLine
 10
1076.491155349
 20
525.9642326148
 30
0.0
 11
1076.491155349
 21
545.9642135413
 31
0.0
  0
LINE
  5
131
330
1F
100
AcDbEntity
  8
0
  6
Continuous
 62
     7
370
    15
100
AcDbLine
 10
1162.4911508191
 20
554.9642764838
 30
0.0
 11
1188.9911523688
 21
554.9642764838
 31
0.0
  0
LINE
  5
132
330
1F
100
AcDbEntity
  8
0
  6
Continuous
 62
     7
370
    15
100
AcDbLine
 10
1076.491155349
 20
545.9642135413
 30
0.0
 11
1162.4911508191
 21
554.9642764838
 31
0.0
  0
LINE
  5
133
330
1F
100
AcDbEntity
  8
0
  6
Continuous
 62
     7
370
    15
100
AcDbLine
 10
1188.9911523688
 20
554.9642764838
 30
0.0
 11
1188.9911523688
 21
556.9642507346
 31
0.0
  0
LINE
  5
134
330
1F
100
AcDbEntity
  8
0
  6
Continuous
 62
     7
370
    15
100
AcDbLine
 10
1076.491155349
 20
21.9642245086
 30
0.0
 11
1076.491155349
 21
61.9642459662
 31
0.0
  0
LINE
  5
135
330
1F
100
AcDbEntity
  8
0
  6
Continuous
 62
     7
370
    15
100
AcDbLine
 10
1188.9911523688
 20
556.9642507346
 30
0.0
 11
1699.9911448586
 21
556.9642507346
 31
0.0
  0
LINE
  5
136
330
1F
100
AcDbEntity
  8
0
  6
Continuous
 62
     7
370
    15
100
AcDbLine
 10
1699.9911448586
 20
556.9642507346
 30
0.0
 11
1699.9911448586
 21
554.9642764838
 31
0.0
  0
LINE
  5
137
330
1F
100
AcDbEntity
  8
0
  6
Continuous
 62
     7
370
    15
100
AcDbLine
 10
1699.9911448586
 20
554.9642764838
 30
0.0
 11
1726.4911613095
 21
554.9642764838
 31
0.0
  0
LINE
  5
138
330
1F
100
AcDbEntity
  8
0
  6
Continuous
 62
     7
370
    15
100
AcDbLine
 10
1726.4911613095
 20
554.9642764838
 30
0.0
 11
1812.4911567795
 21
545.9642135413
 31
0.0
  0
LINE
  5
139
330
1F
100
AcDbEntity
  8
0
  6
Continuous
 62
     7
370
    15
100
AcDbLine
 10
1812.4911567795
 20
545.9642135413
 30
0.0
 11
1812.4911567795
 21
525.9642326148
 31
0.0
  0
LINE
  5
13A
330
1F
100
AcDbEntity
  8
0
  6
Continuous
 62
     7
370
    15
100
AcDbLine
 10
1812.4911567795
 20
61.9642459662
 30
0.0
 11
1812.4911567795
 21
21.9642245086
 31
0.0
  0
LINE
  5
13B
330
1F
100
AcDbEntity
  8
0
  6
Continuous
 62
     7
370
    15
100
AcDbLine
 10
1812.4911567795
 20
21.9642245086
 30
0.0
 11
1076.491155349
 21
21.9642245086
 31
0.0
  0
LINE
  5
13C
330
1F
100
AcDbEntity
  8
0
  6
Continuous
 62
     7
370
    15
100
AcDbLine
 10
1825.9911617863
 20
505.4642879279
 30
0.0
 11
1834.9911353219
 21
514.4642316611
 31
0.0
  0
LINE
  5
13D
330
1F
100
AcDbEntity
  8
0
  6
Continuous
 62
     7
370
    15
100
AcDbLine
 10
1834.9911353219
 20
53.4642659934
 30
0.0
 11
1825.9911617863
 21
62.4642693313
 31
0.0
  0
LINE
  5
13E
330
1F
100
AcDbEntity
  8
0
  6
Continuous
 62
     7
370
    15
100
AcDbLine
 10
1062.9911503422
 20
62.4642693313
 30
0.0
 11
1053.9911470044
 21
53.4642659934
 31
0.0
  0
LINE
  5
13F
330
1F
100
AcDbEntity
  8
0
  6
Continuous
 62
     7
370
    15
100
AcDbLine
 10
1053.9911470044
 20
514.4642316611
 30
0.0
 11
1062.9911503422
 21
505.4642879279
 31
0.0
  0
DIMENSION
  5
140
330
1F
100
AcDbEntity
  8
0
  6
Continuous
 62
     7
370
     0
100
AcDbDimension
  2
_D_3
 10
1794.4911509029
 20
-104.0357502191
 30
0.0
 11
1436.9593615372
 21
-104.0357502191
 31
0.0
 70
   160
  1
<>
 71
     2
 42
-1.0
  3
SLDDIMSTYLE0
100
AcDbAlignedDimension
 13
1094.4911509029
 23
1.9642497809
 33
0.0
 14
1794.4911509029
 24
1.9642497809
 34
0.0
 50
0.0
100
AcDbRotatedDimension
  0
DIMENSION
  5
14A
330
1F
100
AcDbEntity
  8
0
  6
Continuous
 62
     7
370
     0
100
AcDbDimension
  2
_D_4
 10
968.49104775
 20
561.714249781
 30
0.0
 11
968.49104775
 21
296.5777751376
 31
0.0
 70
   160
  1
<>
 71
     2
 42
-1.0
  3
SLDDIMSTYLE1
100
AcDbAlignedDimension
 13
1094.4911509029
 23
1.9642497809
 33
0.0
 14
1094.7411509028
 24
561.714249781
 34
0.0
 50
90.0
100
AcDbRotatedDimension
  0
LINE
  5
155
330
1F
100
AcDbEntity
  8
0
  6
Continuous
 62
     7
370
    15
100
AcDbLine
 10
3060.1298851096
 20
2039.630441354
 30
0.0
 11
3061.1299318396
 21
2039.630441354
 31
0.0
  0
LINE
  5
156
330
1F
100
AcDbEntity
  8
0
  6
Continuous
 62
     7
370
    15
100
AcDbLine
 10
3062.1299785697
 20
1930.630442114
 30
0.0
 11
3062.1299785697
 21
2038.6304393275
 31
0.0
  0
LINE
  5
157
330
1F
100
AcDbEntity
  8
0
  6
Continuous
 62
     7
370
    15
100
AcDbLine
 10
3061.1299318396
 20
1929.6304419501
 30
0.0
 11
3060.1298851096
 21
1929.6304419501
 31
0.0
  0
ARC
  5
158
330
1F
100
AcDbEntity
  8
0
  6
Continuous
 62
     7
370
    15
100
AcDbCircle
 10
3061.129933747
 20
2038.6304414973
 30
0.0
 40
1.0
100
AcDbArc
 50
0.0
 51
90.0
  0
ARC
  5
159
330
1F
100
AcDbEntity
  8
0
  6
Continuous
 62
     7
370
    15
100
AcDbCircle
 10
3061.129933747
 20
1930.6304414973
 30
0.0
 40
1.0
100
AcDbArc
 50
270.0
 51
0.0
  0
LINE
  5
15A
330
1F
100
AcDbEntity
  8
0
  6
Continuous
 62
     7
370
    15
100
AcDbLine
 10
3050.1298946463
 20
3183.6303830011
 30
0.0
 11
3050.1298946463
 21
3184.6304297311
 31
0.0
  0
LINE
  5
15B
330
1F
100
AcDbEntity
  8
0
  6
Continuous
 62
     7
370
    15
100
AcDbLine
 10
3050.1298946463
 20
3184.6304297311
 30
0.0
 11
3060.1298851096
 21
3184.6304297311
 31
0.0
  0
LINE
  5
15C
330
1F
100
AcDbEntity
  8
0
  6
Continuous
 62
     7
370
    15
100
AcDbLine
 10
3060.1298851096
 20
3184.6304297311
 30
0.0
 11
3060.1298851096
 21
2984.6303820474
 31
0.0
  0
LINE
  5
15D
330
1F
100
AcDbEntity
  8
0
  6
Continuous
 62
     7
370
    15
100
AcDbLine
 10
3035.1299089515
 20
2984.6303820474
 30
0.0
 11
3035.1299089515
 21
3086.6304993493
 31
0.0
  0
LINE
  5
15E
330
1F
100
AcDbEntity
  8
0
  6
Continuous
 62
     7
370
    15
100
AcDbLine
 10
3035.1299089515
 20
3086.6304993493
 30
0.0
 11
3050.1298946463
 21
3183.6303830011
 31
0.0
  0
LINE
  5
15F
330
1F
100
AcDbEntity
  8
0
  6
Continuous
 62
     7
370
    15
100
AcDbLine
 10
3060.1298851096
 20
2984.6303820474
 30
0.0
 11
3035.1299089515
 21
2984.6303820474
 31
0.0
  0
LINE
  5
160
330
1F
100
AcDbEntity
  8
0
  6
Continuous
 62
     7
370
    15
100
AcDbLine
 10
2460.1299208724
 20
2984.6303820474
 30
0.0
 11
2460.1299208724
 21
984.630441652
 31
0.0
  0
LINE
  5
161
330
1F
100
AcDbEntity
  8
0
  6
Continuous
 62
     7
370
    15
100
AcDbLine
 10
3060.1298851096
 20
2984.6303820474
 30
0.0
 11
2460.1299208724
 21
2984.6303820474
 31
0.0
  0
LINE
  5
162
330
1F
100
AcDbEntity
  8
0
  6
Continuous
 62
     7
370
    15
100
AcDbLine
 10
3060.1298851096
 20
2984.6303820474
 30
0.0
 11
3060.1298851096
 21
984.630441652
 31
0.0
  0
LINE
  5
163
330
1F
100
AcDbEntity
  8
0
  6
Continuous
 62
     7
370
    15
100
AcDbLine
 10
3060.1298851096
 20
984.630441652
 30
0.0
 11
2460.1299208724
 21
984.630441652
 31
0.0
  0
LINE
  5
164
330
1F
100
AcDbEntity
  8
0
  6
Continuous
 62
     7
370
    15
100
AcDbLine
 10
3035.6299919211
 20
2619.1304683549
 30
0.0
 11
3035.6299919211
 21
2650.1304268701
 31
0.0
  0
ARC
  5
165
330
1F
100
AcDbEntity
  8
0
  6
Continuous
 62
     7
370
    15
100
AcDbCircle
 10
3040.129933747
 20
2619.1304414975
 30
0.0
 40
4.5
100
AcDbArc
 50
180.0
 51
0.0
  0
LINE
  5
166
330
1F
100
AcDbEntity
  8
0
  6
Continuous
 62
     7
370
    15
100
AcDbLine
 10
3044.6299356543
 20
2650.1304268701
 30
0.0
 11
3044.6299356543
 21
2619.1304683549
 31
0.0
  0
ARC
  5
167
330
1F
100
AcDbEntity
  8
0
  6
Continuous
 62
     7
370
    15
100
AcDbCircle
 10
3040.129933747
 20
2650.1304414975
 30
0.0
 40
4.5
100
AcDbArc
 50
0.0
 51
180.0
  0
LINE
  5
168
330
1F
100
AcDbEntity
  8
0
  6
Continuous
 62
     7
370
    15
100
AcDbLine
 10
3035.6299919211
 20
1319.130456434
 30
0.0
 11
3035.6299919211
 21
1350.1304149492
 31
0.0
  0
ARC
  5
169
330
1F
100
AcDbEntity
  8
0
  6
Continuous
 62
     7
370
    15
100
AcDbCircle
 10
3040.129933747
 20
1319.1304414975
 30
0.0
 40
4.500000000000455
100
AcDbArc
 50
180.0
 51
0.0
  0
LINE
  5
16A
330
1F
100
AcDbEntity
  8
0
  6
Continuous
 62
     7
370
    15
100
AcDbLine
 10
3044.6299356543
 20
1350.1304149492
 30
0.0
 11
3044.6299356543
 21
1319.130456434
 31
0.0
  0
ARC
  5
16B
330
1F
100
AcDbEntity
  8
0
  6
Continuous
 62
     7
370
    15
100
AcDbCircle
 10
3040.129933747
 20
1350.1304414975
 30
0.0
 40
4.500000000000455
100
AcDbArc
 50
0.0
 51
180.0
  0
LINE
  5
16C
330
1F
100
AcDbEntity
  8
0
  6
Continuous
 62
     7
370
    15
100
AcDbLine
 10
3035.6299919211
 20
1969.1304419054
 30
0.0
 11
3035.6299919211
 21
2000.1304432614
 31
0.0
  0
ARC
  5
16D
330
1F
100
AcDbEntity
  8
0
  6
Continuous
 62
     7
370
    15
100
AcDbCircle
 10
3040.129933747
 20
1969.1304414975
 30
0.0
 40
4.500000000000455
100
AcDbArc
 50
180.0
 51
0.0
  0
LINE
  5
16E
330
1F
100
AcDbEntity
  8
0
  6
Continuous
 62
     7
370
    15
100
AcDbLine
 10
3044.6299356543
 20
2000.1304432614
 30
0.0
 11
3044.6299356543
 21
1969.1304419054
 31
0.0
  0
ARC
  5
16F
330
1F
100
AcDbEntity
  8
0
  6
Continuous
 62
     7
370
    15
100
AcDbCircle
 10
3040.129933747
 20
2000.1304414975
 30
0.0
 40
4.500000000000455
100
AcDbArc
 50
0.0
 51
180.0
  0
ARC
  5
170
330
1F
100
AcDbEntity
  8
0
  6
Continuous
 62
     7
370
    15
100
AcDbCircle
 10
2480.129933747
 20
1350.1304414975
 30
0.0
 40
4.5
100
AcDbArc
 50
0.0
 51
180.0
  0
LINE
  5
171
330
1F
100
AcDbEntity
  8
0
  6
Continuous
 62
     7
370
    15
100
AcDbLine
 10
2475.6299299323
 20
1319.130456434
 30
0.0
 11
2475.6299299323
 21
1350.1304149492
 31
0.0
  0
ARC
  5
172
330
1F
100
AcDbEntity
  8
0
  6
Continuous
 62
     7
370
    15
100
AcDbCircle
 10
2480.129933747
 20
1319.1304414975
 30
0.0
 40
4.5
100
AcDbArc
 50
180.0
 51
360.0
  0
LINE
  5
173
330
1F
100
AcDbEntity
  8
0
  6
Continuous
 62
     7
370
    15
100
AcDbLine
 10
2484.6299332701
 20
1350.1304149492
 30
0.0
 11
2484.6299332701
 21
1319.130456434
 31
0.0
  0
ARC
  5
174
330
1F
100
AcDbEntity
  8
0
  6
Continuous
 62
     7
370
    15
100
AcDbCircle
 10
2480.129933747
 20
2650.1304414975
 30
0.0
 40
4.5
100
AcDbArc
 50
0.0
 51
180.0
  0
LINE
  5
175
330
1F
100
AcDbEntity
  8
0
  6
Continuous
 62
     7
370
    15
100
AcDbLine
 10
2475.6299299323
 20
2619.1304683549
 30
0.0
 11
2475.6299299323
 21
2650.1304268701
 31
0.0
  0
ARC
  5
176
330
1F
100
AcDbEntity
  8
0
  6
Continuous
 62
     7
370
    15
100
AcDbCircle
 10
2480.129933747
 20
2619.1304414975
 30
0.0
 40
4.5
100
AcDbArc
 50
180.0
 51
0.0
  0
LINE
  5
177
330
1F
100
AcDbEntity
  8
0
  6
Continuous
 62
     7
370
    15
100
AcDbLine
 10
2484.6299332701
 20
2650.1304268701
 30
0.0
 11
2484.6299332701
 21
2619.1304683549
 31
0.0
  0
ARC
  5
178
330
1F
100
AcDbEntity
  8
0
  6
Continuous
 62
     7
370
    15
100
AcDbCircle
 10
2480.129933747
 20
2000.1304414975
 30
0.0
 40
4.5
100
AcDbArc
 50
0.0
 51
180.0
  0
LINE
  5
179
330
1F
100
AcDbEntity
  8
0
  6
Continuous
 62
     7
370
    15
100
AcDbLine
 10
2475.6299299323
 20
1969.1304419054
 30
0.0
 11
2475.6299299323
 21
2000.1304432614
 31
0.0
  0
ARC
  5
17A
330
1F
100
AcDbEntity
  8
0
  6
Continuous
 62
     7
370
    15
100
AcDbCircle
 10
2480.129933747
 20
1969.1304414975
 30
0.0
 40
4.5
100
AcDbArc
 50
180.0
 51
0.0
  0
LINE
  5
17B
330
1F
100
AcDbEntity
  8
0
  6
Continuous
 62
     7
370
    15
100
AcDbLine
 10
2484.6299332701
 20
2000.1304432614
 30
0.0
 11
2484.6299332701
 21
1969.1304419054
 31
0.0
  0
LINE
  5
17C
330
1F
100
AcDbEntity
  8
0
  6
Continuous
 62
     7
370
    15
100
AcDbLine
 10
3020.1299232566
 20
1044.6304440362
 30
0.0
 11
3000.1299423301
 21
1044.6304440362
 31
0.0
  0
LINE
  5
17D
330
1F
100
AcDbEntity
  8
0
  6
Continuous
 62
     7
370
    15
100
AcDbLine
 10
3020.1299232566
 20
1631.130433069
 30
0.0
 11
3020.1299232566
 21
1044.6304440362
 31
0.0
  0
LINE
  5
17E
330
1F
100
AcDbEntity
  8
0
  6
Continuous
 62
     7
370
    15
100
AcDbLine
 10
2500.1299423301
 20
1631.130433069
 30
0.0
 11
3020.1299232566
 21
1631.130433069
 31
0.0
  0
LINE
  5
17F
330
1F
100
AcDbEntity
  8
0
  6
Continuous
 62
     7
370
    15
100
AcDbLine
 10
2500.1299423301
 20
1044.6304440362
 30
0.0
 11
2500.1299423301
 21
1631.130433069
 31
0.0
  0
LINE
  5
180
330
1F
100
AcDbEntity
  8
0
  6
Continuous
 62
     7
370
    15
100
AcDbLine
 10
2520.1299232566
 20
1044.6304440362
 30
0.0
 11
2500.1299423301
 21
1044.6304440362
 31
0.0
  0
LINE
  5
181
330
1F
100
AcDbEntity
  8
0
  6
Continuous
 62
     7
370
    15
100
AcDbLine
 10
2520.1299232566
 20
1042.6304697854
 30
0.0
 11
2520.1299232566
 21
1044.6304440362
 31
0.0
  0
LINE
  5
182
330
1F
100
AcDbEntity
  8
0
  6
Continuous
 62
     7
370
    15
100
AcDbLine
 10
2500.1299423301
 20
1042.6304697854
 30
0.0
 11
2520.1299232566
 21
1042.6304697854
 31
0.0
  0
LINE
  5
183
330
1F
100
AcDbEntity
  8
0
  6
Continuous
 62
     7
370
    15
100
AcDbLine
 10
2500.1299423301
 20
986.6304159028
 30
0.0
 11
2500.1299423301
 21
1042.6304697854
 31
0.0
  0
LINE
  5
184
330
1F
100
AcDbEntity
  8
0
  6
Continuous
 62
     7
370
    15
100
AcDbLine
 10
3020.1299232566
 20
986.6304159028
 30
0.0
 11
2500.1299423301
 21
986.6304159028
 31
0.0
  0
LINE
  5
185
330
1F
100
AcDbEntity
  8
0
  6
Continuous
 62
     7
370
    15
100
AcDbLine
 10
3020.1299232566
 20
1042.6304697854
 30
0.0
 11
3020.1299232566
 21
986.6304159028
 31
0.0
  0
LINE
  5
186
330
1F
100
AcDbEntity
  8
0
  6
Continuous
 62
     7
370
    15
100
AcDbLine
 10
3000.1299423301
 20
1042.6304697854
 30
0.0
 11
3020.1299232566
 21
1042.6304697854
 31
0.0
  0
LINE
  5
187
330
1F
100
AcDbEntity
  8
0
  6
Continuous
 62
     7
370
    15
100
AcDbLine
 10
3000.1299423301
 20
1044.6304440362
 30
0.0
 11
3000.1299423301
 21
1042.6304697854
 31
0.0
  0
LINE
  5
188
330
1F
100
AcDbEntity
  8
0
  6
Continuous
 62
     7
370
    15
100
AcDbLine
 10
2520.1299232566
 20
2280.130451904
 30
0.0
 11
2500.1299423301
 21
2280.130451904
 31
0.0
  0
LINE
  5
189
330
1F
100
AcDbEntity
  8
0
  6
Continuous
 62
     7
370
    15
100
AcDbLine
 10
2520.1299232566
 20
2278.1304478509
 30
0.0
 11
2520.1299232566
 21
2280.130451904
 31
0.0
  0
LINE
  5
18A
330
1F
100
AcDbEntity
  8
0
  6
Continuous
 62
     7
370
    15
100
AcDbLine
 10
2500.1299423301
 20
2278.1304478509
 30
0.0
 11
2520.1299232566
 21
2278.1304478509
 31
0.0
  0
LINE
  5
18B
330
1F
100
AcDbEntity
  8
0
  6
Continuous
 62
     7
370
    15
100
AcDbLine
 10
2500.1299423301
 20
1691.1304354532
 30
0.0
 11
2500.1299423301
 21
2278.1304478509
 31
0.0
  0
LINE
  5
18C
330
1F
100
AcDbEntity
  8
0
  6
Continuous
 62
     7
370
    15
100
AcDbLine
 10
2520.1299232566
 20
1691.1304354532
 30
0.0
 11
2500.1299423301
 21
1691.1304354532
 31
0.0
  0
LINE
  5
18D
330
1F
100
AcDbEntity
  8
0
  6
Continuous
 62
     7
370
    15
100
AcDbLine
 10
2520.1299232566
 20
1689.1304314
 30
0.0
 11
2520.1299232566
 21
1691.1304354532
 31
0.0
  0
LINE
  5
18E
330
1F
100
AcDbEntity
  8
0
  6
Continuous
 62
     7
370
    15
100
AcDbLine
 10
2500.1299423301
 20
1689.1304314
 30
0.0
 11
2520.1299232566
 21
1689.1304314
 31
0.0
  0
LINE
  5
18F
330
1F
100
AcDbEntity
  8
0
  6
Continuous
 62
     7
370
    15
100
AcDbLine
 10
2500.1299423301
 20
1633.1304371221
 30
0.0
 11
2500.1299423301
 21
1689.1304314
 31
0.0
  0
LINE
  5
190
330
1F
100
AcDbEntity
  8
0
  6
Continuous
 62
     7
370
    15
100
AcDbLine
 10
3020.1299232566
 20
1633.1304371221
 30
0.0
 11
2500.1299423301
 21
1633.1304371221
 31
0.0
  0
LINE
  5
191
330
1F
100
AcDbEntity
  8
0
  6
Continuous
 62
     7
370
    15
100
AcDbLine
 10
3020.1299232566
 20
1689.1304314
 30
0.0
 11
3020.1299232566
 21
1633.1304371221
 31
0.0
  0
LINE
  5
192
330
1F
100
AcDbEntity
  8
0
  6
Continuous
 62
     7
370
    15
100
AcDbLine
 10
3000.1299423301
 20
1689.1304314
 30
0.0
 11
3020.1299232566
 21
1689.1304314
 31
0.0
  0
LINE
  5
193
330
1F
100
AcDbEntity
  8
0
  6
Continuous
 62
     7
370
    15
100
AcDbLine
 10
3000.1299423301
 20
1691.1304354532
 30
0.0
 11
3000.1299423301
 21
1689.1304314
 31
0.0
  0
LINE
  5
194
330
1F
100
AcDbEntity
  8
0
  6
Continuous
 62
     7
370
    15
100
AcDbLine
 10
3020.1299232566
 20
1691.1304354532
 30
0.0
 11
3000.1299423301
 21
1691.1304354532
 31
0.0
  0
LINE
  5
195
330
1F
100
AcDbEntity
  8
0
  6
Continuous
 62
     7
370
    15
100
AcDbLine
 10
3020.1299232566
 20
2278.1304478509
 30
0.0
 11
3020.1299232566
 21
1691.1304354532
 31
0.0
  0
LINE
  5
196
330
1F
100
AcDbEntity
  8
0
  6
Continuous
 62
     7
370
    15
100
AcDbLine
 10
3000.1299423301
 20
2278.1304478509
 30
0.0
 11
3020.1299232566
 21
2278.1304478509
 31
0.0
  0
LINE
  5
197
330
1F
100
AcDbEntity
  8
0
  6
Continuous
 62
     7
370
    15
100
AcDbLine
 10
3000.1299423301
 20
2280.130451904
 30
0.0
 11
3000.1299423301
 21
2278.1304478509
 31
0.0
  0
LINE
  5
198
330
1F
100
AcDbEntity
  8
0
  6
Continuous
 62
     7
370
    15
100
AcDbLine
 10
3020.1299232566
 20
2280.130451904
 30
0.0
 11
3000.1299423301
 21
2280.130451904
 31
0.0
  0
LINE
  5
199
330
1F
100
AcDbEntity
  8
0
  6
Continuous
 62
     7
370
    15
100
AcDbLine
 10
3020.1299232566
 20
2336.130446182
 30
0.0
 11
3020.1299232566
 21
2280.130451904
 31
0.0
  0
LINE
  5
19A
330
1F
100
AcDbEntity
  8
0
  6
Continuous
 62
     7
370
    15
100
AcDbLine
 10
2500.1299423301
 20
2336.130446182
 30
0.0
 11
3020.1299232566
 21
2336.130446182
 31
0.0
  0
LINE
  5
19B
330
1F
100
AcDbEntity
  8
0
  6
Continuous
 62
     7
370
    15
100
AcDbLine
 10
2500.1299423301
 20
2280.130451904
 30
0.0
 11
2500.1299423301
 21
2336.130446182
 31
0.0
  0
LINE
  5
19C
330
1F
100
AcDbEntity
  8
0
  6
Continuous
 62
     7
370
    15
100
AcDbLine
 10
2520.1299232566
 20
2926.6304135186
 30
0.0
 11
2500.1299423301
 21
2926.6304135186
 31
0.0
  0
LINE
  5
19D
330
1F
100
AcDbEntity
  8
0
  6
Continuous
 62
     7
370
    15
100
AcDbLine
 10
2520.1299232566
 20
2924.6304392679
 30
0.0
 11
2520.1299232566
 21
2926.6304135186
 31
0.0
  0
LINE
  5
19E
330
1F
100
AcDbEntity
  8
0
  6
Continuous
 62
     7
370
    15
100
AcDbLine
 10
2500.1299423301
 20
2924.6304392679
 30
0.0
 11
2520.1299232566
 21
2924.6304392679
 31
0.0
  0
LINE
  5
19F
330
1F
100
AcDbEntity
  8
0
  6
Continuous
 62
     7
370
    15
100
AcDbLine
 10
2500.1299423301
 20
2338.1304502351
 30
0.0
 11
2500.1299423301
 21
2924.6304392679
 31
0.0
  0
LINE
  5
1A0
330
1F
100
AcDbEntity
  8
0
  6
Continuous
 62
     7
370
    15
100
AcDbLine
 10
3020.1299232566
 20
2338.1304502351
 30
0.0
 11
2500.1299423301
 21
2338.1304502351
 31
0.0
  0
LINE
  5
1A1
330
1F
100
AcDbEntity
  8
0
  6
Continuous
 62
     7
370
    15
100
AcDbLine
 10
3020.1299232566
 20
2924.6304392679
 30
0.0
 11
3020.1299232566
 21
2338.1304502351
 31
0.0
  0
LINE
  5
1A2
330
1F
100
AcDbEntity
  8
0
  6
Continuous
 62
     7
370
    15
100
AcDbLine
 10
3000.1299423301
 20
2924.6304392679
 30
0.0
 11
3020.1299232566
 21
2924.6304392679
 31
0.0
  0
LINE
  5
1A3
330
1F
100
AcDbEntity
  8
0
  6
Continuous
 62
     7
370
    15
100
AcDbLine
 10
3000.1299423301
 20
2926.6304135186
 30
0.0
 11
3000.1299423301
 21
2924.6304392679
 31
0.0
  0
LINE
  5
1A4
330
1F
100
AcDbEntity
  8
0
  6
Continuous
 62
     7
370
    15
100
AcDbLine
 10
3020.1299232566
 20
2926.6304135186
 30
0.0
 11
3000.1299423301
 21
2926.6304135186
 31
0.0
  0
LINE
  5
1A5
330
1F
100
AcDbEntity
  8
0
  6
Continuous
 62
     7
370
    15
100
AcDbLine
 10
3020.1299232566
 20
2982.6304077966
 30
0.0
 11
3020.1299232566
 21
2926.6304135186
 31
0.0
  0
LINE
  5
1A6
330
1F
100
AcDbEntity
  8
0
  6
Continuous
 62
     7
370
    15
100
AcDbLine
 10
2500.1299423301
 20
2982.6304077966
 30
0.0
 11
3020.1299232566
 21
2982.6304077966
 31
0.0
  0
LINE
  5
1A7
330
1F
100
AcDbEntity
  8
0
  6
Continuous
 62
     7
370
    15
100
AcDbLine
 10
2500.1299423301
 20
2926.6304135186
 30
0.0
 11
2500.1299423301
 21
2982.6304077966
 31
0.0
  0
LINE
  5
1A8
330
1F
100
AcDbEntity
  8
0
  6
Continuous
 62
     7
370
    15
100
AcDbLine
 10
2540.1299041831
 20
2924.6304392679
 30
0.0
 11
2540.1299041831
 21
2926.6304135186
 31
0.0
  0
LINE
  5
1A9
330
1F
100
AcDbEntity
  8
0
  6
Continuous
 62
     7
370
    15
100
AcDbLine
 10
2520.1299232566
 20
2926.6304135186
 30
0.0
 11
2540.1299041831
 21
2926.6304135186
 31
0.0
  0
LINE
  5
1AA
330
1F
100
AcDbEntity
  8
0
  6
Continuous
 62
     7
370
    15
100
AcDbLine
 10
2520.1299232566
 20
2924.6304392679
 30
0.0
 11
2540.1299041831
 21
2924.6304392679
 31
0.0
  0
LINE
  5
1AB
330
1F
100
AcDbEntity
  8
0
  6
Continuous
 62
     7
370
    15
100
AcDbLine
 10
2980.1299614035
 20
2926.6304135186
 30
0.0
 11
2980.1299614035
 21
2924.6304392679
 31
0.0
  0
LINE
  5
1AC
330
1F
100
AcDbEntity
  8
0
  6
Continuous
 62
     7
370
    15
100
AcDbLine
 10
2980.1299614035
 20
2926.6304135186
 30
0.0
 11
3000.1299423301
 21
2926.6304135186
 31
0.0
  0
LINE
  5
1AD
330
1F
100
AcDbEntity
  8
0
  6
Continuous
 62
     7
370
    15
100
AcDbLine
 10
2980.1299614035
 20
2924.6304392679
 30
0.0
 11
3000.1299423301
 21
2924.6304392679
 31
0.0
  0
LINE
  5
1AE
330
1F
100
AcDbEntity
  8
0
  6
Continuous
 62
     7
370
    15
100
AcDbLine
 10
2540.1299041831
 20
1042.6304697854
 30
0.0
 11
2540.1299041831
 21
1044.6304440362
 31
0.0
  0
LINE
  5
1AF
330
1F
100
AcDbEntity
  8
0
  6
Continuous
 62
     7
370
    15
100
AcDbLine
 10
2540.1299041831
 20
1042.6304697854
 30
0.0
 11
2520.1299232566
 21
1042.6304697854
 31
0.0
  0
LINE
  5
1B0
330
1F
100
AcDbEntity
  8
0
  6
Continuous
 62
     7
370
    15
100
AcDbLine
 10
2540.1299041831
 20
1044.6304440362
 30
0.0
 11
2520.1299232566
 21
1044.6304440362
 31
0.0
  0
LINE
  5
1B1
330
1F
100
AcDbEntity
  8
0
  6
Continuous
 62
     7
370
    15
100
AcDbLine
 10
2540.1299041831
 20
1689.1304314
 30
0.0
 11
2540.1299041831
 21
1691.1304354532
 31
0.0
  0
LINE
  5
1B2
330
1F
100
AcDbEntity
  8
0
  6
Continuous
 62
     7
370
    15
100
AcDbLine
 10
2520.1299232566
 20
1689.1304314
 30
0.0
 11
2540.1299041831
 21
1689.1304314
 31
0.0
  0
LINE
  5
1B3
330
1F
100
AcDbEntity
  8
0
  6
Continuous
 62
     7
370
    15
100
AcDbLine
 10
2540.1299041831
 20
1691.1304354532
 30
0.0
 11
2520.1299232566
 21
1691.1304354532
 31
0.0
  0
LINE
  5
1B4
330
1F
100
AcDbEntity
  8
0
  6
Continuous
 62
     7
370
    15
100
AcDbLine
 10
2980.1299614035
 20
1044.6304440362
 30
0.0
 11
2980.1299614035
 21
1042.6304697854
 31
0.0
  0
LINE
  5
1B5
330
1F
100
AcDbEntity
  8
0
  6
Continuous
 62
     7
370
    15
100
AcDbLine
 10
3000.1299423301
 20
1042.6304697854
 30
0.0
 11
2980.1299614035
 21
1042.6304697854
 31
0.0
  0
LINE
  5
1B6
330
1F
100
AcDbEntity
  8
0
  6
Continuous
 62
     7
370
    15
100
AcDbLine
 10
3000.1299423301
 20
1044.6304440362
 30
0.0
 11
2980.1299614035
 21
1044.6304440362
 31
0.0
  0
LINE
  5
1B7
330
1F
100
AcDbEntity
  8
0
  6
Continuous
 62
     7
370
    15
100
AcDbLine
 10
2980.1299614035
 20
1691.1304354532
 30
0.0
 11
2980.1299614035
 21
1689.1304314
 31
0.0
  0
LINE
  5
1B8
330
1F
100
AcDbEntity
  8
0
  6
Continuous
 62
     7
370
    15
100
AcDbLine
 10
3000.1299423301
 20
1689.1304314
 30
0.0
 11
2980.1299614035
 21
1689.1304314
 31
0.0
  0
LINE
  5
1B9
330
1F
100
AcDbEntity
  8
0
  6
Continuous
 62
     7
370
    15
100
AcDbLine
 10
3000.1299423301
 20
1691.1304354532
 30
0.0
 11
2980.1299614035
 21
1691.1304354532
 31
0.0
  0
LINE
  5
1BA
330
1F
100
AcDbEntity
  8
0
  6
Continuous
 62
     7
370
    15
100
AcDbLine
 10
2540.1299041831
 20
2278.1304478509
 30
0.0
 11
2540.1299041831
 21
2280.130451904
 31
0.0
  0
LINE
  5
1BB
330
1F
100
AcDbEntity
  8
0
  6
Continuous
 62
     7
370
    15
100
AcDbLine
 10
2520.1299232566
 20
2280.130451904
 30
0.0
 11
2540.1299041831
 21
2280.130451904
 31
0.0
  0
LINE
  5
1BC
330
1F
100
AcDbEntity
  8
0
  6
Continuous
 62
     7
370
    15
100
AcDbLine
 10
2520.1299232566
 20
2278.1304478509
 30
0.0
 11
2540.1299041831
 21
2278.1304478509
 31
0.0
  0
LINE
  5
1BD
330
1F
100
AcDbEntity
  8
0
  6
Continuous
 62
     7
370
    15
100
AcDbLine
 10
2980.1299614035
 20
2280.130451904
 30
0.0
 11
2980.1299614035
 21
2278.1304478509
 31
0.0
  0
LINE
  5
1BE
330
1F
100
AcDbEntity
  8
0
  6
Continuous
 62
     7
370
    15
100
AcDbLine
 10
2980.1299614035
 20
2280.130451904
 30
0.0
 11
3000.1299423301
 21
2280.130451904
 31
0.0
  0
LINE
  5
1BF
330
1F
100
AcDbEntity
  8
0
  6
Continuous
 62
     7
370
    15
100
AcDbLine
 10
2980.1299614035
 20
2278.1304478509
 30
0.0
 11
3000.1299423301
 21
2278.1304478509
 31
0.0
  0
LINE
  5
1C0
330
1F
100
AcDbEntity
  8
0
  6
Continuous
 62
     7
370
    15
100
AcDbLine
 10
2540.1299041831
 20
2926.6304135186
 30
0.0
 11
2980.1299614035
 21
2926.6304135186
 31
0.0
  0
LINE
  5
1C1
330
1F
100
AcDbEntity
  8
0
  6
Continuous
 62
     7
370
    15
100
AcDbLine
 10
2540.1299041831
 20
2924.6304392679
 30
0.0
 11
2980.1299614035
 21
2924.6304392679
 31
0.0
  0
LINE
  5
1C2
330
1F
100
AcDbEntity
  8
0
  6
Continuous
 62
     7
370
    15
100
AcDbLine
 10
2980.1299614035
 20
1689.1304314
 30
0.0
 11
2540.1299041831
 21
1689.1304314
 31
0.0
  0
LINE
  5
1C3
330
1F
100
AcDbEntity
  8
0
  6
Continuous
 62
     7
370
    15
100
AcDbLine
 10
2980.1299614035
 20
1691.1304354532
 30
0.0
 11
2540.1299041831
 21
1691.1304354532
 31
0.0
  0
LINE
  5
1C4
330
1F
100
AcDbEntity
  8
0
  6
Continuous
 62
     7
370
    15
100
AcDbLine
 10
2980.1299614035
 20
1042.6304697854
 30
0.0
 11
2540.1299041831
 21
1042.6304697854
 31
0.0
  0
LINE
  5
1C5
330
1F
100
AcDbEntity
  8
0
  6
Continuous
 62
     7
370
    15
100
AcDbLine
 10
2980.1299614035
 20
1044.6304440362
 30
0.0
 11
2540.1299041831
 21
1044.6304440362
 31
0.0
  0
LINE
  5
1C6
330
1F
100
AcDbEntity
  8
0
  6
Continuous
 62
     7
370
    15
100
AcDbLine
 10
2540.1299041831
 20
2280.130451904
 30
0.0
 11
2980.1299614035
 21
2280.130451904
 31
0.0
  0
LINE
  5
1C7
330
1F
100
AcDbEntity
  8
0
  6
Continuous
 62
     7
370
    15
100
AcDbLine
 10
2540.1299041831
 20
2278.1304478509
 30
0.0
 11
2980.1299614035
 21
2278.1304478509
 31
0.0
  0
LINE
  5
1C8
330
1F
100
AcDbEntity
  8
0
  6
Continuous
 62
     7
370
    15
100
AcDbLine
 10
2969.6298879706
 20
2945.6304669244
 30
0.0
 11
3000.6299060904
 21
2945.6304669244
 31
0.0
  0
ARC
  5
1C9
330
1F
100
AcDbEntity
  8
0
  6
Continuous
 62
     7
370
    15
100
AcDbCircle
 10
2969.629933747
 20
2941.1304414976
 30
0.0
 40
4.5
100
AcDbArc
 50
90.0
 51
270.0
  0
LINE
  5
1CA
330
1F
100
AcDbEntity
  8
0
  6
Continuous
 62
     7
370
    15
100
AcDbLine
 10
3000.6299060904
 20
2936.6304635865
 30
0.0
 11
2969.6298879706
 21
2936.6304635865
 31
0.0
  0
ARC
  5
1CB
330
1F
100
AcDbEntity
  8
0
  6
Continuous
 62
     7
370
    15
100
AcDbCircle
 10
3000.629933747
 20
2941.1304414976
 30
0.0
 40
4.500000000000455
100
AcDbArc
 50
270.0
 51
90.0
  0
LINE
  5
1CC
330
1F
100
AcDbEntity
  8
0
  6
Continuous
 62
     7
370
    15
100
AcDbLine
 10
2969.6298879706
 20
2972.6304173333
 30
0.0
 11
3000.6299060904
 21
2972.6304173333
 31
0.0
  0
ARC
  5
1CD
330
1F
100
AcDbEntity
  8
0
  6
Continuous
 62
     7
370
    15
100
AcDbCircle
 10
2969.629933747
 20
2968.1304414976
 30
0.0
 40
4.500000000000455
100
AcDbArc
 50
90.0
 51
270.0
  0
LINE
  5
1CE
330
1F
100
AcDbEntity
  8
0
  6
Continuous
 62
     7
370
    15
100
AcDbLine
 10
3000.6299060904
 20
2963.6304736001
 30
0.0
 11
2969.6298879706
 21
2963.6304736001
 31
0.0
  0
ARC
  5
1CF
330
1F
100
AcDbEntity
  8
0
  6
Continuous
 62
     7
370
    15
100
AcDbCircle
 10
3000.629933747
 20
2968.1304414976
 30
0.0
 40
4.500000000000909
100
AcDbArc
 50
270.0
 51
90.0
  0
LINE
  5
1D0
330
1F
100
AcDbEntity
  8
0
  6
Continuous
 62
     7
370
    15
100
AcDbLine
 10
2919.6299356543
 20
2945.6304669244
 30
0.0
 11
2950.6299537741
 21
2945.6304669244
 31
0.0
  0
ARC
  5
1D1
330
1F
100
AcDbEntity
  8
0
  6
Continuous
 62
     7
370
    15
100
AcDbCircle
 10
2919.629933747
 20
2941.1304414976
 30
0.0
 40
4.500000000000455
100
AcDbArc
 50
90.0
 51
270.0
  0
LINE
  5
1D2
330
1F
100
AcDbEntity
  8
0
  6
Continuous
 62
     7
370
    15
100
AcDbLine
 10
2950.6299537741
 20
2936.6304635865
 30
0.0
 11
2919.6299356543
 21
2936.6304635865
 31
0.0
  0
ARC
  5
1D3
330
1F
100
AcDbEntity
  8
0
  6
Continuous
 62
     7
370
    15
100
AcDbCircle
 10
2950.629933747
 20
2941.1304414976
 30
0.0
 40
4.500000000000909
100
AcDbArc
 50
270.0
 51
90.0
  0
LINE
  5
1D4
330
1F
100
AcDbEntity
  8
0
  6
Continuous
 62
     7
370
    15
100
AcDbLine
 10
2919.6299356543
 20
2972.6304173333
 30
0.0
 11
2950.6299537741
 21
2972.6304173333
 31
0.0
  0
ARC
  5
1D5
330
1F
100
AcDbEntity
  8
0
  6
Continuous
 62
     7
370
    15
100
AcDbCircle
 10
2919.629933747
 20
2968.1304414976
 30
0.0
 40
4.500000000000455
100
AcDbArc
 50
90.0
 51
270.0
  0
LINE
  5
1D6
330
1F
100
AcDbEntity
  8
0
  6
Continuous
 62
     7
370
    15
100
AcDbLine
 10
2950.6299537741
 20
2963.6304736001
 30
0.0
 11
2919.6299356543
 21
2963.6304736001
 31
0.0
  0
ARC
  5
1D7
330
1F
100
AcDbEntity
  8
0
  6
Continuous
 62
     7
370
    15
100
AcDbCircle
 10
2950.629933747
 20
2968.1304414976
 30
0.0
 40
4.500000000001364
100
AcDbArc
 50
270.0
 51
90.0
  0
LINE
  5
1D8
330
1F
100
AcDbEntity
  8
0
  6
Continuous
 62
     7
370
    15
100
AcDbLine
 10
2869.629983338
 20
2945.6304669244
 30
0.0
 11
2900.6298822486
 21
2945.6304669244
 31
0.0
  0
ARC
  5
1D9
330
1F
100
AcDbEntity
  8
0
  6
Continuous
 62
     7
370
    15
100
AcDbCircle
 10
2869.629933747
 20
2941.1304414976
 30
0.0
 40
4.500000000000455
100
AcDbArc
 50
90.0
 51
270.0
  0
LINE
  5
1DA
330
1F
100
AcDbEntity
  8
0
  6
Continuous
 62
     7
370
    15
100
AcDbLine
 10
2900.6298822486
 20
2936.6304635865
 30
0.0
 11
2869.629983338
 21
2936.6304635865
 31
0.0
  0
ARC
  5
1DB
330
1F
100
AcDbEntity
  8
0
  6
Continuous
 62
     7
370
    15
100
AcDbCircle
 10
2900.629933747
 20
2941.1304414976
 30
0.0
 40
4.500000000000455
100
AcDbArc
 50
270.0
 51
90.0
  0
LINE
  5
1DC
330
1F
100
AcDbEntity
  8
0
  6
Continuous
 62
     7
370
    15
100
AcDbLine
 10
2869.629983338
 20
2972.6304173333
 30
0.0
 11
2900.6298822486
 21
2972.6304173333
 31
0.0
  0
ARC
  5
1DD
330
1F
100
AcDbEntity
  8
0
  6
Continuous
 62
     7
370
    15
100
AcDbCircle
 10
2869.629933747
 20
2968.1304414976
 30
0.0
 40
4.500000000000455
100
AcDbArc
 50
90.0
 51
270.0
  0
LINE
  5
1DE
330
1F
100
AcDbEntity
  8
0
  6
Continuous
 62
     7
370
    15
100
AcDbLine
 10
2900.6298822486
 20
2963.6304736001
 30
0.0
 11
2869.629983338
 21
2963.6304736001
 31
0.0
  0
ARC
  5
1DF
330
1F
100
AcDbEntity
  8
0
  6
Continuous
 62
     7
370
    15
100
AcDbCircle
 10
2900.629933747
 20
2968.1304414976
 30
0.0
 40
4.500000000000909
100
AcDbArc
 50
270.0
 51
90.0
  0
LINE
  5
1E0
330
1F
100
AcDbEntity
  8
0
  6
Continuous
 62
     7
370
    15
100
AcDbLine
 10
2819.6299118125
 20
2945.6304669244
 30
0.0
 11
2850.6299299323
 21
2945.6304669244
 31
0.0
  0
ARC
  5
1E1
330
1F
100
AcDbEntity
  8
0
  6
Continuous
 62
     7
370
    15
100
AcDbCircle
 10
2819.629933747
 20
2941.1304414976
 30
0.0
 40
4.500000000000455
100
AcDbArc
 50
90.0
 51
270.0
  0
LINE
  5
1E2
330
1F
100
AcDbEntity
  8
0
  6
Continuous
 62
     7
370
    15
100
AcDbLine
 10
2850.6299299323
 20
2936.6304635865
 30
0.0
 11
2819.6299118125
 21
2936.6304635865
 31
0.0
  0
ARC
  5
1E3
330
1F
100
AcDbEntity
  8
0
  6
Continuous
 62
     7
370
    15
100
AcDbCircle
 10
2850.629933747
 20
2941.1304414976
 30
0.0
 40
4.500000000000455
100
AcDbArc
 50
270.0
 51
90.0
  0
LINE
  5
1E4
330
1F
100
AcDbEntity
  8
0
  6
Continuous
 62
     7
370
    15
100
AcDbLine
 10
2819.6299118125
 20
2972.6304173333
 30
0.0
 11
2850.6299299323
 21
2972.6304173333
 31
0.0
  0
ARC
  5
1E5
330
1F
100
AcDbEntity
  8
0
  6
Continuous
 62
     7
370
    15
100
AcDbCircle
 10
2819.629933747
 20
2968.1304414976
 30
0.0
 40
4.500000000000455
100
AcDbArc
 50
90.0
 51
270.0
  0
LINE
  5
1E6
330
1F
100
AcDbEntity
  8
0
  6
Continuous
 62
     7
370
    15
100
AcDbLine
 10
2850.6299299323
 20
2963.6304736001
 30
0.0
 11
2819.6299118125
 21
2963.6304736001
 31
0.0
  0
ARC
  5
1E7
330
1F
100
AcDbEntity
  8
0
  6
Continuous
 62
     7
370
    15
100
AcDbCircle
 10
2850.629933747
 20
2968.1304414976
 30
0.0
 40
4.500000000000909
100
AcDbArc
 50
270.0
 51
90.0
  0
LINE
  5
1E8
330
1F
100
AcDbEntity
  8
0
  6
Continuous
 62
     7
370
    15
100
AcDbLine
 10
2669.6299356543
 20
2945.6304669244
 30
0.0
 11
2700.6299537741
 21
2945.6304669244
 31
0.0
  0
ARC
  5
1E9
330
1F
100
AcDbEntity
  8
0
  6
Continuous
 62
     7
370
    15
100
AcDbCircle
 10
2669.629933747
 20
2941.1304414976
 30
0.0
 40
4.500000000000455
100
AcDbArc
 50
90.0
 51
270.0
  0
LINE
  5
1EA
330
1F
100
AcDbEntity
  8
0
  6
Continuous
 62
     7
370
    15
100
AcDbLine
 10
2700.6299537741
 20
2936.6304635865
 30
0.0
 11
2669.6299356543
 21
2936.6304635865
 31
0.0
  0
ARC
  5
1EB
330
1F
100
AcDbEntity
  8
0
  6
Continuous
 62
     7
370
    15
100
AcDbCircle
 10
2700.629933747
 20
2941.1304414976
 30
0.0
 40
4.500000000000455
100
AcDbArc
 50
270.0
 51
90.0
  0
LINE
  5
1EC
330
1F
100
AcDbEntity
  8
0
  6
Continuous
 62
     7
370
    15
100
AcDbLine
 10
2669.6299356543
 20
2972.6304173333
 30
0.0
 11
2700.6299537741
 21
2972.6304173333
 31
0.0
  0
ARC
  5
1ED
330
1F
100
AcDbEntity
  8
0
  6
Continuous
 62
     7
370
    15
100
AcDbCircle
 10
2669.629933747
 20
2968.1304414976
 30
0.0
 40
4.500000000000455
100
AcDbArc
 50
90.0
 51
270.0
  0
LINE
  5
1EE
330
1F
100
AcDbEntity
  8
0
  6
Continuous
 62
     7
370
    15
100
AcDbLine
 10
2700.6299537741
 20
2963.6304736001
 30
0.0
 11
2669.6299356543
 21
2963.6304736001
 31
0.0
  0
ARC
  5
1EF
330
1F
100
AcDbEntity
  8
0
  6
Continuous
 62
     7
370
    15
100
AcDbCircle
 10
2700.629933747
 20
2968.1304414976
 30
0.0
 40
4.500000000001364
100
AcDbArc
 50
270.0
 51
90.0
  0
LINE
  5
1F0
330
1F
100
AcDbEntity
  8
0
  6
Continuous
 62
     7
370
    15
100
AcDbLine
 10
2619.629983338
 20
2945.6304669244
 30
0.0
 11
2650.6298822486
 21
2945.6304669244
 31
0.0
  0
ARC
  5
1F1
330
1F
100
AcDbEntity
  8
0
  6
Continuous
 62
     7
370
    15
100
AcDbCircle
 10
2619.629933747
 20
2941.1304414976
 30
0.0
 40
4.500000000000455
100
AcDbArc
 50
90.0
 51
270.0
  0
LINE
  5
1F2
330
1F
100
AcDbEntity
  8
0
  6
Continuous
 62
     7
370
    15
100
AcDbLine
 10
2650.6298822486
 20
2936.6304635865
 30
0.0
 11
2619.629983338
 21
2936.6304635865
 31
0.0
  0
ARC
  5
1F3
330
1F
100
AcDbEntity
  8
0
  6
Continuous
 62
     7
370
    15
100
AcDbCircle
 10
2650.629933747
 20
2941.1304414976
 30
0.0
 40
4.500000000000455
100
AcDbArc
 50
270.0
 51
90.0
  0
LINE
  5
1F4
330
1F
100
AcDbEntity
  8
0
  6
Continuous
 62
     7
370
    15
100
AcDbLine
 10
2619.629983338
 20
2972.6304173333
 30
0.0
 11
2650.6298822486
 21
2972.6304173333
 31
0.0
  0
ARC
  5
1F5
330
1F
100
AcDbEntity
  8
0
  6
Continuous
 62
     7
370
    15
100
AcDbCircle
 10
2619.629933747
 20
2968.1304414976
 30
0.0
 40
4.500000000000455
100
AcDbArc
 50
90.0
 51
270.0
  0
LINE
  5
1F6
330
1F
100
AcDbEntity
  8
0
  6
Continuous
 62
     7
370
    15
100
AcDbLine
 10
2650.6298822486
 20
2963.6304736001
 30
0.0
 11
2619.629983338
 21
2963.6304736001
 31
0.0
  0
ARC
  5
1F7
330
1F
100
AcDbEntity
  8
0
  6
Continuous
 62
     7
370
    15
100
AcDbCircle
 10
2650.629933747
 20
2968.1304414976
 30
0.0
 40
4.500000000000909
100
AcDbArc
 50
270.0
 51
90.0
  0
LINE
  5
1F8
330
1F
100
AcDbEntity
  8
0
  6
Continuous
 62
     7
370
    15
100
AcDbLine
 10
2569.6299118125
 20
2945.6304669244
 30
0.0
 11
2600.6299299323
 21
2945.6304669244
 31
0.0
  0
ARC
  5
1F9
330
1F
100
AcDbEntity
  8
0
  6
Continuous
 62
     7
370
    15
100
AcDbCircle
 10
2569.629933747
 20
2941.1304414976
 30
0.0
 40
4.500000000000455
100
AcDbArc
 50
90.0
 51
270.0
  0
LINE
  5
1FA
330
1F
100
AcDbEntity
  8
0
  6
Continuous
 62
     7
370
    15
100
AcDbLine
 10
2600.6299299323
 20
2936.6304635865
 30
0.0
 11
2569.6299118125
 21
2936.6304635865
 31
0.0
  0
ARC
  5
1FB
330
1F
100
AcDbEntity
  8
0
  6
Continuous
 62
     7
370
    15
100
AcDbCircle
 10
2600.629933747
 20
2941.1304414976
 30
0.0
 40
4.500000000000455
100
AcDbArc
 50
270.0
 51
90.0
  0
LINE
  5
1FC
330
1F
100
AcDbEntity
  8
0
  6
Continuous
 62
     7
370
    15
100
AcDbLine
 10
2519.6299594962
 20
2945.6304669244
 30
0.0
 11
2550.6299180114
 21
2945.6304669244
 31
0.0
  0
ARC
  5
1FD
330
1F
100
AcDbEntity
  8
0
  6
Continuous
 62
     7
370
    15
100
AcDbCircle
 10
2519.629933747
 20
2941.1304414976
 30
0.0
 40
4.5
100
AcDbArc
 50
90.0
 51
270.0
  0
LINE
  5
1FE
330
1F
100
AcDbEntity
  8
0
  6
Continuous
 62
     7
370
    15
100
AcDbLine
 10
2550.6299180114
 20
2936.6304635865
 30
0.0
 11
2519.6299594962
 21
2936.6304635865
 31
0.0
  0
ARC
  5
1FF
330
1F
100
AcDbEntity
  8
0
  6
Continuous
 62
     7
370
    15
100
AcDbCircle
 10
2550.629933747
 20
2941.1304414976
 30
0.0
 40
4.5
100
AcDbArc
 50
270.0
 51
90.0
  0
LINE
  5
200
330
1F
100
AcDbEntity
  8
0
  6
Continuous
 62
     7
370
    15
100
AcDbLine
 10
2550.6299180114
 20
2963.6304736001
 30
0.0
 11
2519.6299594962
 21
2963.6304736001
 31
0.0
  0
ARC
  5
201
330
1F
100
AcDbEntity
  8
0
  6
Continuous
 62
     7
370
    15
100
AcDbCircle
 10
2550.629933747
 20
2968.1304414976
 30
0.0
 40
4.500000000000909
100
AcDbArc
 50
270.0
 51
90.0
  0
LINE
  5
202
330
1F
100
AcDbEntity
  8
0
  6
Continuous
 62
     7
370
    15
100
AcDbLine
 10
2519.6299594962
 20
2972.6304173333
 30
0.0
 11
2550.6299180114
 21
2972.6304173333
 31
0.0
  0
ARC
  5
203
330
1F
100
AcDbEntity
  8
0
  6
Continuous
 62
     7
370
    15
100
AcDbCircle
 10
2519.629933747
 20
2968.1304414976
 30
0.0
 40
4.500000000000455
100
AcDbArc
 50
90.0
 51
270.0
  0
LINE
  5
204
330
1F
100
AcDbEntity
  8
0
  6
Continuous
 62
     7
370
    15
100
AcDbLine
 10
2569.6299118125
 20
2972.6304173333
 30
0.0
 11
2600.6299299323
 21
2972.6304173333
 31
0.0
  0
ARC
  5
205
330
1F
100
AcDbEntity
  8
0
  6
Continuous
 62
     7
370
    15
100
AcDbCircle
 10
2569.629933747
 20
2968.1304414976
 30
0.0
 40
4.500000000000455
100
AcDbArc
 50
90.0
 51
270.0
  0
LINE
  5
206
330
1F
100
AcDbEntity
  8
0
  6
Continuous
 62
     7
370
    15
100
AcDbLine
 10
2600.6299299323
 20
2963.6304736001
 30
0.0
 11
2569.6299118125
 21
2963.6304736001
 31
0.0
  0
ARC
  5
207
330
1F
100
AcDbEntity
  8
0
  6
Continuous
 62
     7
370
    15
100
AcDbCircle
 10
2600.629933747
 20
2968.1304414976
 30
0.0
 40
4.500000000000909
100
AcDbArc
 50
270.0
 51
90.0
  0
LINE
  5
208
330
1F
100
AcDbEntity
  8
0
  6
Continuous
 62
     7
370
    15
100
AcDbLine
 10
2769.6299594962
 20
2945.6304669244
 30
0.0
 11
2800.629977616
 21
2945.6304669244
 31
0.0
  0
ARC
  5
209
330
1F
100
AcDbEntity
  8
0
  6
Continuous
 62
     7
370
    15
100
AcDbCircle
 10
2769.629933747
 20
2941.1304414976
 30
0.0
 40
4.500000000000455
100
AcDbArc
 50
90.0
 51
270.0
  0
LINE
  5
20A
330
1F
100
AcDbEntity
  8
0
  6
Continuous
 62
     7
370
    15
100
AcDbLine
 10
2800.629977616
 20
2936.6304635865
 30
0.0
 11
2769.6299594962
 21
2936.6304635865
 31
0.0
  0
ARC
  5
20B
330
1F
100
AcDbEntity
  8
0
  6
Continuous
 62
     7
370
    15
100
AcDbCircle
 10
2800.629933747
 20
2941.1304414976
 30
0.0
 40
4.500000000000455
100
AcDbArc
 50
270.0
 51
90.0
  0
LINE
  5
20C
330
1F
100
AcDbEntity
  8
0
  6
Continuous
 62
     7
370
    15
100
AcDbLine
 10
2719.6298879706
 20
2945.6304669244
 30
0.0
 11
2750.6299060904
 21
2945.6304669244
 31
0.0
  0
ARC
  5
20D
330
1F
100
AcDbEntity
  8
0
  6
Continuous
 62
     7
370
    15
100
AcDbCircle
 10
2719.629933747
 20
2941.1304414976
 30
0.0
 40
4.500000000000455
100
AcDbArc
 50
90.0
 51
270.0
  0
LINE
  5
20E
330
1F
100
AcDbEntity
  8
0
  6
Continuous
 62
     7
370
    15
100
AcDbLine
 10
2750.6299060904
 20
2936.6304635865
 30
0.0
 11
2719.6298879706
 21
2936.6304635865
 31
0.0
  0
ARC
  5
20F
330
1F
100
AcDbEntity
  8
0
  6
Continuous
 62
     7
370
    15
100
AcDbCircle
 10
2750.629933747
 20
2941.1304414976
 30
0.0
 40
4.500000000000909
100
AcDbArc
 50
270.0
 51
90.0
  0
LINE
  5
210
330
1F
100
AcDbEntity
  8
0
  6
Continuous
 62
     7
370
    15
100
AcDbLine
 10
2750.6299060904
 20
2963.6304736001
 30
0.0
 11
2719.6298879706
 21
2963.6304736001
 31
0.0
  0
ARC
  5
211
330
1F
100
AcDbEntity
  8
0
  6
Continuous
 62
     7
370
    15
100
AcDbCircle
 10
2750.629933747
 20
2968.1304414976
 30
0.0
 40
4.500000000000909
100
AcDbArc
 50
270.0
 51
90.0
  0
LINE
  5
212
330
1F
100
AcDbEntity
  8
0
  6
Continuous
 62
     7
370
    15
100
AcDbLine
 10
2719.6298879706
 20
2972.6304173333
 30
0.0
 11
2750.6299060904
 21
2972.6304173333
 31
0.0
  0
ARC
  5
213
330
1F
100
AcDbEntity
  8
0
  6
Continuous
 62
     7
370
    15
100
AcDbCircle
 10
2719.629933747
 20
2968.1304414976
 30
0.0
 40
4.500000000000455
100
AcDbArc
 50
90.0
 51
270.0
  0
LINE
  5
214
330
1F
100
AcDbEntity
  8
0
  6
Continuous
 62
     7
370
    15
100
AcDbLine
 10
2769.6299594962
 20
2972.6304173333
 30
0.0
 11
2800.629977616
 21
2972.6304173333
 31
0.0
  0
ARC
  5
215
330
1F
100
AcDbEntity
  8
0
  6
Continuous
 62
     7
370
    15
100
AcDbCircle
 10
2769.629933747
 20
2968.1304414976
 30
0.0
 40
4.500000000000455
100
AcDbArc
 50
90.0
 51
270.0
  0
LINE
  5
216
330
1F
100
AcDbEntity
  8
0
  6
Continuous
 62
     7
370
    15
100
AcDbLine
 10
2800.629977616
 20
2963.6304736001
 30
0.0
 11
2769.6299594962
 21
2963.6304736001
 31
0.0
  0
ARC
  5
217
330
1F
100
AcDbEntity
  8
0
  6
Continuous
 62
     7
370
    15
100
AcDbCircle
 10
2800.629933747
 20
2968.1304414976
 30
0.0
 40
4.500000000000909
100
AcDbArc
 50
270.0
 51
90.0
  0
LINE
  5
218
330
1F
100
AcDbEntity
  8
0
  6
Continuous
 62
     7
370
    15
100
AcDbLine
 10
2550.6299180114
 20
1023.6304163797
 30
0.0
 11
2519.6299594962
 21
1023.6304163797
 31
0.0
  0
ARC
  5
219
330
1F
100
AcDbEntity
  8
0
  6
Continuous
 62
     7
370
    15
100
AcDbCircle
 10
2550.629933747
 20
1028.1304414974
 30
0.0
 40
4.500000000000455
100
AcDbArc
 50
270.0
 51
90.0
  0
LINE
  5
21A
330
1F
100
AcDbEntity
  8
0
  6
Continuous
 62
     7
370
    15
100
AcDbLine
 10
2519.6299594962
 20
1032.6304197175
 30
0.0
 11
2550.6299180114
 21
1032.6304197175
 31
0.0
  0
ARC
  5
21B
330
1F
100
AcDbEntity
  8
0
  6
Continuous
 62
     7
370
    15
100
AcDbCircle
 10
2519.629933747
 20
1028.1304414974
 30
0.0
 40
4.500000000000682
100
AcDbArc
 50
90.0
 51
270.0
  0
LINE
  5
21C
330
1F
100
AcDbEntity
  8
0
  6
Continuous
 62
     7
370
    15
100
AcDbLine
 10
2550.6299180114
 20
996.6304659707
 30
0.0
 11
2519.6299594962
 21
996.6304659707
 31
0.0
  0
ARC
  5
21D
330
1F
100
AcDbEntity
  8
0
  6
Continuous
 62
     7
370
    15
100
AcDbCircle
 10
2550.629933747
 20
1001.1304414974
 30
0.0
 40
4.500000000000909
100
AcDbArc
 50
270.0
 51
90.0
  0
LINE
  5
21E
330
1F
100
AcDbEntity
  8
0
  6
Continuous
 62
     7
370
    15
100
AcDbLine
 10
2519.6299594962
 20
1005.6304693086
 30
0.0
 11
2550.6299180114
 21
1005.6304693086
 31
0.0
  0
ARC
  5
21F
330
1F
100
AcDbEntity
  8
0
  6
Continuous
 62
     7
370
    15
100
AcDbCircle
 10
2519.629933747
 20
1001.1304414974
 30
0.0
 40
4.500000000000455
100
AcDbArc
 50
90.0
 51
270.0
  0
LINE
  5
220
330
1F
100
AcDbEntity
  8
0
  6
Continuous
 62
     7
370
    15
100
AcDbLine
 10
2600.6299299323
 20
1023.6304163797
 30
0.0
 11
2569.6299118125
 21
1023.6304163797
 31
0.0
  0
ARC
  5
221
330
1F
100
AcDbEntity
  8
0
  6
Continuous
 62
     7
370
    15
100
AcDbCircle
 10
2600.629933747
 20
1028.1304414974
 30
0.0
 40
4.500000000000455
100
AcDbArc
 50
270.0
 51
90.0
  0
LINE
  5
222
330
1F
100
AcDbEntity
  8
0
  6
Continuous
 62
     7
370
    15
100
AcDbLine
 10
2569.6299118125
 20
1032.6304197175
 30
0.0
 11
2600.6299299323
 21
1032.6304197175
 31
0.0
  0
ARC
  5
223
330
1F
100
AcDbEntity
  8
0
  6
Continuous
 62
     7
370
    15
100
AcDbCircle
 10
2569.629933747
 20
1028.1304414974
 30
0.0
 40
4.500000000000455
100
AcDbArc
 50
90.0
 51
270.0
  0
LINE
  5
224
330
1F
100
AcDbEntity
  8
0
  6
Continuous
 62
     7
370
    15
100
AcDbLine
 10
2600.6299299323
 20
996.6304659707
 30
0.0
 11
2569.6299118125
 21
996.6304659707
 31
0.0
  0
ARC
  5
225
330
1F
100
AcDbEntity
  8
0
  6
Continuous
 62
     7
370
    15
100
AcDbCircle
 10
2600.629933747
 20
1001.1304414974
 30
0.0
 40
4.500000000000682
100
AcDbArc
 50
270.0
 51
90.0
  0
LINE
  5
226
330
1F
100
AcDbEntity
  8
0
  6
Continuous
 62
     7
370
    15
100
AcDbLine
 10
2569.6299118125
 20
1005.6304693086
 30
0.0
 11
2600.6299299323
 21
1005.6304693086
 31
0.0
  0
ARC
  5
227
330
1F
100
AcDbEntity
  8
0
  6
Continuous
 62
     7
370
    15
100
AcDbCircle
 10
2569.629933747
 20
1001.1304414974
 30
0.0
 40
4.500000000000682
100
AcDbArc
 50
90.0
 51
270.0
  0
LINE
  5
228
330
1F
100
AcDbEntity
  8
0
  6
Continuous
 62
     7
370
    15
100
AcDbLine
 10
2650.6298822486
 20
1023.6304163797
 30
0.0
 11
2619.629983338
 21
1023.6304163797
 31
0.0
  0
ARC
  5
229
330
1F
100
AcDbEntity
  8
0
  6
Continuous
 62
     7
370
    15
100
AcDbCircle
 10
2650.629933747
 20
1028.1304414974
 30
0.0
 40
4.500000000000227
100
AcDbArc
 50
270.0
 51
90.0
  0
LINE
  5
22A
330
1F
100
AcDbEntity
  8
0
  6
Continuous
 62
     7
370
    15
100
AcDbLine
 10
2619.629983338
 20
1032.6304197175
 30
0.0
 11
2650.6298822486
 21
1032.6304197175
 31
0.0
  0
ARC
  5
22B
330
1F
100
AcDbEntity
  8
0
  6
Continuous
 62
     7
370
    15
100
AcDbCircle
 10
2619.629933747
 20
1028.1304414974
 30
0.0
 40
4.500000000000455
100
AcDbArc
 50
90.0
 51
270.0
  0
LINE
  5
22C
330
1F
100
AcDbEntity
  8
0
  6
Continuous
 62
     7
370
    15
100
AcDbLine
 10
2650.6298822486
 20
996.6304659707
 30
0.0
 11
2619.629983338
 21
996.6304659707
 31
0.0
  0
ARC
  5
22D
330
1F
100
AcDbEntity
  8
0
  6
Continuous
 62
     7
370
    15
100
AcDbCircle
 10
2650.629933747
 20
1001.1304414974
 30
0.0
 40
4.500000000000568
100
AcDbArc
 50
270.0
 51
90.0
  0
LINE
  5
22E
330
1F
100
AcDbEntity
  8
0
  6
Continuous
 62
     7
370
    15
100
AcDbLine
 10
2619.629983338
 20
1005.6304693086
 30
0.0
 11
2650.6298822486
 21
1005.6304693086
 31
0.0
  0
ARC
  5
22F
330
1F
100
AcDbEntity
  8
0
  6
Continuous
 62
     7
370
    15
100
AcDbCircle
 10
2619.629933747
 20
1001.1304414974
 30
0.0
 40
4.500000000000682
100
AcDbArc
 50
90.0
 51
270.0
  0
LINE
  5
230
330
1F
100
AcDbEntity
  8
0
  6
Continuous
 62
     7
370
    15
100
AcDbLine
 10
2700.6299537741
 20
1023.6304163797
 30
0.0
 11
2669.6299356543
 21
1023.6304163797
 31
0.0
  0
ARC
  5
231
330
1F
100
AcDbEntity
  8
0
  6
Continuous
 62
     7
370
    15
100
AcDbCircle
 10
2700.629933747
 20
1028.1304414974
 30
0.0
 40
4.500000000000682
100
AcDbArc
 50
270.0
 51
90.0
  0
LINE
  5
232
330
1F
100
AcDbEntity
  8
0
  6
Continuous
 62
     7
370
    15
100
AcDbLine
 10
2669.6299356543
 20
1032.6304197175
 30
0.0
 11
2700.6299537741
 21
1032.6304197175
 31
0.0
  0
ARC
  5
233
330
1F
100
AcDbEntity
  8
0
  6
Continuous
 62
     7
370
    15
100
AcDbCircle
 10
2669.629933747
 20
1028.1304414974
 30
0.0
 40
4.500000000000341
100
AcDbArc
 50
90.0
 51
270.0
  0
LINE
  5
234
330
1F
100
AcDbEntity
  8
0
  6
Continuous
 62
     7
370
    15
100
AcDbLine
 10
2700.6299537741
 20
996.6304659707
 30
0.0
 11
2669.6299356543
 21
996.6304659707
 31
0.0
  0
ARC
  5
235
330
1F
100
AcDbEntity
  8
0
  6
Continuous
 62
     7
370
    15
100
AcDbCircle
 10
2700.629933747
 20
1001.1304414974
 30
0.0
 40
4.500000000000568
100
AcDbArc
 50
270.0
 51
90.0
  0
LINE
  5
236
330
1F
100
AcDbEntity
  8
0
  6
Continuous
 62
     7
370
    15
100
AcDbLine
 10
2669.6299356543
 20
1005.6304693086
 30
0.0
 11
2700.6299537741
 21
1005.6304693086
 31
0.0
  0
ARC
  5
237
330
1F
100
AcDbEntity
  8
0
  6
Continuous
 62
     7
370
    15
100
AcDbCircle
 10
2669.629933747
 20
1001.1304414974
 30
0.0
 40
4.500000000000682
100
AcDbArc
 50
90.0
 51
270.0
  0
LINE
  5
238
330
1F
100
AcDbEntity
  8
0
  6
Continuous
 62
     7
370
    15
100
AcDbLine
 10
2850.6299299323
 20
1023.6304163797
 30
0.0
 11
2819.6299118125
 21
1023.6304163797
 31
0.0
  0
ARC
  5
239
330
1F
100
AcDbEntity
  8
0
  6
Continuous
 62
     7
370
    15
100
AcDbCircle
 10
2850.629933747
 20
1028.1304414974
 30
0.0
 40
4.500000000000682
100
AcDbArc
 50
270.0
 51
90.0
  0
LINE
  5
23A
330
1F
100
AcDbEntity
  8
0
  6
Continuous
 62
     7
370
    15
100
AcDbLine
 10
2819.6299118125
 20
1032.6304197175
 30
0.0
 11
2850.6299299323
 21
1032.6304197175
 31
0.0
  0
ARC
  5
23B
330
1F
100
AcDbEntity
  8
0
  6
Continuous
 62
     7
370
    15
100
AcDbCircle
 10
2819.629933747
 20
1028.1304414974
 30
0.0
 40
4.500000000000568
100
AcDbArc
 50
90.0
 51
270.0
  0
LINE
  5
23C
330
1F
100
AcDbEntity
  8
0
  6
Continuous
 62
     7
370
    15
100
AcDbLine
 10
2850.6299299323
 20
996.6304659707
 30
0.0
 11
2819.6299118125
 21
996.6304659707
 31
0.0
  0
ARC
  5
23D
330
1F
100
AcDbEntity
  8
0
  6
Continuous
 62
     7
370
    15
100
AcDbCircle
 10
2850.629933747
 20
1001.1304414974
 30
0.0
 40
4.500000000000568
100
AcDbArc
 50
270.0
 51
90.0
  0
LINE
  5
23E
330
1F
100
AcDbEntity
  8
0
  6
Continuous
 62
     7
370
    15
100
AcDbLine
 10
2819.6299118125
 20
1005.6304693086
 30
0.0
 11
2850.6299299323
 21
1005.6304693086
 31
0.0
  0
ARC
  5
23F
330
1F
100
AcDbEntity
  8
0
  6
Continuous
 62
     7
370
    15
100
AcDbCircle
 10
2819.629933747
 20
1001.1304414974
 30
0.0
 40
4.500000000000568
100
AcDbArc
 50
90.0
 51
270.0
  0
LINE
  5
240
330
1F
100
AcDbEntity
  8
0
  6
Continuous
 62
     7
370
    15
100
AcDbLine
 10
2900.6298822486
 20
1023.6304163797
 30
0.0
 11
2869.629983338
 21
1023.6304163797
 31
0.0
  0
ARC
  5
241
330
1F
100
AcDbEntity
  8
0
  6
Continuous
 62
     7
370
    15
100
AcDbCircle
 10
2900.629933747
 20
1028.1304414974
 30
0.0
 40
4.500000000000455
100
AcDbArc
 50
270.0
 51
90.0
  0
LINE
  5
242
330
1F
100
AcDbEntity
  8
0
  6
Continuous
 62
     7
370
    15
100
AcDbLine
 10
2869.629983338
 20
1032.6304197175
 30
0.0
 11
2900.6298822486
 21
1032.6304197175
 31
0.0
  0
ARC
  5
243
330
1F
100
AcDbEntity
  8
0
  6
Continuous
 62
     7
370
    15
100
AcDbCircle
 10
2869.629933747
 20
1028.1304414974
 30
0.0
 40
4.500000000000796
100
AcDbArc
 50
90.0
 51
270.0
  0
LINE
  5
244
330
1F
100
AcDbEntity
  8
0
  6
Continuous
 62
     7
370
    15
100
AcDbLine
 10
2900.6298822486
 20
996.6304659707
 30
0.0
 11
2869.629983338
 21
996.6304659707
 31
0.0
  0
ARC
  5
245
330
1F
100
AcDbEntity
  8
0
  6
Continuous
 62
     7
370
    15
100
AcDbCircle
 10
2900.629933747
 20
1001.1304414974
 30
0.0
 40
4.500000000000568
100
AcDbArc
 50
270.0
 51
90.0
  0
LINE
  5
246
330
1F
100
AcDbEntity
  8
0
  6
Continuous
 62
     7
370
    15
100
AcDbLine
 10
2869.629983338
 20
1005.6304693086
 30
0.0
 11
2900.6298822486
 21
1005.6304693086
 31
0.0
  0
ARC
  5
247
330
1F
100
AcDbEntity
  8
0
  6
Continuous
 62
     7
370
    15
100
AcDbCircle
 10
2869.629933747
 20
1001.1304414974
 30
0.0
 40
4.500000000000568
100
AcDbArc
 50
90.0
 51
270.0
  0
LINE
  5
248
330
1F
100
AcDbEntity
  8
0
  6
Continuous
 62
     7
370
    15
100
AcDbLine
 10
2950.6299537741
 20
1023.6304163797
 30
0.0
 11
2919.6299356543
 21
1023.6304163797
 31
0.0
  0
ARC
  5
249
330
1F
100
AcDbEntity
  8
0
  6
Continuous
 62
     7
370
    15
100
AcDbCircle
 10
2950.629933747
 20
1028.1304414974
 30
0.0
 40
4.500000000000455
100
AcDbArc
 50
270.0
 51
90.0
  0
LINE
  5
24A
330
1F
100
AcDbEntity
  8
0
  6
Continuous
 62
     7
370
    15
100
AcDbLine
 10
2919.6299356543
 20
1032.6304197175
 30
0.0
 11
2950.6299537741
 21
1032.6304197175
 31
0.0
  0
ARC
  5
24B
330
1F
100
AcDbEntity
  8
0
  6
Continuous
 62
     7
370
    15
100
AcDbCircle
 10
2919.629933747
 20
1028.1304414974
 30
0.0
 40
4.500000000000568
100
AcDbArc
 50
90.0
 51
270.0
  0
LINE
  5
24C
330
1F
100
AcDbEntity
  8
0
  6
Continuous
 62
     7
370
    15
100
AcDbLine
 10
3000.6299060904
 20
1023.6304163797
 30
0.0
 11
2969.6298879706
 21
1023.6304163797
 31
0.0
  0
ARC
  5
24D
330
1F
100
AcDbEntity
  8
0
  6
Continuous
 62
     7
370
    15
100
AcDbCircle
 10
3000.629933747
 20
1028.1304414974
 30
0.0
 40
4.500000000000455
100
AcDbArc
 50
270.0
 51
90.0
  0
LINE
  5
24E
330
1F
100
AcDbEntity
  8
0
  6
Continuous
 62
     7
370
    15
100
AcDbLine
 10
2969.6298879706
 20
1032.6304197175
 30
0.0
 11
3000.6299060904
 21
1032.6304197175
 31
0.0
  0
ARC
  5
24F
330
1F
100
AcDbEntity
  8
0
  6
Continuous
 62
     7
370
    15
100
AcDbCircle
 10
2969.629933747
 20
1028.1304414974
 30
0.0
 40
4.500000000000455
100
AcDbArc
 50
90.0
 51
270.0
  0
LINE
  5
250
330
1F
100
AcDbEntity
  8
0
  6
Continuous
 62
     7
370
    15
100
AcDbLine
 10
2969.6298879706
 20
1005.6304693086
 30
0.0
 11
3000.6299060904
 21
1005.6304693086
 31
0.0
  0
ARC
  5
251
330
1F
100
AcDbEntity
  8
0
  6
Continuous
 62
     7
370
    15
100
AcDbCircle
 10
2969.629933747
 20
1001.1304414974
 30
0.0
 40
4.500000000000455
100
AcDbArc
 50
90.0
 51
270.0
  0
LINE
  5
252
330
1F
100
AcDbEntity
  8
0
  6
Continuous
 62
     7
370
    15
100
AcDbLine
 10
3000.6299060904
 20
996.6304659707
 30
0.0
 11
2969.6298879706
 21
996.6304659707
 31
0.0
  0
ARC
  5
253
330
1F
100
AcDbEntity
  8
0
  6
Continuous
 62
     7
370
    15
100
AcDbCircle
 10
3000.629933747
 20
1001.1304414974
 30
0.0
 40
4.500000000000341
100
AcDbArc
 50
270.0
 51
90.0
  0
LINE
  5
254
330
1F
100
AcDbEntity
  8
0
  6
Continuous
 62
     7
370
    15
100
AcDbLine
 10
2950.6299537741
 20
996.6304659707
 30
0.0
 11
2919.6299356543
 21
996.6304659707
 31
0.0
  0
ARC
  5
255
330
1F
100
AcDbEntity
  8
0
  6
Continuous
 62
     7
370
    15
100
AcDbCircle
 10
2950.629933747
 20
1001.1304414974
 30
0.0
 40
4.500000000000568
100
AcDbArc
 50
270.0
 51
90.0
  0
LINE
  5
256
330
1F
100
AcDbEntity
  8
0
  6
Continuous
 62
     7
370
    15
100
AcDbLine
 10
2919.6299356543
 20
1005.6304693086
 30
0.0
 11
2950.6299537741
 21
1005.6304693086
 31
0.0
  0
ARC
  5
257
330
1F
100
AcDbEntity
  8
0
  6
Continuous
 62
     7
370
    15
100
AcDbCircle
 10
2919.629933747
 20
1001.1304414974
 30
0.0
 40
4.500000000000568
100
AcDbArc
 50
90.0
 51
270.0
  0
LINE
  5
258
330
1F
100
AcDbEntity
  8
0
  6
Continuous
 62
     7
370
    15
100
AcDbLine
 10
2750.6299060904
 20
1023.6304163797
 30
0.0
 11
2719.6298879706
 21
1023.6304163797
 31
0.0
  0
ARC
  5
259
330
1F
100
AcDbEntity
  8
0
  6
Continuous
 62
     7
370
    15
100
AcDbCircle
 10
2750.629933747
 20
1028.1304414974
 30
0.0
 40
4.500000000000682
100
AcDbArc
 50
270.0
 51
90.0
  0
LINE
  5
25A
330
1F
100
AcDbEntity
  8
0
  6
Continuous
 62
     7
370
    15
100
AcDbLine
 10
2719.6298879706
 20
1032.6304197175
 30
0.0
 11
2750.6299060904
 21
1032.6304197175
 31
0.0
  0
ARC
  5
25B
330
1F
100
AcDbEntity
  8
0
  6
Continuous
 62
     7
370
    15
100
AcDbCircle
 10
2719.629933747
 20
1028.1304414974
 30
0.0
 40
4.500000000000568
100
AcDbArc
 50
90.0
 51
270.0
  0
LINE
  5
25C
330
1F
100
AcDbEntity
  8
0
  6
Continuous
 62
     7
370
    15
100
AcDbLine
 10
2800.629977616
 20
1023.6304163797
 30
0.0
 11
2769.6299594962
 21
1023.6304163797
 31
0.0
  0
ARC
  5
25D
330
1F
100
AcDbEntity
  8
0
  6
Continuous
 62
     7
370
    15
100
AcDbCircle
 10
2800.629933747
 20
1028.1304414974
 30
0.0
 40
4.500000000000455
100
AcDbArc
 50
270.0
 51
90.0
  0
LINE
  5
25E
330
1F
100
AcDbEntity
  8
0
  6
Continuous
 62
     7
370
    15
100
AcDbLine
 10
2769.6299594962
 20
1032.6304197175
 30
0.0
 11
2800.629977616
 21
1032.6304197175
 31
0.0
  0
ARC
  5
25F
330
1F
100
AcDbEntity
  8
0
  6
Continuous
 62
     7
370
    15
100
AcDbCircle
 10
2769.629933747
 20
1028.1304414974
 30
0.0
 40
4.500000000000682
100
AcDbArc
 50
90.0
 51
270.0
  0
LINE
  5
260
330
1F
100
AcDbEntity
  8
0
  6
Continuous
 62
     7
370
    15
100
AcDbLine
 10
2769.6299594962
 20
1005.6304693086
 30
0.0
 11
2800.629977616
 21
1005.6304693086
 31
0.0
  0
ARC
  5
261
330
1F
100
AcDbEntity
  8
0
  6
Continuous
 62
     7
370
    15
100
AcDbCircle
 10
2769.629933747
 20
1001.1304414974
 30
0.0
 40
4.500000000000568
100
AcDbArc
 50
90.0
 51
270.0
  0
LINE
  5
262
330
1F
100
AcDbEntity
  8
0
  6
Continuous
 62
     7
370
    15
100
AcDbLine
 10
2800.629977616
 20
996.6304659707
 30
0.0
 11
2769.6299594962
 21
996.6304659707
 31
0.0
  0
ARC
  5
263
330
1F
100
AcDbEntity
  8
0
  6
Continuous
 62
     7
370
    15
100
AcDbCircle
 10
2800.629933747
 20
1001.1304414974
 30
0.0
 40
4.500000000000455
100
AcDbArc
 50
270.0
 51
90.0
  0
LINE
  5
264
330
1F
100
AcDbEntity
  8
0
  6
Continuous
 62
     7
370
    15
100
AcDbLine
 10
2750.6299060904
 20
996.6304659707
 30
0.0
 11
2719.6298879706
 21
996.6304659707
 31
0.0
  0
ARC
  5
265
330
1F
100
AcDbEntity
  8
0
  6
Continuous
 62
     7
370
    15
100
AcDbCircle
 10
2750.629933747
 20
1001.1304414974
 30
0.0
 40
4.500000000000341
100
AcDbArc
 50
270.0
 51
90.0
  0
LINE
  5
266
330
1F
100
AcDbEntity
  8
0
  6
Continuous
 62
     7
370
    15
100
AcDbLine
 10
2719.6298879706
 20
1005.6304693086
 30
0.0
 11
2750.6299060904
 21
1005.6304693086
 31
0.0
  0
ARC
  5
267
330
1F
100
AcDbEntity
  8
0
  6
Continuous
 62
     7
370
    15
100
AcDbCircle
 10
2719.629933747
 20
1001.1304414974
 30
0.0
 40
4.500000000000682
100
AcDbArc
 50
90.0
 51
270.0
  0
LINE
  5
268
330
1F
100
AcDbEntity
  8
0
  6
Continuous
 62
     7
370
    15
100
AcDbLine
 10
2550.6299180114
 20
1670.1304375989
 30
0.0
 11
2519.6299594962
 21
1670.1304375989
 31
0.0
  0
ARC
  5
269
330
1F
100
AcDbEntity
  8
0
  6
Continuous
 62
     7
370
    15
100
AcDbCircle
 10
2550.629933747
 20
1674.630441497
 30
0.0
 40
4.500000000000682
100
AcDbArc
 50
270.0
 51
90.0
  0
LINE
  5
26A
330
1F
100
AcDbEntity
  8
0
  6
Continuous
 62
     7
370
    15
100
AcDbLine
 10
2519.6299594962
 20
1679.1304409368
 30
0.0
 11
2550.6299180114
 21
1679.1304409368
 31
0.0
  0
ARC
  5
26B
330
1F
100
AcDbEntity
  8
0
  6
Continuous
 62
     7
370
    15
100
AcDbCircle
 10
2519.629933747
 20
1674.630441497
 30
0.0
 40
4.500000000000682
100
AcDbArc
 50
90.0
 51
270.0
  0
LINE
  5
26C
330
1F
100
AcDbEntity
  8
0
  6
Continuous
 62
     7
370
    15
100
AcDbLine
 10
2550.6299180114
 20
1643.1304275853
 30
0.0
 11
2519.6299594962
 21
1643.1304275853
 31
0.0
  0
ARC
  5
26D
330
1F
100
AcDbEntity
  8
0
  6
Continuous
 62
     7
370
    15
100
AcDbCircle
 10
2550.629933747
 20
1647.630441497
 30
0.0
 40
4.500000000000682
100
AcDbArc
 50
270.0
 51
90.0
  0
LINE
  5
26E
330
1F
100
AcDbEntity
  8
0
  6
Continuous
 62
     7
370
    15
100
AcDbLine
 10
2519.6299594962
 20
1652.1304309232
 30
0.0
 11
2550.6299180114
 21
1652.1304309232
 31
0.0
  0
ARC
  5
26F
330
1F
100
AcDbEntity
  8
0
  6
Continuous
 62
     7
370
    15
100
AcDbCircle
 10
2519.629933747
 20
1647.630441497
 30
0.0
 40
4.500000000000682
100
AcDbArc
 50
90.0
 51
270.0
  0
LINE
  5
270
330
1F
100
AcDbEntity
  8
0
  6
Continuous
 62
     7
370
    15
100
AcDbLine
 10
2600.6299299323
 20
1670.1304375989
 30
0.0
 11
2569.6299118125
 21
1670.1304375989
 31
0.0
  0
ARC
  5
271
330
1F
100
AcDbEntity
  8
0
  6
Continuous
 62
     7
370
    15
100
AcDbCircle
 10
2600.629933747
 20
1674.630441497
 30
0.0
 40
4.500000000000455
100
AcDbArc
 50
270.0
 51
90.0
  0
LINE
  5
272
330
1F
100
AcDbEntity
  8
0
  6
Continuous
 62
     7
370
    15
100
AcDbLine
 10
2569.6299118125
 20
1679.1304409368
 30
0.0
 11
2600.6299299323
 21
1679.1304409368
 31
0.0
  0
ARC
  5
273
330
1F
100
AcDbEntity
  8
0
  6
Continuous
 62
     7
370
    15
100
AcDbCircle
 10
2569.629933747
 20
1674.630441497
 30
0.0
 40
4.500000000000682
100
AcDbArc
 50
90.0
 51
270.0
  0
LINE
  5
274
330
1F
100
AcDbEntity
  8
0
  6
Continuous
 62
     7
370
    15
100
AcDbLine
 10
2600.6299299323
 20
1643.1304275853
 30
0.0
 11
2569.6299118125
 21
1643.1304275853
 31
0.0
  0
ARC
  5
275
330
1F
100
AcDbEntity
  8
0
  6
Continuous
 62
     7
370
    15
100
AcDbCircle
 10
2600.629933747
 20
1647.630441497
 30
0.0
 40
4.500000000000682
100
AcDbArc
 50
270.0
 51
90.0
  0
LINE
  5
276
330
1F
100
AcDbEntity
  8
0
  6
Continuous
 62
     7
370
    15
100
AcDbLine
 10
2569.6299118125
 20
1652.1304309232
 30
0.0
 11
2600.6299299323
 21
1652.1304309232
 31
0.0
  0
ARC
  5
277
330
1F
100
AcDbEntity
  8
0
  6
Continuous
 62
     7
370
    15
100
AcDbCircle
 10
2569.629933747
 20
1647.630441497
 30
0.0
 40
4.500000000000682
100
AcDbArc
 50
90.0
 51
270.0
  0
LINE
  5
278
330
1F
100
AcDbEntity
  8
0
  6
Continuous
 62
     7
370
    15
100
AcDbLine
 10
2650.6298822486
 20
1670.1304375989
 30
0.0
 11
2619.629983338
 21
1670.1304375989
 31
0.0
  0
ARC
  5
279
330
1F
100
AcDbEntity
  8
0
  6
Continuous
 62
     7
370
    15
100
AcDbCircle
 10
2650.629933747
 20
1674.630441497
 30
0.0
 40
4.500000000000682
100
AcDbArc
 50
270.0
 51
90.0
  0
LINE
  5
27A
330
1F
100
AcDbEntity
  8
0
  6
Continuous
 62
     7
370
    15
100
AcDbLine
 10
2619.629983338
 20
1679.1304409368
 30
0.0
 11
2650.6298822486
 21
1679.1304409368
 31
0.0
  0
ARC
  5
27B
330
1F
100
AcDbEntity
  8
0
  6
Continuous
 62
     7
370
    15
100
AcDbCircle
 10
2619.629933747
 20
1674.630441497
 30
0.0
 40
4.500000000000455
100
AcDbArc
 50
90.0
 51
270.0
  0
LINE
  5
27C
330
1F
100
AcDbEntity
  8
0
  6
Continuous
 62
     7
370
    15
100
AcDbLine
 10
2650.6298822486
 20
1643.1304275853
 30
0.0
 11
2619.629983338
 21
1643.1304275853
 31
0.0
  0
ARC
  5
27D
330
1F
100
AcDbEntity
  8
0
  6
Continuous
 62
     7
370
    15
100
AcDbCircle
 10
2650.629933747
 20
1647.630441497
 30
0.0
 40
4.500000000000682
100
AcDbArc
 50
270.0
 51
90.0
  0
LINE
  5
27E
330
1F
100
AcDbEntity
  8
0
  6
Continuous
 62
     7
370
    15
100
AcDbLine
 10
2619.629983338
 20
1652.1304309232
 30
0.0
 11
2650.6298822486
 21
1652.1304309232
 31
0.0
  0
ARC
  5
27F
330
1F
100
AcDbEntity
  8
0
  6
Continuous
 62
     7
370
    15
100
AcDbCircle
 10
2619.629933747
 20
1647.630441497
 30
0.0
 40
4.500000000000682
100
AcDbArc
 50
90.0
 51
270.0
  0
LINE
  5
280
330
1F
100
AcDbEntity
  8
0
  6
Continuous
 62
     7
370
    15
100
AcDbLine
 10
2700.6299537741
 20
1670.1304375989
 30
0.0
 11
2669.6299356543
 21
1670.1304375989
 31
0.0
  0
ARC
  5
281
330
1F
100
AcDbEntity
  8
0
  6
Continuous
 62
     7
370
    15
100
AcDbCircle
 10
2700.629933747
 20
1674.630441497
 30
0.0
 40
4.500000000000455
100
AcDbArc
 50
270.0
 51
90.0
  0
LINE
  5
282
330
1F
100
AcDbEntity
  8
0
  6
Continuous
 62
     7
370
    15
100
AcDbLine
 10
2669.6299356543
 20
1679.1304409368
 30
0.0
 11
2700.6299537741
 21
1679.1304409368
 31
0.0
  0
ARC
  5
283
330
1F
100
AcDbEntity
  8
0
  6
Continuous
 62
     7
370
    15
100
AcDbCircle
 10
2669.629933747
 20
1674.630441497
 30
0.0
 40
4.500000000000682
100
AcDbArc
 50
90.0
 51
270.0
  0
LINE
  5
284
330
1F
100
AcDbEntity
  8
0
  6
Continuous
 62
     7
370
    15
100
AcDbLine
 10
2700.6299537741
 20
1643.1304275853
 30
0.0
 11
2669.6299356543
 21
1643.1304275853
 31
0.0
  0
ARC
  5
285
330
1F
100
AcDbEntity
  8
0
  6
Continuous
 62
     7
370
    15
100
AcDbCircle
 10
2700.629933747
 20
1647.630441497
 30
0.0
 40
4.500000000000682
100
AcDbArc
 50
270.0
 51
90.0
  0
LINE
  5
286
330
1F
100
AcDbEntity
  8
0
  6
Continuous
 62
     7
370
    15
100
AcDbLine
 10
2669.6299356543
 20
1652.1304309232
 30
0.0
 11
2700.6299537741
 21
1652.1304309232
 31
0.0
  0
ARC
  5
287
330
1F
100
AcDbEntity
  8
0
  6
Continuous
 62
     7
370
    15
100
AcDbCircle
 10
2669.629933747
 20
1647.630441497
 30
0.0
 40
4.500000000000682
100
AcDbArc
 50
90.0
 51
270.0
  0
LINE
  5
288
330
1F
100
AcDbEntity
  8
0
  6
Continuous
 62
     7
370
    15
100
AcDbLine
 10
2850.6299299323
 20
1670.1304375989
 30
0.0
 11
2819.6299118125
 21
1670.1304375989
 31
0.0
  0
ARC
  5
289
330
1F
100
AcDbEntity
  8
0
  6
Continuous
 62
     7
370
    15
100
AcDbCircle
 10
2850.629933747
 20
1674.630441497
 30
0.0
 40
4.500000000000455
100
AcDbArc
 50
270.0
 51
90.0
  0
LINE
  5
28A
330
1F
100
AcDbEntity
  8
0
  6
Continuous
 62
     7
370
    15
100
AcDbLine
 10
2819.6299118125
 20
1679.1304409368
 30
0.0
 11
2850.6299299323
 21
1679.1304409368
 31
0.0
  0
ARC
  5
28B
330
1F
100
AcDbEntity
  8
0
  6
Continuous
 62
     7
370
    15
100
AcDbCircle
 10
2819.629933747
 20
1674.630441497
 30
0.0
 40
4.500000000000682
100
AcDbArc
 50
90.0
 51
270.0
  0
LINE
  5
28C
330
1F
100
AcDbEntity
  8
0
  6
Continuous
 62
     7
370
    15
100
AcDbLine
 10
2850.6299299323
 20
1643.1304275853
 30
0.0
 11
2819.6299118125
 21
1643.1304275853
 31
0.0
  0
ARC
  5
28D
330
1F
100
AcDbEntity
  8
0
  6
Continuous
 62
     7
370
    15
100
AcDbCircle
 10
2850.629933747
 20
1647.630441497
 30
0.0
 40
4.500000000000682
100
AcDbArc
 50
270.0
 51
90.0
  0
LINE
  5
28E
330
1F
100
AcDbEntity
  8
0
  6
Continuous
 62
     7
370
    15
100
AcDbLine
 10
2819.6299118125
 20
1652.1304309232
 30
0.0
 11
2850.6299299323
 21
1652.1304309232
 31
0.0
  0
ARC
  5
28F
330
1F
100
AcDbEntity
  8
0
  6
Continuous
 62
     7
370
    15
100
AcDbCircle
 10
2819.629933747
 20
1647.630441497
 30
0.0
 40
4.500000000000682
100
AcDbArc
 50
90.0
 51
270.0
  0
LINE
  5
290
330
1F
100
AcDbEntity
  8
0
  6
Continuous
 62
     7
370
    15
100
AcDbLine
 10
2900.6298822486
 20
1670.1304375989
 30
0.0
 11
2869.629983338
 21
1670.1304375989
 31
0.0
  0
ARC
  5
291
330
1F
100
AcDbEntity
  8
0
  6
Continuous
 62
     7
370
    15
100
AcDbCircle
 10
2900.629933747
 20
1674.630441497
 30
0.0
 40
4.500000000000455
100
AcDbArc
 50
270.0
 51
90.0
  0
LINE
  5
292
330
1F
100
AcDbEntity
  8
0
  6
Continuous
 62
     7
370
    15
100
AcDbLine
 10
2869.629983338
 20
1679.1304409368
 30
0.0
 11
2900.6298822486
 21
1679.1304409368
 31
0.0
  0
ARC
  5
293
330
1F
100
AcDbEntity
  8
0
  6
Continuous
 62
     7
370
    15
100
AcDbCircle
 10
2869.629933747
 20
1674.630441497
 30
0.0
 40
4.500000000000682
100
AcDbArc
 50
90.0
 51
270.0
  0
LINE
  5
294
330
1F
100
AcDbEntity
  8
0
  6
Continuous
 62
     7
370
    15
100
AcDbLine
 10
2900.6298822486
 20
1643.1304275853
 30
0.0
 11
2869.629983338
 21
1643.1304275853
 31
0.0
  0
ARC
  5
295
330
1F
100
AcDbEntity
  8
0
  6
Continuous
 62
     7
370
    15
100
AcDbCircle
 10
2900.629933747
 20
1647.630441497
 30
0.0
 40
4.500000000000455
100
AcDbArc
 50
270.0
 51
90.0
  0
LINE
  5
296
330
1F
100
AcDbEntity
  8
0
  6
Continuous
 62
     7
370
    15
100
AcDbLine
 10
2869.629983338
 20
1652.1304309232
 30
0.0
 11
2900.6298822486
 21
1652.1304309232
 31
0.0
  0
ARC
  5
297
330
1F
100
AcDbEntity
  8
0
  6
Continuous
 62
     7
370
    15
100
AcDbCircle
 10
2869.629933747
 20
1647.630441497
 30
0.0
 40
4.500000000000682
100
AcDbArc
 50
90.0
 51
270.0
  0
LINE
  5
298
330
1F
100
AcDbEntity
  8
0
  6
Continuous
 62
     7
370
    15
100
AcDbLine
 10
2950.6299537741
 20
1670.1304375989
 30
0.0
 11
2919.6299356543
 21
1670.1304375989
 31
0.0
  0
ARC
  5
299
330
1F
100
AcDbEntity
  8
0
  6
Continuous
 62
     7
370
    15
100
AcDbCircle
 10
2950.629933747
 20
1674.630441497
 30
0.0
 40
4.500000000000455
100
AcDbArc
 50
270.0
 51
90.0
  0
LINE
  5
29A
330
1F
100
AcDbEntity
  8
0
  6
Continuous
 62
     7
370
    15
100
AcDbLine
 10
2919.6299356543
 20
1679.1304409368
 30
0.0
 11
2950.6299537741
 21
1679.1304409368
 31
0.0
  0
ARC
  5
29B
330
1F
100
AcDbEntity
  8
0
  6
Continuous
 62
     7
370
    15
100
AcDbCircle
 10
2919.629933747
 20
1674.630441497
 30
0.0
 40
4.500000000000227
100
AcDbArc
 50
90.0
 51
270.0
  0
LINE
  5
29C
330
1F
100
AcDbEntity
  8
0
  6
Continuous
 62
     7
370
    15
100
AcDbLine
 10
3000.6299060904
 20
1670.1304375989
 30
0.0
 11
2969.6298879706
 21
1670.1304375989
 31
0.0
  0
ARC
  5
29D
330
1F
100
AcDbEntity
  8
0
  6
Continuous
 62
     7
370
    15
100
AcDbCircle
 10
3000.629933747
 20
1674.630441497
 30
0.0
 40
4.500000000000682
100
AcDbArc
 50
270.0
 51
90.0
  0
LINE
  5
29E
330
1F
100
AcDbEntity
  8
0
  6
Continuous
 62
     7
370
    15
100
AcDbLine
 10
2969.6298879706
 20
1679.1304409368
 30
0.0
 11
3000.6299060904
 21
1679.1304409368
 31
0.0
  0
ARC
  5
29F
330
1F
100
AcDbEntity
  8
0
  6
Continuous
 62
     7
370
    15
100
AcDbCircle
 10
2969.629933747
 20
1674.630441497
 30
0.0
 40
4.500000000000455
100
AcDbArc
 50
90.0
 51
270.0
  0
LINE
  5
2A0
330
1F
100
AcDbEntity
  8
0
  6
Continuous
 62
     7
370
    15
100
AcDbLine
 10
2969.6298879706
 20
1652.1304309232
 30
0.0
 11
3000.6299060904
 21
1652.1304309232
 31
0.0
  0
ARC
  5
2A1
330
1F
100
AcDbEntity
  8
0
  6
Continuous
 62
     7
370
    15
100
AcDbCircle
 10
2969.629933747
 20
1647.630441497
 30
0.0
 40
4.500000000000682
100
AcDbArc
 50
90.0
 51
270.0
  0
LINE
  5
2A2
330
1F
100
AcDbEntity
  8
0
  6
Continuous
 62
     7
370
    15
100
AcDbLine
 10
3000.6299060904
 20
1643.1304275853
 30
0.0
 11
2969.6298879706
 21
1643.1304275853
 31
0.0
  0
ARC
  5
2A3
330
1F
100
AcDbEntity
  8
0
  6
Continuous
 62
     7
370
    15
100
AcDbCircle
 10
3000.629933747
 20
1647.630441497
 30
0.0
 40
4.500000000000682
100
AcDbArc
 50
270.0
 51
90.0
  0
LINE
  5
2A4
330
1F
100
AcDbEntity
  8
0
  6
Continuous
 62
     7
370
    15
100
AcDbLine
 10
2950.6299537741
 20
1643.1304275853
 30
0.0
 11
2919.6299356543
 21
1643.1304275853
 31
0.0
  0
ARC
  5
2A5
330
1F
100
AcDbEntity
  8
0
  6
Continuous
 62
     7
370
    15
100
AcDbCircle
 10
2950.629933747
 20
1647.630441497
 30
0.0
 40
4.500000000000455
100
AcDbArc
 50
270.0
 51
90.0
  0
LINE
  5
2A6
330
1F
100
AcDbEntity
  8
0
  6
Continuous
 62
     7
370
    15
100
AcDbLine
 10
2919.6299356543
 20
1652.1304309232
 30
0.0
 11
2950.6299537741
 21
1652.1304309232
 31
0.0
  0
ARC
  5
2A7
330
1F
100
AcDbEntity
  8
0
  6
Continuous
 62
     7
370
    15
100
AcDbCircle
 10
2919.629933747
 20
1647.630441497
 30
0.0
 40
4.500000000000682
100
AcDbArc
 50
90.0
 51
270.0
  0
LINE
  5
2A8
330
1F
100
AcDbEntity
  8
0
  6
Continuous
 62
     7
370
    15
100
AcDbLine
 10
2750.6299060904
 20
1670.1304375989
 30
0.0
 11
2719.6298879706
 21
1670.1304375989
 31
0.0
  0
ARC
  5
2A9
330
1F
100
AcDbEntity
  8
0
  6
Continuous
 62
     7
370
    15
100
AcDbCircle
 10
2750.629933747
 20
1674.630441497
 30
0.0
 40
4.500000000000455
100
AcDbArc
 50
270.0
 51
90.0
  0
LINE
  5
2AA
330
1F
100
AcDbEntity
  8
0
  6
Continuous
 62
     7
370
    15
100
AcDbLine
 10
2719.6298879706
 20
1679.1304409368
 30
0.0
 11
2750.6299060904
 21
1679.1304409368
 31
0.0
  0
ARC
  5
2AB
330
1F
100
AcDbEntity
  8
0
  6
Continuous
 62
     7
370
    15
100
AcDbCircle
 10
2719.629933747
 20
1674.630441497
 30
0.0
 40
4.500000000000682
100
AcDbArc
 50
90.0
 51
270.0
  0
LINE
  5
2AC
330
1F
100
AcDbEntity
  8
0
  6
Continuous
 62
     7
370
    15
100
AcDbLine
 10
2800.629977616
 20
1670.1304375989
 30
0.0
 11
2769.6299594962
 21
1670.1304375989
 31
0.0
  0
ARC
  5
2AD
330
1F
100
AcDbEntity
  8
0
  6
Continuous
 62
     7
370
    15
100
AcDbCircle
 10
2800.629933747
 20
1674.630441497
 30
0.0
 40
4.500000000000682
100
AcDbArc
 50
270.0
 51
90.0
  0
LINE
  5
2AE
330
1F
100
AcDbEntity
  8
0
  6
Continuous
 62
     7
370
    15
100
AcDbLine
 10
2769.6299594962
 20
1679.1304409368
 30
0.0
 11
2800.629977616
 21
1679.1304409368
 31
0.0
  0
ARC
  5
2AF
330
1F
100
AcDbEntity
  8
0
  6
Continuous
 62
     7
370
    15
100
AcDbCircle
 10
2769.629933747
 20
1674.630441497
 30
0.0
 40
4.500000000000682
100
AcDbArc
 50
90.0
 51
270.0
  0
LINE
  5
2B0
330
1F
100
AcDbEntity
  8
0
  6
Continuous
 62
     7
370
    15
100
AcDbLine
 10
2769.6299594962
 20
1652.1304309232
 30
0.0
 11
2800.629977616
 21
1652.1304309232
 31
0.0
  0
ARC
  5
2B1
330
1F
100
AcDbEntity
  8
0
  6
Continuous
 62
     7
370
    15
100
AcDbCircle
 10
2769.629933747
 20
1647.630441497
 30
0.0
 40
4.500000000000682
100
AcDbArc
 50
90.0
 51
270.0
  0
LINE
  5
2B2
330
1F
100
AcDbEntity
  8
0
  6
Continuous
 62
     7
370
    15
100
AcDbLine
 10
2800.629977616
 20
1643.1304275853
 30
0.0
 11
2769.6299594962
 21
1643.1304275853
 31
0.0
  0
ARC
  5
2B3
330
1F
100
AcDbEntity
  8
0
  6
Continuous
 62
     7
370
    15
100
AcDbCircle
 10
2800.629933747
 20
1647.630441497
 30
0.0
 40
4.500000000000682
100
AcDbArc
 50
270.0
 51
90.0
  0
LINE
  5
2B4
330
1F
100
AcDbEntity
  8
0
  6
Continuous
 62
     7
370
    15
100
AcDbLine
 10
2750.6299060904
 20
1643.1304275853
 30
0.0
 11
2719.6298879706
 21
1643.1304275853
 31
0.0
  0
ARC
  5
2B5
330
1F
100
AcDbEntity
  8
0
  6
Continuous
 62
     7
370
    15
100
AcDbCircle
 10
2750.629933747
 20
1647.630441497
 30
0.0
 40
4.500000000000682
100
AcDbArc
 50
270.0
 51
90.0
  0
LINE
  5
2B6
330
1F
100
AcDbEntity
  8
0
  6
Continuous
 62
     7
370
    15
100
AcDbLine
 10
2719.6298879706
 20
1652.1304309232
 30
0.0
 11
2750.6299060904
 21
1652.1304309232
 31
0.0
  0
ARC
  5
2B7
330
1F
100
AcDbEntity
  8
0
  6
Continuous
 62
     7
370
    15
100
AcDbCircle
 10
2719.629933747
 20
1647.630441497
 30
0.0
 40
4.500000000000682
100
AcDbArc
 50
90.0
 51
270.0
  0
LINE
  5
2B8
330
1F
100
AcDbEntity
  8
0
  6
Continuous
 62
     7
370
    15
100
AcDbLine
 10
2969.6298879706
 20
2299.1304457052
 30
0.0
 11
3000.6299060904
 21
2299.1304457052
 31
0.0
  0
ARC
  5
2B9
330
1F
100
AcDbEntity
  8
0
  6
Continuous
 62
     7
370
    15
100
AcDbCircle
 10
2969.629933747
 20
2294.6304414979
 30
0.0
 40
4.500000000000909
100
AcDbArc
 50
90.0
 51
270.0
  0
LINE
  5
2BA
330
1F
100
AcDbEntity
  8
0
  6
Continuous
 62
     7
370
    15
100
AcDbLine
 10
3000.6299060904
 20
2290.1304423673
 30
0.0
 11
2969.6298879706
 21
2290.1304423673
 31
0.0
  0
ARC
  5
2BB
330
1F
100
AcDbEntity
  8
0
  6
Continuous
 62
     7
370
    15
100
AcDbCircle
 10
3000.629933747
 20
2294.6304414979
 30
0.0
 40
4.500000000000455
100
AcDbArc
 50
270.0
 51
90.0
  0
LINE
  5
2BC
330
1F
100
AcDbEntity
  8
0
  6
Continuous
 62
     7
370
    15
100
AcDbLine
 10
2969.6298879706
 20
2326.1304557187
 30
0.0
 11
3000.6299060904
 21
2326.1304557187
 31
0.0
  0
ARC
  5
2BD
330
1F
100
AcDbEntity
  8
0
  6
Continuous
 62
     7
370
    15
100
AcDbCircle
 10
2969.629933747
 20
2321.6304414979
 30
0.0
 40
4.500000000000909
100
AcDbArc
 50
90.0
 51
270.0
  0
LINE
  5
2BE
330
1F
100
AcDbEntity
  8
0
  6
Continuous
 62
     7
370
    15
100
AcDbLine
 10
3000.6299060904
 20
2317.1304523809
 30
0.0
 11
2969.6298879706
 21
2317.1304523809
 31
0.0
  0
ARC
  5
2BF
330
1F
100
AcDbEntity
  8
0
  6
Continuous
 62
     7
370
    15
100
AcDbCircle
 10
3000.629933747
 20
2321.6304414979
 30
0.0
 40
4.5
100
AcDbArc
 50
270.0
 51
90.0
  0
LINE
  5
2C0
330
1F
100
AcDbEntity
  8
0
  6
Continuous
 62
     7
370
    15
100
AcDbLine
 10
2919.6299356543
 20
2299.1304457052
 30
0.0
 11
2950.6299537741
 21
2299.1304457052
 31
0.0
  0
ARC
  5
2C1
330
1F
100
AcDbEntity
  8
0
  6
Continuous
 62
     7
370
    15
100
AcDbCircle
 10
2919.629933747
 20
2294.6304414979
 30
0.0
 40
4.500000000000909
100
AcDbArc
 50
90.0
 51
270.0
  0
LINE
  5
2C2
330
1F
100
AcDbEntity
  8
0
  6
Continuous
 62
     7
370
    15
100
AcDbLine
 10
2950.6299537741
 20
2290.1304423673
 30
0.0
 11
2919.6299356543
 21
2290.1304423673
 31
0.0
  0
ARC
  5
2C3
330
1F
100
AcDbEntity
  8
0
  6
Continuous
 62
     7
370
    15
100
AcDbCircle
 10
2950.629933747
 20
2294.6304414979
 30
0.0
 40
4.500000000000455
100
AcDbArc
 50
270.0
 51
90.0
  0
LINE
  5
2C4
330
1F
100
AcDbEntity
  8
0
  6
Continuous
 62
     7
370
    15
100
AcDbLine
 10
2919.6299356543
 20
2326.1304557187
 30
0.0
 11
2950.6299537741
 21
2326.1304557187
 31
0.0
  0
ARC
  5
2C5
330
1F
100
AcDbEntity
  8
0
  6
Continuous
 62
     7
370
    15
100
AcDbCircle
 10
2919.629933747
 20
2321.6304414979
 30
0.0
 40
4.500000000000455
100
AcDbArc
 50
90.0
 51
270.0
  0
LINE
  5
2C6
330
1F
100
AcDbEntity
  8
0
  6
Continuous
 62
     7
370
    15
100
AcDbLine
 10
2950.6299537741
 20
2317.1304523809
 30
0.0
 11
2919.6299356543
 21
2317.1304523809
 31
0.0
  0
ARC
  5
2C7
330
1F
100
AcDbEntity
  8
0
  6
Continuous
 62
     7
370
    15
100
AcDbCircle
 10
2950.629933747
 20
2321.6304414979
 30
0.0
 40
4.500000000000455
100
AcDbArc
 50
270.0
 51
90.0
  0
LINE
  5
2C8
330
1F
100
AcDbEntity
  8
0
  6
Continuous
 62
     7
370
    15
100
AcDbLine
 10
2869.629983338
 20
2299.1304457052
 30
0.0
 11
2900.6298822486
 21
2299.1304457052
 31
0.0
  0
ARC
  5
2C9
330
1F
100
AcDbEntity
  8
0
  6
Continuous
 62
     7
370
    15
100
AcDbCircle
 10
2869.629933747
 20
2294.6304414979
 30
0.0
 40
4.500000000000909
100
AcDbArc
 50
90.0
 51
270.0
  0
LINE
  5
2CA
330
1F
100
AcDbEntity
  8
0
  6
Continuous
 62
     7
370
    15
100
AcDbLine
 10
2900.6298822486
 20
2290.1304423673
 30
0.0
 11
2869.629983338
 21
2290.1304423673
 31
0.0
  0
ARC
  5
2CB
330
1F
100
AcDbEntity
  8
0
  6
Continuous
 62
     7
370
    15
100
AcDbCircle
 10
2900.629933747
 20
2294.6304414979
 30
0.0
 40
4.500000000000455
100
AcDbArc
 50
270.0
 51
90.0
  0
LINE
  5
2CC
330
1F
100
AcDbEntity
  8
0
  6
Continuous
 62
     7
370
    15
100
AcDbLine
 10
2869.629983338
 20
2326.1304557187
 30
0.0
 11
2900.6298822486
 21
2326.1304557187
 31
0.0
  0
ARC
  5
2CD
330
1F
100
AcDbEntity
  8
0
  6
Continuous
 62
     7
370
    15
100
AcDbCircle
 10
2869.629933747
 20
2321.6304414979
 30
0.0
 40
4.500000000000455
100
AcDbArc
 50
90.0
 51
270.0
  0
LINE
  5
2CE
330
1F
100
AcDbEntity
  8
0
  6
Continuous
 62
     7
370
    15
100
AcDbLine
 10
2900.6298822486
 20
2317.1304523809
 30
0.0
 11
2869.629983338
 21
2317.1304523809
 31
0.0
  0
ARC
  5
2CF
330
1F
100
AcDbEntity
  8
0
  6
Continuous
 62
     7
370
    15
100
AcDbCircle
 10
2900.629933747
 20
2321.6304414979
 30
0.0
 40
4.500000000000455
100
AcDbArc
 50
270.0
 51
90.0
  0
LINE
  5
2D0
330
1F
100
AcDbEntity
  8
0
  6
Continuous
 62
     7
370
    15
100
AcDbLine
 10
2819.6299118125
 20
2299.1304457052
 30
0.0
 11
2850.6299299323
 21
2299.1304457052
 31
0.0
  0
ARC
  5
2D1
330
1F
100
AcDbEntity
  8
0
  6
Continuous
 62
     7
370
    15
100
AcDbCircle
 10
2819.629933747
 20
2294.6304414979
 30
0.0
 40
4.500000000000455
100
AcDbArc
 50
90.0
 51
270.0
  0
LINE
  5
2D2
330
1F
100
AcDbEntity
  8
0
  6
Continuous
 62
     7
370
    15
100
AcDbLine
 10
2850.6299299323
 20
2290.1304423673
 30
0.0
 11
2819.6299118125
 21
2290.1304423673
 31
0.0
  0
ARC
  5
2D3
330
1F
100
AcDbEntity
  8
0
  6
Continuous
 62
     7
370
    15
100
AcDbCircle
 10
2850.629933747
 20
2294.6304414979
 30
0.0
 40
4.500000000000455
100
AcDbArc
 50
270.0
 51
90.0
  0
LINE
  5
2D4
330
1F
100
AcDbEntity
  8
0
  6
Continuous
 62
     7
370
    15
100
AcDbLine
 10
2819.6299118125
 20
2326.1304557187
 30
0.0
 11
2850.6299299323
 21
2326.1304557187
 31
0.0
  0
ARC
  5
2D5
330
1F
100
AcDbEntity
  8
0
  6
Continuous
 62
     7
370
    15
100
AcDbCircle
 10
2819.629933747
 20
2321.6304414979
 30
0.0
 40
4.500000000000455
100
AcDbArc
 50
90.0
 51
270.0
  0
LINE
  5
2D6
330
1F
100
AcDbEntity
  8
0
  6
Continuous
 62
     7
370
    15
100
AcDbLine
 10
2850.6299299323
 20
2317.1304523809
 30
0.0
 11
2819.6299118125
 21
2317.1304523809
 31
0.0
  0
ARC
  5
2D7
330
1F
100
AcDbEntity
  8
0
  6
Continuous
 62
     7
370
    15
100
AcDbCircle
 10
2850.629933747
 20
2321.6304414979
 30
0.0
 40
4.5
100
AcDbArc
 50
270.0
 51
90.0
  0
LINE
  5
2D8
330
1F
100
AcDbEntity
  8
0
  6
Continuous
 62
     7
370
    15
100
AcDbLine
 10
2669.6299356543
 20
2299.1304457052
 30
0.0
 11
2700.6299537741
 21
2299.1304457052
 31
0.0
  0
ARC
  5
2D9
330
1F
100
AcDbEntity
  8
0
  6
Continuous
 62
     7
370
    15
100
AcDbCircle
 10
2669.629933747
 20
2294.6304414979
 30
0.0
 40
4.500000000000909
100
AcDbArc
 50
90.0
 51
270.0
  0
LINE
  5
2DA
330
1F
100
AcDbEntity
  8
0
  6
Continuous
 62
     7
370
    15
100
AcDbLine
 10
2700.6299537741
 20
2290.1304423673
 30
0.0
 11
2669.6299356543
 21
2290.1304423673
 31
0.0
  0
ARC
  5
2DB
330
1F
100
AcDbEntity
  8
0
  6
Continuous
 62
     7
370
    15
100
AcDbCircle
 10
2700.629933747
 20
2294.6304414979
 30
0.0
 40
4.500000000000455
100
AcDbArc
 50
270.0
 51
90.0
  0
LINE
  5
2DC
330
1F
100
AcDbEntity
  8
0
  6
Continuous
 62
     7
370
    15
100
AcDbLine
 10
2669.6299356543
 20
2326.1304557187
 30
0.0
 11
2700.6299537741
 21
2326.1304557187
 31
0.0
  0
ARC
  5
2DD
330
1F
100
AcDbEntity
  8
0
  6
Continuous
 62
     7
370
    15
100
AcDbCircle
 10
2669.629933747
 20
2321.6304414979
 30
0.0
 40
4.500000000000455
100
AcDbArc
 50
90.0
 51
270.0
  0
LINE
  5
2DE
330
1F
100
AcDbEntity
  8
0
  6
Continuous
 62
     7
370
    15
100
AcDbLine
 10
2700.6299537741
 20
2317.1304523809
 30
0.0
 11
2669.6299356543
 21
2317.1304523809
 31
0.0
  0
ARC
  5
2DF
330
1F
100
AcDbEntity
  8
0
  6
Continuous
 62
     7
370
    15
100
AcDbCircle
 10
2700.629933747
 20
2321.6304414979
 30
0.0
 40
4.500000000000455
100
AcDbArc
 50
270.0
 51
90.0
  0
LINE
  5
2E0
330
1F
100
AcDbEntity
  8
0
  6
Continuous
 62
     7
370
    15
100
AcDbLine
 10
2619.629983338
 20
2299.1304457052
 30
0.0
 11
2650.6298822486
 21
2299.1304457052
 31
0.0
  0
ARC
  5
2E1
330
1F
100
AcDbEntity
  8
0
  6
Continuous
 62
     7
370
    15
100
AcDbCircle
 10
2619.629933747
 20
2294.6304414979
 30
0.0
 40
4.500000000000909
100
AcDbArc
 50
90.0
 51
270.0
  0
LINE
  5
2E2
330
1F
100
AcDbEntity
  8
0
  6
Continuous
 62
     7
370
    15
100
AcDbLine
 10
2650.6298822486
 20
2290.1304423673
 30
0.0
 11
2619.629983338
 21
2290.1304423673
 31
0.0
  0
ARC
  5
2E3
330
1F
100
AcDbEntity
  8
0
  6
Continuous
 62
     7
370
    15
100
AcDbCircle
 10
2650.629933747
 20
2294.6304414979
 30
0.0
 40
4.500000000000455
100
AcDbArc
 50
270.0
 51
90.0
  0
LINE
  5
2E4
330
1F
100
AcDbEntity
  8
0
  6
Continuous
 62
     7
370
    15
100
AcDbLine
 10
2619.629983338
 20
2326.1304557187
 30
0.0
 11
2650.6298822486
 21
2326.1304557187
 31
0.0
  0
ARC
  5
2E5
330
1F
100
AcDbEntity
  8
0
  6
Continuous
 62
     7
370
    15
100
AcDbCircle
 10
2619.629933747
 20
2321.6304414979
 30
0.0
 40
4.500000000000455
100
AcDbArc
 50
90.0
 51
270.0
  0
LINE
  5
2E6
330
1F
100
AcDbEntity
  8
0
  6
Continuous
 62
     7
370
    15
100
AcDbLine
 10
2650.6298822486
 20
2317.1304523809
 30
0.0
 11
2619.629983338
 21
2317.1304523809
 31
0.0
  0
ARC
  5
2E7
330
1F
100
AcDbEntity
  8
0
  6
Continuous
 62
     7
370
    15
100
AcDbCircle
 10
2650.629933747
 20
2321.6304414979
 30
0.0
 40
4.500000000000909
100
AcDbArc
 50
270.0
 51
90.0
  0
LINE
  5
2E8
330
1F
100
AcDbEntity
  8
0
  6
Continuous
 62
     7
370
    15
100
AcDbLine
 10
2569.6299118125
 20
2299.1304457052
 30
0.0
 11
2600.6299299323
 21
2299.1304457052
 31
0.0
  0
ARC
  5
2E9
330
1F
100
AcDbEntity
  8
0
  6
Continuous
 62
     7
370
    15
100
AcDbCircle
 10
2569.629933747
 20
2294.6304414979
 30
0.0
 40
4.500000000000455
100
AcDbArc
 50
90.0
 51
270.0
  0
LINE
  5
2EA
330
1F
100
AcDbEntity
  8
0
  6
Continuous
 62
     7
370
    15
100
AcDbLine
 10
2600.6299299323
 20
2290.1304423673
 30
0.0
 11
2569.6299118125
 21
2290.1304423673
 31
0.0
  0
ARC
  5
2EB
330
1F
100
AcDbEntity
  8
0
  6
Continuous
 62
     7
370
    15
100
AcDbCircle
 10
2600.629933747
 20
2294.6304414979
 30
0.0
 40
4.500000000000455
100
AcDbArc
 50
270.0
 51
90.0
  0
LINE
  5
2EC
330
1F
100
AcDbEntity
  8
0
  6
Continuous
 62
     7
370
    15
100
AcDbLine
 10
2519.6299594962
 20
2299.1304457052
 30
0.0
 11
2550.6299180114
 21
2299.1304457052
 31
0.0
  0
ARC
  5
2ED
330
1F
100
AcDbEntity
  8
0
  6
Continuous
 62
     7
370
    15
100
AcDbCircle
 10
2519.629933747
 20
2294.6304414979
 30
0.0
 40
4.500000000000909
100
AcDbArc
 50
90.0
 51
270.0
  0
LINE
  5
2EE
330
1F
100
AcDbEntity
  8
0
  6
Continuous
 62
     7
370
    15
100
AcDbLine
 10
2550.6299180114
 20
2290.1304423673
 30
0.0
 11
2519.6299594962
 21
2290.1304423673
 31
0.0
  0
ARC
  5
2EF
330
1F
100
AcDbEntity
  8
0
  6
Continuous
 62
     7
370
    15
100
AcDbCircle
 10
2550.629933747
 20
2294.6304414979
 30
0.0
 40
4.500000000000455
100
AcDbArc
 50
270.0
 51
90.0
  0
LINE
  5
2F0
330
1F
100
AcDbEntity
  8
0
  6
Continuous
 62
     7
370
    15
100
AcDbLine
 10
2550.6299180114
 20
2317.1304523809
 30
0.0
 11
2519.6299594962
 21
2317.1304523809
 31
0.0
  0
ARC
  5
2F1
330
1F
100
AcDbEntity
  8
0
  6
Continuous
 62
     7
370
    15
100
AcDbCircle
 10
2550.629933747
 20
2321.6304414979
 30
0.0
 40
4.500000000000455
100
AcDbArc
 50
270.0
 51
90.0
  0
LINE
  5
2F2
330
1F
100
AcDbEntity
  8
0
  6
Continuous
 62
     7
370
    15
100
AcDbLine
 10
2519.6299594962
 20
2326.1304557187
 30
0.0
 11
2550.6299180114
 21
2326.1304557187
 31
0.0
  0
ARC
  5
2F3
330
1F
100
AcDbEntity
  8
0
  6
Continuous
 62
     7
370
    15
100
AcDbCircle
 10
2519.629933747
 20
2321.6304414979
 30
0.0
 40
4.5
100
AcDbArc
 50
90.0
 51
270.0
  0
LINE
  5
2F4
330
1F
100
AcDbEntity
  8
0
  6
Continuous
 62
     7
370
    15
100
AcDbLine
 10
2569.6299118125
 20
2326.1304557187
 30
0.0
 11
2600.6299299323
 21
2326.1304557187
 31
0.0
  0
ARC
  5
2F5
330
1F
100
AcDbEntity
  8
0
  6
Continuous
 62
     7
370
    15
100
AcDbCircle
 10
2569.629933747
 20
2321.6304414979
 30
0.0
 40
4.500000000000455
100
AcDbArc
 50
90.0
 51
270.0
  0
LINE
  5
2F6
330
1F
100
AcDbEntity
  8
0
  6
Continuous
 62
     7
370
    15
100
AcDbLine
 10
2600.6299299323
 20
2317.1304523809
 30
0.0
 11
2569.6299118125
 21
2317.1304523809
 31
0.0
  0
ARC
  5
2F7
330
1F
100
AcDbEntity
  8
0
  6
Continuous
 62
     7
370
    15
100
AcDbCircle
 10
2600.629933747
 20
2321.6304414979
 30
0.0
 40
4.5
100
AcDbArc
 50
270.0
 51
90.0
  0
LINE
  5
2F8
330
1F
100
AcDbEntity
  8
0
  6
Continuous
 62
     7
370
    15
100
AcDbLine
 10
2769.6299594962
 20
2299.1304457052
 30
0.0
 11
2800.629977616
 21
2299.1304457052
 31
0.0
  0
ARC
  5
2F9
330
1F
100
AcDbEntity
  8
0
  6
Continuous
 62
     7
370
    15
100
AcDbCircle
 10
2769.629933747
 20
2294.6304414979
 30
0.0
 40
4.500000000000909
100
AcDbArc
 50
90.0
 51
270.0
  0
LINE
  5
2FA
330
1F
100
AcDbEntity
  8
0
  6
Continuous
 62
     7
370
    15
100
AcDbLine
 10
2800.629977616
 20
2290.1304423673
 30
0.0
 11
2769.6299594962
 21
2290.1304423673
 31
0.0
  0
ARC
  5
2FB
330
1F
100
AcDbEntity
  8
0
  6
Continuous
 62
     7
370
    15
100
AcDbCircle
 10
2800.629933747
 20
2294.6304414979
 30
0.0
 40
4.500000000000455
100
AcDbArc
 50
270.0
 51
90.0
  0
LINE
  5
2FC
330
1F
100
AcDbEntity
  8
0
  6
Continuous
 62
     7
370
    15
100
AcDbLine
 10
2719.6298879706
 20
2299.1304457052
 30
0.0
 11
2750.6299060904
 21
2299.1304457052
 31
0.0
  0
ARC
  5
2FD
330
1F
100
AcDbEntity
  8
0
  6
Continuous
 62
     7
370
    15
100
AcDbCircle
 10
2719.629933747
 20
2294.6304414979
 30
0.0
 40
4.500000000000455
100
AcDbArc
 50
90.0
 51
270.0
  0
LINE
  5
2FE
330
1F
100
AcDbEntity
  8
0
  6
Continuous
 62
     7
370
    15
100
AcDbLine
 10
2750.6299060904
 20
2290.1304423673
 30
0.0
 11
2719.6298879706
 21
2290.1304423673
 31
0.0
  0
ARC
  5
2FF
330
1F
100
AcDbEntity
  8
0
  6
Continuous
 62
     7
370
    15
100
AcDbCircle
 10
2750.629933747
 20
2294.6304414979
 30
0.0
 40
4.500000000000455
100
AcDbArc
 50
270.0
 51
90.0
  0
LINE
  5
300
330
1F
100
AcDbEntity
  8
0
  6
Continuous
 62
     7
370
    15
100
AcDbLine
 10
2750.6299060904
 20
2317.1304523809
 30
0.0
 11
2719.6298879706
 21
2317.1304523809
 31
0.0
  0
ARC
  5
301
330
1F
100
AcDbEntity
  8
0
  6
Continuous
 62
     7
370
    15
100
AcDbCircle
 10
2750.629933747
 20
2321.6304414979
 30
0.0
 40
4.500000000000909
100
AcDbArc
 50
270.0
 51
90.0
  0
LINE
  5
302
330
1F
100
AcDbEntity
  8
0
  6
Continuous
 62
     7
370
    15
100
AcDbLine
 10
2719.6298879706
 20
2326.1304557187
 30
0.0
 11
2750.6299060904
 21
2326.1304557187
 31
0.0
  0
ARC
  5
303
330
1F
100
AcDbEntity
  8
0
  6
Continuous
 62
     7
370
    15
100
AcDbCircle
 10
2719.629933747
 20
2321.6304414979
 30
0.0
 40
4.500000000000909
100
AcDbArc
 50
90.0
 51
270.0
  0
LINE
  5
304
330
1F
100
AcDbEntity
  8
0
  6
Continuous
 62
     7
370
    15
100
AcDbLine
 10
2769.6299594962
 20
2326.1304557187
 30
0.0
 11
2800.629977616
 21
2326.1304557187
 31
0.0
  0
ARC
  5
305
330
1F
100
AcDbEntity
  8
0
  6
Continuous
 62
     7
370
    15
100
AcDbCircle
 10
2769.629933747
 20
2321.6304414979
 30
0.0
 40
4.500000000000455
100
AcDbArc
 50
90.0
 51
270.0
  0
LINE
  5
306
330
1F
100
AcDbEntity
  8
0
  6
Continuous
 62
     7
370
    15
100
AcDbLine
 10
2800.629977616
 20
2317.1304523809
 30
0.0
 11
2769.6299594962
 21
2317.1304523809
 31
0.0
  0
ARC
  5
307
330
1F
100
AcDbEntity
  8
0
  6
Continuous
 62
     7
370
    15
100
AcDbCircle
 10
2800.629933747
 20
2321.6304414979
 30
0.0
 40
4.500000000000455
100
AcDbArc
 50
270.0
 51
90.0
  0
LINE
  5
308
330
1F
100
AcDbEntity
  8
0
  6
Continuous
 62
     7
370
    15
100
AcDbLine
 10
2513.6299175345
 20
2619.1304683549
 30
0.0
 11
2513.6299175345
 21
2650.1304268701
 31
0.0
  0
ARC
  5
309
330
1F
100
AcDbEntity
  8
0
  6
Continuous
 62
     7
370
    15
100
AcDbCircle
 10
2518.129933747
 20
2619.1304414975
 30
0.0
 40
4.500000000000455
100
AcDbArc
 50
180.0
 51
0.0
  0
LINE
  5
30A
330
1F
100
AcDbEntity
  8
0
  6
Continuous
 62
     7
370
    15
100
AcDbLine
 10
2522.6299208724
 20
2650.1304268701
 30
0.0
 11
2522.6299208724
 21
2619.1304683549
 31
0.0
  0
ARC
  5
30B
330
1F
100
AcDbEntity
  8
0
  6
Continuous
 62
     7
370
    15
100
AcDbCircle
 10
2518.129933747
 20
2650.1304414975
 30
0.0
 40
4.500000000000455
100
AcDbArc
 50
0.0
 51
180.0
  0
LINE
  5
30C
330
1F
100
AcDbEntity
  8
0
  6
Continuous
 62
     7
370
    15
100
AcDbLine
 10
2538.1299299323
 20
2338.1304502351
 30
0.0
 11
2538.1299299323
 21
2924.6304392679
 31
0.0
  0
LINE
  5
30D
330
1F
100
AcDbEntity
  8
0
  6
Continuous
 62
     7
370
    15
100
AcDbLine
 10
3002.1299165808
 20
2924.6304392679
 30
0.0
 11
3002.1299165808
 21
2338.1304502351
 31
0.0
  0
LINE
  5
30E
330
1F
100
AcDbEntity
  8
0
  6
Continuous
 62
     7
370
    15
100
AcDbLine
 10
2513.6299175345
 20
1969.1304419054
 30
0.0
 11
2513.6299175345
 21
2000.1304432614
 31
0.0
  0
ARC
  5
30F
330
1F
100
AcDbEntity
  8
0
  6
Continuous
 62
     7
370
    15
100
AcDbCircle
 10
2518.129933747
 20
1969.1304414975
 30
0.0
 40
4.5
100
AcDbArc
 50
180.0
 51
0.0
  0
LINE
  5
310
330
1F
100
AcDbEntity
  8
0
  6
Continuous
 62
     7
370
    15
100
AcDbLine
 10
2522.6299208724
 20
2000.1304432614
 30
0.0
 11
2522.6299208724
 21
1969.1304419054
 31
0.0
  0
ARC
  5
311
330
1F
100
AcDbEntity
  8
0
  6
Continuous
 62
     7
370
    15
100
AcDbCircle
 10
2518.129933747
 20
2000.1304414975
 30
0.0
 40
4.500000000000455
100
AcDbArc
 50
0.0
 51
180.0
  0
LINE
  5
312
330
1F
100
AcDbEntity
  8
0
  6
Continuous
 62
     7
370
    15
100
AcDbLine
 10
2538.1299299323
 20
1691.1304354532
 30
0.0
 11
2538.1299299323
 21
2278.1304478509
 31
0.0
  0
LINE
  5
313
330
1F
100
AcDbEntity
  8
0
  6
Continuous
 62
     7
370
    15
100
AcDbLine
 10
3002.1299165808
 20
1631.130433069
 30
0.0
 11
3002.1299165808
 21
1044.6304440362
 31
0.0
  0
LINE
  5
314
330
1F
100
AcDbEntity
  8
0
  6
Continuous
 62
     7
370
    15
100
AcDbLine
 10
2513.6299175345
 20
1319.130456434
 30
0.0
 11
2513.6299175345
 21
1350.1304149492
 31
0.0
  0
ARC
  5
315
330
1F
100
AcDbEntity
  8
0
  6
Continuous
 62
     7
370
    15
100
AcDbCircle
 10
2518.129933747
 20
1319.1304414975
 30
0.0
 40
4.5
100
AcDbArc
 50
180.0
 51
0.0
  0
LINE
  5
316
330
1F
100
AcDbEntity
  8
0
  6
Continuous
 62
     7
370
    15
100
AcDbLine
 10
2522.6299208724
 20
1350.1304149492
 30
0.0
 11
2522.6299208724
 21
1319.130456434
 31
0.0
  0
ARC
  5
317
330
1F
100
AcDbEntity
  8
0
  6
Continuous
 62
     7
370
    15
100
AcDbCircle
 10
2518.129933747
 20
1350.1304414975
 30
0.0
 40
4.5
100
AcDbArc
 50
0.0
 51
180.0
  0
LINE
  5
318
330
1F
100
AcDbEntity
  8
0
  6
Continuous
 62
     7
370
    15
100
AcDbLine
 10
2538.1299299323
 20
1044.6304440362
 30
0.0
 11
2538.1299299323
 21
1631.130433069
 31
0.0
  0
LINE
  5
319
330
1F
100
AcDbEntity
  8
0
  6
Continuous
 62
     7
370
    15
100
AcDbLine
 10
3002.1299165808
 20
2278.1304478509
 30
0.0
 11
3002.1299165808
 21
1691.1304354532
 31
0.0
  0
LINE
  5
31A
330
1F
100
AcDbEntity
  8
0
  6
Continuous
 62
     7
370
    15
100
AcDbLine
 10
3002.1299165808
 20
2972.3730444772
 30
0.0
 11
3002.1299165808
 21
2963.8878464563
 31
0.0
  0
LINE
  5
31B
330
1F
100
AcDbEntity
  8
0
  6
Continuous
 62
     7
370
    15
100
AcDbLine
 10
2538.1299299323
 20
2936.6304635865
 30
0.0
 11
2538.1299299323
 21
2945.6304669244
 31
0.0
  0
LINE
  5
31C
330
1F
100
AcDbEntity
  8
0
  6
Continuous
 62
     7
370
    15
100
AcDbLine
 10
2538.1299299323
 20
2963.6304736001
 30
0.0
 11
2538.1299299323
 21
2972.6304173333
 31
0.0
  0
LINE
  5
31D
330
1F
100
AcDbEntity
  8
0
  6
Continuous
 62
     7
370
    15
100
AcDbLine
 10
3002.1299165808
 20
2945.3730940683
 30
0.0
 11
3002.1299165808
 21
2936.887776838
 31
0.0
  0
LINE
  5
31E
330
1F
100
AcDbEntity
  8
0
  6
Continuous
 62
     7
370
    15
100
AcDbLine
 10
3002.1299165808
 20
1005.3730964525
 30
0.0
 11
3002.1299165808
 21
996.8877792222
 31
0.0
  0
LINE
  5
31F
330
1F
100
AcDbEntity
  8
0
  6
Continuous
 62
     7
370
    15
100
AcDbLine
 10
2538.1299299323
 20
1643.1304275853
 30
0.0
 11
2538.1299299323
 21
1652.1304309232
 31
0.0
  0
LINE
  5
320
330
1F
100
AcDbEntity
  8
0
  6
Continuous
 62
     7
370
    15
100
AcDbLine
 10
2538.1299299323
 20
1670.1304375989
 30
0.0
 11
2538.1299299323
 21
1679.1304409368
 31
0.0
  0
LINE
  5
321
330
1F
100
AcDbEntity
  8
0
  6
Continuous
 62
     7
370
    15
100
AcDbLine
 10
3002.1299165808
 20
1651.8730878694
 30
0.0
 11
3002.1299165808
 21
1643.3878004415
 31
0.0
  0
LINE
  5
322
330
1F
100
AcDbEntity
  8
0
  6
Continuous
 62
     7
370
    15
100
AcDbLine
 10
2538.1299299323
 20
2290.1304423673
 30
0.0
 11
2538.1299299323
 21
2299.1304457052
 31
0.0
  0
LINE
  5
323
330
1F
100
AcDbEntity
  8
0
  6
Continuous
 62
     7
370
    15
100
AcDbLine
 10
2538.1299299323
 20
2317.1304523809
 30
0.0
 11
2538.1299299323
 21
2326.1304557187
 31
0.0
  0
LINE
  5
324
330
1F
100
AcDbEntity
  8
0
  6
Continuous
 62
     7
370
    15
100
AcDbLine
 10
3002.1299165808
 20
2298.873072849
 30
0.0
 11
3002.1299165808
 21
2290.3878152234
 31
0.0
  0
LINE
  5
325
330
1F
100
AcDbEntity
  8
0
  6
Continuous
 62
     7
370
    15
100
AcDbLine
 10
2538.1299299323
 20
996.6304659707
 30
0.0
 11
2538.1299299323
 21
1005.6304693086
 31
0.0
  0
LINE
  5
326
330
1F
100
AcDbEntity
  8
0
  6
Continuous
 62
     7
370
    15
100
AcDbLine
 10
2538.1299299323
 20
1023.6304163797
 30
0.0
 11
2538.1299299323
 21
1032.6304197175
 31
0.0
  0
LINE
  5
327
330
1F
100
AcDbEntity
  8
0
  6
Continuous
 62
     7
370
    15
100
AcDbLine
 10
3002.1299165808
 20
1678.8730680806
 30
0.0
 11
3002.1299165808
 21
1670.3878104551
 31
0.0
  0
LINE
  5
328
330
1F
100
AcDbEntity
  8
0
  6
Continuous
 62
     7
370
    15
100
AcDbLine
 10
3002.1299165808
 20
1032.373106466
 30
0.0
 11
3002.1299165808
 21
1023.8877892358
 31
0.0
  0
LINE
  5
329
330
1F
100
AcDbEntity
  8
0
  6
Continuous
 62
     7
370
    15
100
AcDbLine
 10
3002.1299165808
 20
2325.8730828626
 30
0.0
 11
3002.1299165808
 21
2317.3877954347
 31
0.0
  0
DIMENSION
  5
32A
330
1F
100
AcDbEntity
  8
0
  6
Continuous
 62
     7
370
     0
100
AcDbDimension
  2
_D_5
 10
3060.129933747
 20
890.6304164975
 30
0.0
 11
2759.0100576744
 21
890.6304164975
 31
0.0
 70
   160
  1
<>
 71
     2
 42
-1.0
  3
SLDDIMSTYLE0
100
AcDbAlignedDimension
 13
2460.129933747
 23
984.6304414975
 33
0.0
 14
3060.129933747
 24
984.6304414975
 34
0.0
 50
0.0
100
AcDbRotatedDimension
  0
ENDSEC
  0
SECTION
  2
OBJECTS
  0
DICTIONARY
  5
C
330
0
100
AcDbDictionary
281
     1
  3
ACAD_GROUP
350
D
  3
ACAD_LAYOUT
350
1A
  3
ACAD_MLINESTYLE
350
17
  3
ACAD_PLOTSETTINGS
350
19
  3
ACAD_PLOTSTYLENAME
350
E
  3
ACAD_SCALELIST
350
47
  0
DICTIONARY
  5
D
102
{ACAD_REACTORS
330
C
102
}
330
C
100
AcDbDictionary
281
     1
  0
DICTIONARY
  5
1A
102
{ACAD_REACTORS
330
C
102
}
330
C
100
AcDbDictionary
281
     1
  3
Layout1
350
1E
  3
Layout2
350
26
  3
Model
350
22
  0
DICTIONARY
  5
17
102
{ACAD_REACTORS
330
C
102
}
330
C
100
AcDbDictionary
281
     1
  3
Standard
350
18
  0
DICTIONARY
  5
19
102
{ACAD_REACTORS
330
C
102
}
330
C
100
AcDbDictionary
281
     1
  0
ACDBDICTIONARYWDFLT
  5
E
102
{ACAD_REACTORS
330
C
102
}
330
C
100
AcDbDictionary
281
     1
  3
Normal
350
F
100
AcDbDictionaryWithDefault
340
F
  0
DICTIONARY
  5
47
102
{ACAD_REACTORS
330
C
102
}
330
C
100
AcDbDictionary
281
     1
  3
A0
350
48
  3
A1
350
49
  3
A2
350
4A
  3
A3
350
4B
  3
A4
350
4C
  3
A5
350
4D
  3
A6
350
4E
  3
A7
350
4F
  3
A8
350
50
  3
A9
350
51
  3
B0
350
52
  3
B1
350
53
  3
B2
350
54
  3
B3
350
55
  3
B4
350
56
  3
B5
350
57
  3
B6
350
58
  3
B7
350
59
  3
B8
350
5A
  3
B9
350
5B
  3
C0
350
5C
  3
C1
350
5D
  3
C2
350
5E
  3
C3
350
5F
  3
C4
350
60
  3
C5
350
61
  3
C6
350
62
  3
C7
350
63
  3
C8
350
64
  3
C9
350
65
  3
D0
350
66
  3
D1
350
67
  3
D2
350
68
  0
LAYOUT
  5
1E
102
{ACAD_REACTORS
330
1A
102
}
330
1A
100
AcDbPlotSettings
  1

  2
none_device
  4

  6

 40
0.0
 41
0.0
 42
0.0
 43
0.0
 44
0.0
 45
0.0
 46
0.0
 47
0.0
 48
0.0
 49
0.0
140
0.0
141
0.0
142
1.0
143
1.0
 70
   688
 72
     1
 73
     0
 74
     5
  7

 75
    16
147
1.0
148
0.0
149
0.0
100
AcDbLayout
  1
Layout1
 70
     1
 71
     1
 10
0.0
 20
0.0
 11
420.0
 21
297.0
 12
0.0
 22
0.0
 32
0.0
 14
1.0000000000E+20
 24
1.0000000000E+20
 34
1.0000000000E+20
 15
-1.0000000000E+20
 25
-1.0000000000E+20
 35
-1.0000000000E+20
146
0.0
 13
0.0
 23
0.0
 33
0.0
 16
1.0
 26
0.0
 36
0.0
 17
0.0
 27
1.0
 37
0.0
 76
     0
330
1B
  0
LAYOUT
  5
26
102
{ACAD_REACTORS
330
1A
102
}
330
1A
100
AcDbPlotSettings
  1

  2
none_device
  4

  6

 40
0.0
 41
0.0
 42
0.0
 43
0.0
 44
0.0
 45
0.0
 46
0.0
 47
0.0
 48
0.0
 49
0.0
140
0.0
141
0.0
142
1.0
143
1.0
 70
   688
 72
     1
 73
     0
 74
     5
  7

 75
    16
147
1.0
148
0.0
149
0.0
100
AcDbLayout
  1
Layout2
 70
     1
 71
     2
 10
0.0
 20
0.0
 11
0.0
 21
0.0
 12
0.0
 22
0.0
 32
0.0
 14
0.0
 24
0.0
 34
0.0
 15
0.0
 25
0.0
 35
0.0
146
0.0
 13
0.0
 23
0.0
 33
0.0
 16
1.0
 26
0.0
 36
0.0
 17
0.0
 27
1.0
 37
0.0
 76
     0
330
23
  0
LAYOUT
  5
22
102
{ACAD_REACTORS
330
1A
102
}
330
1A
100
AcDbPlotSettings
  1

  2
none_device
  4
Letter_(8.50_x_11.00_Inches)
  6

 40
6.35
 41
6.35
 42
6.35000508
 43
6.35000508
 44
215.9
 45
279.4
 46
0.0
 47
0.0
 48
0.0
 49
0.0
140
0.0
141
0.0
142
1.0
143
1.0
 70
  1712
 72
     1
 73
     0
 74
     0
  7

 75
     0
147
1.0
148
0.0
149
0.0
100
AcDbLayout
  1
Model
 70
     1
 71
     0
 10
0.0
 20
0.0
 11
279.4
 21
215.9
 12
0.0
 22
0.0
 32
0.0
 14
0.0
 24
0.0
 34
0.0
 15
279.4
 25
215.9
 35
0.0
146
0.0
 13
0.0
 23
0.0
 33
0.0
 16
1.0
 26
0.0
 36
0.0
 17
0.0
 27
1.0
 37
0.0
 76
     0
330
1F
331
29
  0
MLINESTYLE
  5
18
102
{ACAD_REACTORS
330
17
102
}
330
17
100
AcDbMlineStyle
  2
Standard
 70
     0
  3

 62
   256
 51
90.0
 52
90.0
 71
     2
 49
0.5
 62
   256
  6
BYLAYER
 49
-0.5
 62
   256
  6
BYLAYER
  0
ACDBPLACEHOLDER
  5
F
102
{ACAD_REACTORS
330
E
102
}
330
E
  0
SCALE
  5
48
102
{ACAD_REACTORS
330
47
102
}
330
47
100
AcDbScale
 70
     0
300
1:1
140
1.0
141
1.0
290
     1
  0
SCALE
  5
49
102
{ACAD_REACTORS
330
47
102
}
330
47
100
AcDbScale
 70
     0
300
1:2
140
1.0
141
2.0
290
     0
  0
SCALE
  5
4A
102
{ACAD_REACTORS
330
47
102
}
330
47
100
AcDbScale
 70
     0
300
1:4
140
1.0
141
4.0
290
     0
  0
SCALE
  5
4B
102
{ACAD_REACTORS
330
47
102
}
330
47
100
AcDbScale
 70
     0
300
1:5
140
1.0
141
5.0
290
     0
  0
SCALE
  5
4C
102
{ACAD_REACTORS
330
47
102
}
330
47
100
AcDbScale
 70
     0
300
1:8
140
1.0
141
8.0
290
     0
  0
SCALE
  5
4D
102
{ACAD_REACTORS
330
47
102
}
330
47
100
AcDbScale
 70
     0
300
1:10
140
1.0
141
10.0
290
     0
  0
SCALE
  5
4E
102
{ACAD_REACTORS
330
47
102
}
330
47
100
AcDbScale
 70
     0
300
1:16
140
1.0
141
16.0
290
     0
  0
SCALE
  5
4F
102
{ACAD_REACTORS
330
47
102
}
330
47
100
AcDbScale
 70
     0
300
1:20
140
1.0
141
20.0
290
     0
  0
SCALE
  5
50
102
{ACAD_REACTORS
330
47
102
}
330
47
100
AcDbScale
 70
     0
300
1:30
140
1.0
141
30.0
290
     0
  0
SCALE
  5
51
102
{ACAD_REACTORS
330
47
102
}
330
47
100
AcDbScale
 70
     0
300
1:40
140
1.0
141
40.0
290
     0
  0
SCALE
  5
52
102
{ACAD_REACTORS
330
47
102
}
330
47
100
AcDbScale
 70
     0
300
1:50
140
1.0
141
50.0
290
     0
  0
SCALE
  5
53
102
{ACAD_REACTORS
330
47
102
}
330
47
100
AcDbScale
 70
     0
300
1:100
140
1.0
141
100.0
290
     0
  0
SCALE
  5
54
102
{ACAD_REACTORS
330
47
102
}
330
47
100
AcDbScale
 70
     0
300
2:1
140
2.0
141
1.0
290
     0
  0
SCALE
  5
55
102
{ACAD_REACTORS
330
47
102
}
330
47
100
AcDbScale
 70
     0
300
4:1
140
4.0
141
1.0
290
     0
  0
SCALE
  5
56
102
{ACAD_REACTORS
330
47
102
}
330
47
100
AcDbScale
 70
     0
300
8:1
140
8.0
141
1.0
290
     0
  0
SCALE
  5
57
102
{ACAD_REACTORS
330
47
102
}
330
47
100
AcDbScale
 70
     0
300
10:1
140
10.0
141
1.0
290
     0
  0
SCALE
  5
58
102
{ACAD_REACTORS
330
47
102
}
330
47
100
AcDbScale
 70
     0
300
100:1
140
100.0
141
1.0
290
     0
  0
SCALE
  5
59
102
{ACAD_REACTORS
330
47
102
}
330
47
100
AcDbScale
 70
     0
300
1/128" = 1'-0"
140
0.0078125
141
12.0
290
     0
  0
SCALE
  5
5A
102
{ACAD_REACTORS
330
47
102
}
330
47
100
AcDbScale
 70
     0
300
1/64" = 1'-0"
140
0.015625
141
12.0
290
     0
  0
SCALE
  5
5B
102
{ACAD_REACTORS
330
47
102
}
330
47
100
AcDbScale
 70
     0
300
1/32" = 1'-0"
140
0.03125
141
12.0
290
     0
  0
SCALE
  5
5C
102
{ACAD_REACTORS
330
47
102
}
330
47
100
AcDbScale
 70
     0
300
1/16" = 1'-0"
140
0.0625
141
12.0
290
     0
  0
SCALE
  5
5D
102
{ACAD_REACTORS
330
47
102
}
330
47
100
AcDbScale
 70
     0
300
3/32" = 1'-0"
140
0.09375
141
12.0
290
     0
  0
SCALE
  5
5E
102
{ACAD_REACTORS
330
47
102
}
330
47
100
AcDbScale
 70
     0
300
1/8" = 1'-0"
140
0.125
141
12.0
290
     0
  0
SCALE
  5
5F
102
{ACAD_REACTORS
330
47
102
}
330
47
100
AcDbScale
 70
     0
300
3/16" = 1'-0"
140
0.1875
141
12.0
290
     0
  0
SCALE
  5
60
102
{ACAD_REACTORS
330
47
102
}
330
47
100
AcDbScale
 70
     0
300
1/4" = 1'-0"
140
0.25
141
12.0
290
     0
  0
SCALE
  5
61
102
{ACAD_REACTORS
330
47
102
}
330
47
100
AcDbScale
 70
     0
300
3/8" = 1'-0"
140
0.375
141
12.0
290
     0
  0
SCALE
  5
62
102
{ACAD_REACTORS
330
47
102
}
330
47
100
AcDbScale
 70
     0
300
1/2" = 1'-0"
140
0.5
141
12.0
290
     0
  0
SCALE
  5
63
102
{ACAD_REACTORS
330
47
102
}
330
47
100
AcDbScale
 70
     0
300
3/4" = 1'-0"
140
0.75
141
12.0
290
     0
  0
SCALE
  5
64
102
{ACAD_REACTORS
330
47
102
}
330
47
100
AcDbScale
 70
     0
300
1" = 1'-0"
140
1.0
141
12.0
290
     0
  0
SCALE
  5
65
102
{ACAD_REACTORS
330
47
102
}
330
47
100
AcDbScale
 70
     0
300
1-1/2" = 1'-0"
140
1.5
141
12.0
290
     0
  0
SCALE
  5
66
102
{ACAD_REACTORS
330
47
102
}
330
47
100
AcDbScale
 70
     0
300
3" = 1'-0"
140
3.0
141
12.0
290
     0
  0
SCALE
  5
67
102
{ACAD_REACTORS
330
47
102
}
330
47
100
AcDbScale
 70
     0
300
6" = 1'-0"
140
6.0
141
12.0
290
     0
  0
SCALE
  5
68
102
{ACAD_REACTORS
330
47
102
}
330
47
100
AcDbScale
 70
     0
300
1'-0" = 1'-0"
140
12.0
141
12.0
290
     0
  0
ENDSEC
  0
EOF
