  0
SECTION
  2
HEADER
  9
$ACADVER
  1
AC1015
  9
$ACADMAINTVER
 70
     6
  9
$DWGCODEPAGE
  3
ANSI_1251
  9
$INSBASE
 10
0.0
 20
0.0
 30
0.0
  9
$EXTMIN
 10
0.0
 20
0.0
 30
0.0
  9
$EXTMAX
 10
420.0
 20
297.0
 30
0.0
  9
$LIMMIN
 10
0.0
 20
0.0
  9
$LIMMAX
 10
420.0
 20
297.0
  9
$ORTHOMODE
 70
     0
  9
$REGENMODE
 70
     1
  9
$FILLMODE
 70
     1
  9
$QTEXTMODE
 70
     0
  9
$MIRRTEXT
 70
     1
  9
$LTSCALE
 40
1.0
  9
$ATTMODE
 70
     1
  9
$TEXTSIZE
 40
5.0
  9
$TRACEWID
 40
1.0
  9
$TEXTSTYLE
  7
Standard
  9
$CLAYER
  8
0
  9
$CELTYPE
  6
ByLayer
  9
$CECOLOR
 62
   256
  9
$CELTSCALE
 40
1.0
  9
$DISPSILH
 70
     0
  9
$DIMSCALE
 40
1.0
  9
$DIMASZ
 40
5.0
  9
$DIMEXO
 40
0.0
  9
$DIMDLI
 40
3.75
  9
$DIMRND
 40
0.0
  9
$DIMDLE
 40
0.0
  9
$DIMEXE
 40
1.0
  9
$DIMTP
 40
0.0
  9
$DIMTM
 40
0.0
  9
$DIMTXT
 40
3.5
  9
$DIMCEN
 40
2.5
  9
$DIMTSZ
 40
0.0
  9
$DIMTOL
 70
     0
  9
$DIMLIM
 70
     0
  9
$DIMTIH
 70
     1
  9
$DIMTOH
 70
     1
  9
$DIMSE1
 70
     0
  9
$DIMSE2
 70
     0
  9
$DIMTAD
 70
     1
  9
$DIMZIN
 70
     0
  9
$DIMBLK
  1

  9
$DIMASO
 70
     1
  9
$DIMSHO
 70
     1
  9
$DIMPOST
  1

  9
$DIMAPOST
  1

  9
$DIMALT
 70
     0
  9
$DIMALTD
 70
     3
  9
$DIMALTF
 40
0.0393700787
  9
$DIMLFAC
 40
1.0
  9
$DIMTOFL
 70
     1
  9
$DIMTVP
 40
0.0
  9
$DIMTIX
 70
     0
  9
$DIMSOXD
 70
     0
  9
$DIMSAH
 70
     0
  9
$DIMBLK1
  1

  9
$DIMBLK2
  1

  9
$DIMSTYLE
  2
ISO-25
  9
$DIMCLRD
 70
     0
  9
$DIMCLRE
 70
     0
  9
$DIMCLRT
 70
     0
  9
$DIMTFAC
 40
1.0
  9
$DIMGAP
 40
1.5
  9
$DIMJUST
 70
     0
  9
$DIMSD1
 70
     0
  9
$DIMSD2
 70
     0
  9
$DIMTOLJ
 70
     0
  9
$DIMTZIN
 70
     0
  9
$DIMALTZ
 70
     0
  9
$DIMALTTZ
 70
     0
  9
$DIMUPT
 70
     0
  9
$DIMDEC
 70
     1
  9
$DIMTDEC
 70
     1
  9
$DIMALTU
 70
     2
  9
$DIMALTTD
 70
     3
  9
$DIMTXSTY
  7
Standard
  9
$DIMAUNIT
 70
     0
  9
$DIMADEC
 70
     2
  9
$DIMALTRND
 40
0.0
  9
$DIMAZIN
 70
     0
  9
$DIMDSEP
 70
    44
  9
$DIMATFIT
 70
     3
  9
$DIMFRAC
 70
     0
  9
$DIMLDRBLK
  1

  9
$DIMLUNIT
 70
     2
  9
$DIMLWD
 70
    -2
  9
$DIMLWE
 70
    -2
  9
$DIMTMOVE
 70
     0
  9
$LUNITS
 70
     2
  9
$LUPREC
 70
     1
  9
$SKETCHINC
 40
1.0
  9
$FILLETRAD
 40
0.0
  9
$AUNITS
 70
     0
  9
$AUPREC
 70
     2
  9
$MENU
  1
.
  9
$ELEVATION
 40
0.0
  9
$PELEVATION
 40
0.0
  9
$THICKNESS
 40
0.0
  9
$LIMCHECK
 70
     0
  9
$CHAMFERA
 40
0.0
  9
$CHAMFERB
 40
0.0
  9
$CHAMFERC
 40
0.0
  9
$CHAMFERD
 40
0.0
  9
$SKPOLY
 70
     0
  9
$TDCREATE
 40
2460398.535340359
  9
$TDUCREATE
 40
2460398.410340359
  9
$TDUPDATE
 40
2460398.535341979
  9
$TDUUPDATE
 40
2460398.410341979
  9
$TDINDWG
 40
0.0000000116
  9
$TDUSRTIMER
 40
0.0000000116
  9
$USRTIMER
 70
     1
  9
$ANGBASE
 50
0.0
  9
$ANGDIR
 70
     0
  9
$PDMODE
 70
     0
  9
$PDSIZE
 40
-1.0
  9
$PLINEWID
 40
0.0
  9
$SPLFRAME
 70
     0
  9
$SPLINETYPE
 70
     6
  9
$SPLINESEGS
 70
     8
  9
$HANDSEED
  5
481
  9
$SURFTAB1
 70
     6
  9
$SURFTAB2
 70
     6
  9
$SURFTYPE
 70
     6
  9
$SURFU
 70
     6
  9
$SURFV
 70
     6
  9
$UCSBASE
  2

  9
$UCSNAME
  2

  9
$UCSORG
 10
0.0
 20
0.0
 30
0.0
  9
$UCSXDIR
 10
1.0
 20
0.0
 30
0.0
  9
$UCSYDIR
 10
0.0
 20
1.0
 30
0.0
  9
$UCSORTHOREF
  2

  9
$UCSORTHOVIEW
 70
     0
  9
$UCSORGTOP
 10
0.0
 20
0.0
 30
0.0
  9
$UCSORGBOTTOM
 10
0.0
 20
0.0
 30
0.0
  9
$UCSORGLEFT
 10
0.0
 20
0.0
 30
0.0
  9
$UCSORGRIGHT
 10
0.0
 20
0.0
 30
0.0
  9
$UCSORGFRONT
 10
0.0
 20
0.0
 30
0.0
  9
$UCSORGBACK
 10
0.0
 20
0.0
 30
0.0
  9
$PUCSBASE
  2

  9
$PUCSNAME
  2

  9
$PUCSORG
 10
0.0
 20
0.0
 30
0.0
  9
$PUCSXDIR
 10
1.0
 20
0.0
 30
0.0
  9
$PUCSYDIR
 10
0.0
 20
1.0
 30
0.0
  9
$PUCSORTHOREF
  2

  9
$PUCSORTHOVIEW
 70
     0
  9
$PUCSORGTOP
 10
0.0
 20
0.0
 30
0.0
  9
$PUCSORGBOTTOM
 10
0.0
 20
0.0
 30
0.0
  9
$PUCSORGLEFT
 10
0.0
 20
0.0
 30
0.0
  9
$PUCSORGRIGHT
 10
0.0
 20
0.0
 30
0.0
  9
$PUCSORGFRONT
 10
0.0
 20
0.0
 30
0.0
  9
$PUCSORGBACK
 10
0.0
 20
0.0
 30
0.0
  9
$USERI1
 70
     0
  9
$USERI2
 70
     0
  9
$USERI3
 70
     0
  9
$USERI4
 70
     0
  9
$USERI5
 70
     0
  9
$USERR1
 40
0.0
  9
$USERR2
 40
0.0
  9
$USERR3
 40
0.0
  9
$USERR4
 40
0.0
  9
$USERR5
 40
0.0
  9
$WORLDVIEW
 70
     1
  9
$SHADEDGE
 70
     3
  9
$SHADEDIF
 70
    70
  9
$TILEMODE
 70
     1
  9
$MAXACTVP
 70
    64
  9
$PINSBASE
 10
0.0
 20
0.0
 30
0.0
  9
$PLIMCHECK
 70
     0
  9
$PEXTMIN
 10
1.0000000000E+20
 20
1.0000000000E+20
 30
1.0000000000E+20
  9
$PEXTMAX
 10
-1.0000000000E+20
 20
-1.0000000000E+20
 30
-1.0000000000E+20
  9
$PLIMMIN
 10
0.0
 20
0.0
  9
$PLIMMAX
 10
420.0
 20
297.0
  9
$UNITMODE
 70
     0
  9
$VISRETAIN
 70
     1
  9
$PLINEGEN
 70
     0
  9
$PSLTSCALE
 70
     1
  9
$TREEDEPTH
 70
  3020
  9
$CMLSTYLE
  2
Standard
  9
$CMLJUST
 70
     0
  9
$CMLSCALE
 40
20.0
  9
$PROXYGRAPHICS
 70
     1
  9
$MEASUREMENT
 70
     1
  9
$CELWEIGHT
370
    -1
  9
$ENDCAPS
280
     0
  9
$JOINSTYLE
280
     0
  9
$LWDISPLAY
290
     1
  9
$INSUNITS
 70
     4
  9
$HYPERLINKBASE
  1

  9
$STYLESHEET
  1

  9
$XEDIT
290
     1
  9
$CEPSNTYPE
380
     0
  9
$PSTYLEMODE
290
     1
  9
$FINGERPRINTGUID
  2
{ab5e6e0e-fd8d-4efb-8139-79bb74f0d417}
  9
$VERSIONGUID
  2
{FAEB1C32-E019-11D5-929B-00C0DF256EC4}
  9
$EXTNAMES
290
     1
  9
$PSVPSCALE
 40
0.0
  9
$OLESTARTUP
290
     0
  0
ENDSEC
  0
SECTION
  2
CLASSES
  0
CLASS
  1
ACDBDICTIONARYWDFLT
  2
AcDbDictionaryWithDefault
  3
ObjectDBX Classes
 90
        0
280
     0
281
     0
  0
CLASS
  1
VISUALSTYLE
  2
AcDbVisualStyle
  3
ObjectDBX Classes
 90
     4095
280
     0
281
     0
  0
CLASS
  1
MATERIAL
  2
AcDbMaterial
  3
ObjectDBX Classes
 90
     1153
280
     0
281
     0
  0
CLASS
  1
SCALE
  2
AcDbScale
  3
ObjectDBX Classes
 90
     1153
280
     0
281
     0
  0
CLASS
  1
TABLESTYLE
  2
AcDbTableStyle
  3
ObjectDBX Classes
 90
     4095
280
     0
281
     0
  0
CLASS
  1
MLEADERSTYLE
  2
AcDbMLeaderStyle
  3
ACDB_MLEADERSTYLE_CLASS
 90
     4095
280
     0
281
     0
  0
CLASS
  1
SUN
  2
AcDbSun
  3
SCENEOE
 90
     1153
280
     0
281
     0
  0
CLASS
  1
ACDBPLACEHOLDER
  2
AcDbPlaceHolder
  3
ObjectDBX Classes
 90
        0
280
     0
281
     0
  0
CLASS
  1
LAYOUT
  2
AcDbLayout
  3
ObjectDBX Classes
 90
        0
280
     0
281
     0
  0
ENDSEC
  0
SECTION
  2
TABLES
  0
TABLE
  2
VPORT
  5
8
330
0
100
AcDbSymbolTable
 70
     1
  0
VPORT
  5
29
330
8
100
AcDbSymbolTableRecord
100
AcDbViewportTableRecord
  2
*Active
 70
     0
 10
0.0
 20
0.0
 11
1.0
 21
1.0
 12
210.0
 22
148.5
 13
0.0
 23
0.0
 14
10.0
 24
10.0
 15
10.0
 25
10.0
 16
0.0
 26
0.0
 36
1.0
 17
0.0
 27
0.0
 37
0.0
 40
297.0
 41
1.4141414141
 42
50.0
 43
0.0
 44
0.0
 50
0.0
 51
0.0
 71
     0
 72
  2000
 73
     1
 74
     3
 75
     0
 76
     0
 77
     0
 78
     0
281
     0
 65
     1
110
0.0
120
0.0
130
0.0
111
1.0
121
0.0
131
0.0
112
0.0
122
1.0
132
0.0
 79
     0
146
0.0
  0
ENDTAB
  0
TABLE
  2
LTYPE
  5
5
330
0
100
AcDbSymbolTable
 70
     6
  0
LTYPE
  5
14
330
5
100
AcDbSymbolTableRecord
100
AcDbLinetypeTableRecord
  2
ByBlock
 70
     0
  3

 72
    65
 73
     0
 40
0.0
  0
LTYPE
  5
15
330
5
100
AcDbSymbolTableRecord
100
AcDbLinetypeTableRecord
  2
ByLayer
 70
     0
  3

 72
    65
 73
     0
 40
0.0
  0
LTYPE
  5
16
330
5
100
AcDbSymbolTableRecord
100
AcDbLinetypeTableRecord
  2
Continuous
 70
     0
  3
Solid line
 72
    65
 73
     0
 40
0.0
  0
LTYPE
  5
5E
330
5
100
AcDbSymbolTableRecord
100
AcDbLinetypeTableRecord
  2
HIDDEN
 70
     0
  3
Hidden __ __ __ __ __ __ __ __ __ __ __ __ __ __
 72
    65
 73
     2
 40
1.905
 49
1.27
 74
     0
 49
-0.635
 74
     0
  0
LTYPE
  5
5F
330
5
100
AcDbSymbolTableRecord
100
AcDbLinetypeTableRecord
  2
PHANTOM
 70
     0
  3
Phantom ______  __  __  ______  __  __  ______
 72
    65
 73
     6
 40
12.7
 49
6.35
 74
     0
 49
-1.27
 74
     0
 49
1.27
 74
     0
 49
-1.27
 74
     0
 49
1.27
 74
     0
 49
-1.27
 74
     0
  0
LTYPE
  5
60
330
5
100
AcDbSymbolTableRecord
100
AcDbLinetypeTableRecord
  2
CENTER
 70
     0
  3
Center ____ _ ____ _ ____ _ ____ _ ____ _ ____
 72
    65
 73
     4
 40
10.16
 49
6.35
 74
     0
 49
-1.27
 74
     0
 49
1.27
 74
     0
 49
-1.27
 74
     0
  0
LTYPE
  5
61
330
5
100
AcDbSymbolTableRecord
100
AcDbLinetypeTableRecord
  2
CENTERX2
 70
     0
  3
Center (2x) ________  __  ________  __  _____
 72
    65
 73
     4
 40
20.32
 49
12.7
 74
     0
 49
-2.54
 74
     0
 49
2.54
 74
     0
 49
-2.54
 74
     0
  0
LTYPE
  5
62
330
5
100
AcDbSymbolTableRecord
100
AcDbLinetypeTableRecord
  2
DOT2
 70
     0
  3
Dot (.5x) ........................................
 72
    65
 73
     2
 40
0.635
 49
0.0
 74
     0
 49
-0.635
 74
     0
  0
ENDTAB
  0
TABLE
  2
LAYER
  5
2
330
0
100
AcDbSymbolTable
 70
     3
  0
LAYER
  5
10
330
2
100
AcDbSymbolTableRecord
100
AcDbLayerTableRecord
  2
0
 70
     0
 62
     7
  6
Continuous
370
    -3
390
F
  0
LAYER
  5
63
330
2
100
AcDbSymbolTableRecord
100
AcDbLayerTableRecord
  2
ВОДЯНОЙ_ЗНАК
 70
     0
 62
    11
  6
Continuous
370
    -3
390
F
  0
LAYER
  5
64
330
2
100
AcDbSymbolTableRecord
100
AcDbLayerTableRecord
  2
ОСНОВНОЙ
 70
     0
 62
     7
  6
Continuous
370
    -3
390
F
  0
ENDTAB
  0
TABLE
  2
STYLE
  5
3
330
0
100
AcDbSymbolTable
 70
     2
  0
STYLE
  5
11
330
3
100
AcDbSymbolTableRecord
100
AcDbTextStyleTableRecord
  2
Standard
 70
     0
 40
0.0
 41
1.0
 50
0.0
 71
     0
 42
5.0
  3
txt
  4

  0
STYLE
  5
192
330
3
100
AcDbSymbolTableRecord
100
AcDbTextStyleTableRecord
  2
SLDTEXTSTYLE0
 70
     0
 40
0.0
 41
0.7
 50
0.0
 71
     0
 42
5.0
  3
TXT
  4

  0
ENDTAB
  0
TABLE
  2
VIEW
  5
6
330
0
100
AcDbSymbolTable
 70
     0
  0
ENDTAB
  0
TABLE
  2
UCS
  5
7
330
0
100
AcDbSymbolTable
 70
     0
  0
ENDTAB
  0
TABLE
  2
APPID
  5
9
330
0
100
AcDbSymbolTable
 70
     1
  0
APPID
  5
12
330
9
100
AcDbSymbolTableRecord
100
AcDbRegAppTableRecord
  2
ACAD
 70
     0
  0
ENDTAB
  0
TABLE
  2
DIMSTYLE
  5
A
330
0
100
AcDbSymbolTable
 70
     3
100
AcDbDimStyleTable
  0
DIMSTYLE
105
27
330
A
100
AcDbSymbolTableRecord
100
AcDbDimStyleTableRecord
  2
ISO-25
 70
     0
 41
2.5
 42
0.625
 43
3.75
 44
1.25
 73
     0
 74
     0
 77
     1
 78
     8
140
2.5
141
2.5
143
0.0393700787
147
0.625
171
     3
172
     1
178
     0
271
     2
272
     2
274
     3
278
    44
283
     0
284
     8
340
11
  0
DIMSTYLE
105
193
102
{ACAD_REACTORS
330
191
330
19D
330
2D3
330
2DC
330
340
102
}
330
A
100
AcDbSymbolTableRecord
100
AcDbDimStyleTableRecord
  2
SLDDIMSTYLE0
 70
     0
 41
5.0
 44
0.0
 45
0.000000001
 73
     0
 74
     0
 77
     2
 78
    12
 79
     3
140
3.5
147
0.875
173
     1
178
     0
271
     1
272
     1
276
     2
284
    12
340
192
  0
DIMSTYLE
105
2C8
102
{ACAD_REACTORS
330
2C7
102
}
330
A
100
AcDbSymbolTableRecord
100
AcDbDimStyleTableRecord
  2
SLDDIMSTYLE1
 70
     0
 41
5.0
 44
0.0
 45
0.000000001
 73
     0
 74
     0
 77
     2
 78
    12
 79
     3
140
3.5
147
0.875
172
     1
173
     1
178
     0
271
     1
272
     1
276
     2
284
    12
289
     0
340
192
  0
ENDTAB
  0
TABLE
  2
BLOCK_RECORD
  5
1
330
0
100
AcDbSymbolTable
 70
     7
  0
BLOCK_RECORD
  5
1F
330
1
100
AcDbSymbolTableRecord
100
AcDbBlockTableRecord
  2
*Model_Space
340
22
  0
BLOCK_RECORD
  5
1B
330
1
100
AcDbSymbolTableRecord
100
AcDbBlockTableRecord
  2
*Paper_Space
340
1E
  0
BLOCK_RECORD
  5
23
330
1
100
AcDbSymbolTableRecord
100
AcDbBlockTableRecord
  2
*Paper_Space0
340
26
  0
BLOCK_RECORD
  5
194
330
1
100
AcDbSymbolTableRecord
100
AcDbBlockTableRecord
  2
_D
340
0
  0
BLOCK_RECORD
  5
19E
330
1
100
AcDbSymbolTableRecord
100
AcDbBlockTableRecord
  2
_D_1
340
0
  0
BLOCK_RECORD
  5
2C9
330
1
100
AcDbSymbolTableRecord
100
AcDbBlockTableRecord
  2
_D_2
340
0
  0
BLOCK_RECORD
  5
2D4
330
1
100
AcDbSymbolTableRecord
100
AcDbBlockTableRecord
  2
_D_3
340
0
  0
BLOCK_RECORD
  5
2DD
330
1
100
AcDbSymbolTableRecord
100
AcDbBlockTableRecord
  2
_D_4
340
0
  0
BLOCK_RECORD
  5
341
330
1
100
AcDbSymbolTableRecord
100
AcDbBlockTableRecord
  2
_D_5
340
0
  0
ENDTAB
  0
ENDSEC
  0
SECTION
  2
BLOCKS
  0
BLOCK
  5
20
330
1F
100
AcDbEntity
  8
0
100
AcDbBlockBegin
  2
*Model_Space
 70
     0
 10
0.0
 20
0.0
 30
0.0
  3
*Model_Space
  1

  0
ENDBLK
  5
21
330
1F
100
AcDbEntity
  8
0
100
AcDbBlockEnd
  0
BLOCK
  5
1C
330
1B
100
AcDbEntity
 67
     1
  8
0
100
AcDbBlockBegin
  2
*Paper_Space
 70
     0
 10
0.0
 20
0.0
 30
0.0
  3
*Paper_Space
  1

  0
ENDBLK
  5
1D
330
1B
100
AcDbEntity
 67
     1
  8
0
100
AcDbBlockEnd
  0
BLOCK
  5
24
330
23
100
AcDbEntity
  8
0
100
AcDbBlockBegin
  2
*Paper_Space0
 70
     0
 10
0.0
 20
0.0
 30
0.0
  3
*Paper_Space0
  1

  0
ENDBLK
  5
25
330
23
100
AcDbEntity
  8
0
100
AcDbBlockEnd
  0
BLOCK
  5
195
330
194
100
AcDbEntity
  8
0
100
AcDbBlockBegin
  2
_D
 70
     0
 10
0.0
 20
0.0
 30
0.0
  3
_D
  1

  0
SOLID
  5
197
330
194
100
AcDbEntity
  8
ОСНОВНОЙ
100
AcDbTrace
 10
9.3904182292
 20
157.9296690727
 30
0.0
 11
8.3904182292
 21
152.9296690727
 31
0.0
 12
10.3904182292
 22
152.9296690727
 32
0.0
 13
10.3904182292
 23
152.9296690727
 33
0.0
  0
SOLID
  5
198
330
194
100
AcDbEntity
  8
ОСНОВНОЙ
100
AcDbTrace
 10
9.3904182292
 20
18.9296690727
 30
0.0
 11
10.3904182292
 21
23.9296690727
 31
0.0
 12
8.3904182292
 22
23.9296690727
 32
0.0
 13
8.3904182292
 23
23.9296690727
 33
0.0
  0
LINE
  5
199
330
194
100
AcDbEntity
  8
ОСНОВНОЙ
100
AcDbLine
 10
19.8903420768
 20
157.9296690727
 30
0.0
 11
8.3904182292
 21
157.9296690727
 31
0.0
  0
LINE
  5
19A
330
194
100
AcDbEntity
  8
ОСНОВНОЙ
100
AcDbLine
 10
19.8903420768
 20
18.9296690727
 30
0.0
 11
8.3904182292
 21
18.9296690727
 31
0.0
  0
LINE
  5
19B
330
194
100
AcDbEntity
  8
ОСНОВНОЙ
100
AcDbLine
 10
9.3904182292
 20
157.9296690727
 30
0.0
 11
9.3904182292
 21
18.9296690727
 31
0.0
  0
MTEXT
  5
19C
330
194
100
AcDbEntity
  8
ОСНОВНОЙ
100
AcDbMText
 10
4.8786810236
 20
85.568905264
 30
0.0
 40
3.5
 41
0.0
 71
     1
 72
     1
  1
139
  7
SLDTEXTSTYLE0
 11
-7.044195017643634E-15
 21
1.0
 31
0.0
 73
     1
 44
1.0
  0
ENDBLK
  5
196
330
194
100
AcDbEntity
  8
0
100
AcDbBlockEnd
  0
BLOCK
  5
19F
330
19E
100
AcDbEntity
  8
0
100
AcDbBlockBegin
  2
_D_1
 70
     0
 10
0.0
 20
0.0
 30
0.0
  3
_D_1
  1

  0
SOLID
  5
1A1
330
19E
100
AcDbEntity
  8
ОСНОВНОЙ
100
AcDbTrace
 10
19.3904182292
 20
8.9296690727
 30
0.0
 11
24.3904182292
 21
7.9296690727
 31
0.0
 12
24.3904182292
 22
9.9296690727
 32
0.0
 13
24.3904182292
 23
9.9296690727
 33
0.0
  0
SOLID
  5
1A2
330
19E
100
AcDbEntity
  8
ОСНОВНОЙ
100
AcDbTrace
 10
146.3904182292
 20
8.9296690727
 30
0.0
 11
141.3904182292
 21
9.9296690727
 31
0.0
 12
141.3904182292
 22
7.9296690727
 32
0.0
 13
141.3904182292
 23
7.9296690727
 33
0.0
  0
LINE
  5
1A3
330
19E
100
AcDbEntity
  8
ОСНОВНОЙ
100
AcDbLine
 10
19.3904182292
 20
19.4295929203
 30
0.0
 11
19.3904182292
 21
7.9296690727
 31
0.0
  0
LINE
  5
1A4
330
19E
100
AcDbEntity
  8
ОСНОВНОЙ
100
AcDbLine
 10
146.3904182292
 20
19.4295929203
 30
0.0
 11
146.3904182292
 21
7.9296690727
 31
0.0
  0
LINE
  5
1A5
330
19E
100
AcDbEntity
  8
ОСНОВНОЙ
100
AcDbLine
 10
19.3904182292
 20
8.9296690727
 30
0.0
 11
146.3904182292
 21
8.9296690727
 31
0.0
  0
MTEXT
  5
1A6
330
19E
100
AcDbEntity
  8
ОСНОВНОЙ
100
AcDbMText
 10
79.9032655652
 20
13.4414062783
 30
0.0
 40
3.5
 41
0.0
 71
     1
 72
     1
  1
127
  7
SLDTEXTSTYLE0
 73
     1
 44
1.0
  0
ENDBLK
  5
1A0
330
19E
100
AcDbEntity
  8
0
100
AcDbBlockEnd
  0
BLOCK
  5
2CA
330
2C9
100
AcDbEntity
  8
0
100
AcDbBlockBegin
  2
_D_2
 70
     0
 10
0.0
 20
0.0
 30
0.0
  3
_D_2
  1

  0
SOLID
  5
2CC
330
2C9
100
AcDbEntity
  8
ОСНОВНОЙ
100
AcDbTrace
 10
178.3019202432
 20
61.4285983107
 30
0.0
 11
173.3019202432
 21
62.4285983107
 31
0.0
 12
173.3019202432
 22
60.4285983107
 32
0.0
 13
173.3019202432
 23
60.4285983107
 33
0.0
  0
SOLID
  5
2CD
330
2C9
100
AcDbEntity
  8
ОСНОВНОЙ
100
AcDbTrace
 10
186.3019202432
 20
61.4285983107
 30
0.0
 11
191.3019202432
 21
60.4285983107
 31
0.0
 12
191.3019202432
 22
62.4285983107
 32
0.0
 13
191.3019202432
 23
62.4285983107
 33
0.0
  0
LINE
  5
2CE
330
2C9
100
AcDbEntity
  8
ОСНОВНОЙ
100
AcDbLine
 10
186.3019202432
 20
70.9296690727
 30
0.0
 11
186.3019202432
 21
60.4285983107
 31
0.0
  0
LINE
  5
2CF
330
2C9
100
AcDbEntity
  8
ОСНОВНОЙ
100
AcDbLine
 10
178.3019202432
 20
61.4285983107
 30
0.0
 11
170.3019202432
 21
61.4285983107
 31
0.0
  0
LINE
  5
2D0
330
2C9
100
AcDbEntity
  8
ОСНОВНОЙ
100
AcDbLine
 10
178.3019202432
 20
61.4285983107
 30
0.0
 11
186.3019202432
 21
61.4285983107
 31
0.0
  0
LINE
  5
2D1
330
2C9
100
AcDbEntity
  8
ОСНОВНОЙ
100
AcDbLine
 10
186.3019202432
 20
61.4285983107
 30
0.0
 11
194.3019202432
 21
61.4285983107
 31
0.0
  0
MTEXT
  5
2D2
330
2C9
100
AcDbEntity
  8
ОСНОВНОЙ
100
AcDbMText
 10
181.1814341793
 20
65.9403355163
 30
0.0
 40
3.5
 41
0.0
 71
     1
 72
     1
  1
8
  7
SLDTEXTSTYLE0
 73
     1
 44
1.0
  0
ENDBLK
  5
2CB
330
2C9
100
AcDbEntity
  8
0
100
AcDbBlockEnd
  0
BLOCK
  5
2D5
330
2D4
100
AcDbEntity
  8
0
100
AcDbBlockBegin
  2
_D_3
 70
     0
 10
0.0
 20
0.0
 30
0.0
  3
_D_3
  1

  0
SOLID
  5
2D7
330
2D4
100
AcDbEntity
  8
ОСНОВНОЙ
100
AcDbTrace
 10
186.3019202432
 20
61.4285983107
 30
0.0
 11
191.3019202432
 21
60.4285983107
 31
0.0
 12
191.3019202432
 22
62.4285983107
 32
0.0
 13
191.3019202432
 23
62.4285983107
 33
0.0
  0
SOLID
  5
2D8
330
2D4
100
AcDbEntity
  8
ОСНОВНОЙ
100
AcDbTrace
 10
232.8019202432
 20
61.4285983107
 30
0.0
 11
227.8019202432
 21
62.4285983107
 31
0.0
 12
227.8019202432
 22
60.4285983107
 32
0.0
 13
227.8019202432
 23
60.4285983107
 33
0.0
  0
LINE
  5
2D9
330
2D4
100
AcDbEntity
  8
ОСНОВНОЙ
100
AcDbLine
 10
186.3019202432
 20
70.9296690727
 30
0.0
 11
186.3019202432
 21
60.4285983107
 31
0.0
  0
LINE
  5
2DA
330
2D4
100
AcDbEntity
  8
ОСНОВНОЙ
100
AcDbLine
 10
186.3019202432
 20
61.4285983107
 30
0.0
 11
232.8019202432
 21
61.4285983107
 31
0.0
  0
MTEXT
  5
2DB
330
2D4
100
AcDbEntity
  8
ОСНОВНОЙ
100
AcDbMText
 10
205.9425453791
 20
65.9403355163
 30
0.0
 40
3.5
 41
0.0
 71
     1
 72
     1
  1
46,5
  7
SLDTEXTSTYLE0
 73
     1
 44
1.0
  0
ENDBLK
  5
2D6
330
2D4
100
AcDbEntity
  8
0
100
AcDbBlockEnd
  0
BLOCK
  5
2DE
330
2DD
100
AcDbEntity
  8
0
100
AcDbBlockBegin
  2
_D_4
 70
     0
 10
0.0
 20
0.0
 30
0.0
  3
_D_4
  1

  0
SOLID
  5
2E0
330
2DD
100
AcDbEntity
  8
ОСНОВНОЙ
100
AcDbTrace
 10
186.3019202432
 20
94.9434104598
 30
0.0
 11
191.3019202432
 21
93.9434104598
 31
0.0
 12
191.3019202432
 22
95.9434104598
 32
0.0
 13
191.3019202432
 23
95.9434104598
 33
0.0
  0
SOLID
  5
2E1
330
2DD
100
AcDbEntity
  8
ОСНОВНОЙ
100
AcDbTrace
 10
258.0019202432
 20
94.9434104598
 30
0.0
 11
253.0019202432
 21
95.9434104598
 31
0.0
 12
253.0019202432
 22
93.9434104598
 32
0.0
 13
253.0019202432
 23
93.9434104598
 33
0.0
  0
LINE
  5
2E2
330
2DD
100
AcDbEntity
  8
ОСНОВНОЙ
100
AcDbLine
 10
186.3019202432
 20
103.0467703358
 30
0.0
 11
186.3019202432
 21
93.9434104598
 31
0.0
  0
LINE
  5
2E3
330
2DD
100
AcDbEntity
  8
ОСНОВНОЙ
100
AcDbLine
 10
186.3019202432
 20
94.9434104598
 30
0.0
 11
258.0019202432
 21
94.9434104598
 31
0.0
  0
MTEXT
  5
2E4
330
2DD
100
AcDbEntity
  8
ОСНОВНОЙ
100
AcDbMText
 10
218.7904620515
 20
99.4551476654
 30
0.0
 40
3.5
 41
0.0
 71
     1
 72
     1
  1
71,7
  7
SLDTEXTSTYLE0
 73
     1
 44
1.0
  0
ENDBLK
  5
2DF
330
2DD
100
AcDbEntity
  8
0
100
AcDbBlockEnd
  0
BLOCK
  5
342
330
341
100
AcDbEntity
  8
0
100
AcDbBlockBegin
  2
_D_5
 70
     0
 10
0.0
 20
0.0
 30
0.0
  3
_D_5
  1

  0
SOLID
  5
344
330
341
100
AcDbEntity
  8
ОСНОВНОЙ
100
AcDbTrace
 10
9.3904182292
 20
191.145
 30
0.0
 11
10.3904182292
 21
196.145
 31
0.0
 12
8.3904182292
 22
196.145
 32
0.0
 13
8.3904182292
 23
196.145
 33
0.0
  0
SOLID
  5
345
330
341
100
AcDbEntity
  8
ОСНОВНОЙ
100
AcDbTrace
 10
9.3904182292
 20
275.145
 30
0.0
 11
8.3904182292
 21
270.145
 31
0.0
 12
10.3904182292
 22
270.145
 32
0.0
 13
10.3904182292
 23
270.145
 33
0.0
  0
LINE
  5
346
330
341
100
AcDbEntity
  8
ОСНОВНОЙ
100
AcDbLine
 10
24.3904182292
 20
191.145
 30
0.0
 11
8.3904182292
 21
191.145
 31
0.0
  0
LINE
  5
347
330
341
100
AcDbEntity
  8
ОСНОВНОЙ
100
AcDbLine
 10
23.8268710164
 20
275.145
 30
0.0
 11
8.3904182292
 21
275.145
 31
0.0
  0
LINE
  5
348
330
341
100
AcDbEntity
  8
ОСНОВНОЙ
100
AcDbLine
 10
9.3904182292
 20
191.145
 30
0.0
 11
9.3904182292
 21
275.145
 31
0.0
  0
MTEXT
  5
349
330
341
100
AcDbEntity
  8
ОСНОВНОЙ
100
AcDbMText
 10
4.8786810236
 20
230.9040278722
 30
0.0
 40
3.5
 41
0.0
 71
     1
 72
     1
  1
84
  7
SLDTEXTSTYLE0
 11
6.123233995736766E-17
 21
1.0
 31
0.0
 73
     1
 44
1.0
  0
ENDBLK
  5
343
330
341
100
AcDbEntity
  8
0
100
AcDbBlockEnd
  0
ENDSEC
  0
SECTION
  2
ENTITIES
  0
LINE
  5
65
330
1F
100
AcDbEntity
  8
0
  6
Continuous
 62
     7
100
AcDbLine
 10
22.9558747227
 20
134.3220840876
 30
0.0
 11
21.9616490739
 21
134.3047298143
 31
0.0
  0
LINE
  5
66
330
1F
100
AcDbEntity
  8
0
  6
Continuous
 62
     7
100
AcDbLine
 10
21.9616490739
 20
131.1546083311
 30
0.0
 11
22.9558747227
 21
131.1372540578
 31
0.0
  0
LINE
  5
67
330
1F
100
AcDbEntity
  8
0
  6
Continuous
 62
     7
100
AcDbLine
 10
142.8249617357
 20
131.1372540578
 30
0.0
 11
143.8191873845
 21
131.1546083311
 31
0.0
  0
LINE
  5
68
330
1F
100
AcDbEntity
  8
0
  6
Continuous
 62
     7
100
AcDbLine
 10
143.8191873845
 20
134.3047298143
 30
0.0
 11
142.8249617357
 21
134.3220840876
 31
0.0
  0
LINE
  5
69
330
1F
100
AcDbEntity
  8
0
  6
Continuous
 62
     7
100
AcDbLine
 10
88.6458312129
 20
41.037569772
 30
0.0
 11
77.1350052456
 21
41.037569772
 31
0.0
  0
LINE
  5
6A
330
1F
100
AcDbEntity
  8
0
  6
Continuous
 62
     7
100
AcDbLine
 10
22.9116470911
 20
134.3952426227
 30
0.0
 11
22.9111512426
 21
134.3213034363
 31
0.0
  0
ELLIPSE
  5
6B
330
1F
100
AcDbEntity
  8
0
  6
Continuous
 62
     7
100
AcDbEllipse
 10
22.9646022552
 20
133.2296690727
 30
0.0
 11
0.0
 21
3.249999999999972
 31
0.0
210
0.0
220
0.0
230
1.0
 40
0.0174550649
 41
0.710835201197073
 42
1.203987888150803
  0
LINE
  5
6C
330
1F
100
AcDbEntity
  8
0
  6
Continuous
 62
     7
100
AcDbLine
 10
22.8904182292
 20
48.8809105463
 30
0.0
 11
22.8904182292
 21
41.2295929203
 31
0.0
  0
ELLIPSE
  5
6D
330
1F
100
AcDbEntity
  8
0
  6
Continuous
 62
     7
100
AcDbEllipse
 10
21.0750914767
 20
84.7138562806
 30
0.0
 11
0.0
 21
110.0
 31
0.0
210
0.0
220
0.0
230
1.0
 40
0.0174550649
 41
4.380579806625364
 42
5.029949409676288
  0
LINE
  5
6E
330
1F
100
AcDbEntity
  8
0
  6
Continuous
 62
     7
100
AcDbLine
 10
22.8991457617
 20
119.7967475793
 30
0.0
 11
22.8991457617
 21
119.0613452718
 31
0.0
  0
LINE
  5
6F
330
1F
100
AcDbEntity
  8
0
  6
Continuous
 62
     7
100
AcDbLine
 10
22.9813025104
 20
120.0504867502
 30
0.0
 11
22.8991457617
 21
119.7967475793
 31
0.0
  0
ELLIPSE
  5
70
330
1F
100
AcDbEntity
  8
0
  6
Continuous
 62
     7
100
AcDbEllipse
 10
22.9726381739
 20
120.3287752069
 30
0.0
 11
0.0151748616782541
 21
0.3151821200439286
 31
0.0
210
0.0
220
0.0
230
0.9999999999999999
 40
0.1467979457
 41
3.637405138007492
 42
5.029310978149278
  0
LINE
  5
71
330
1F
100
AcDbEntity
  8
0
  6
Continuous
 62
     7
100
AcDbLine
 10
23.0213312162
 20
120.4926041221
 30
0.0
 11
23.0213312162
 21
120.424882911
 31
0.0
  0
ELLIPSE
  5
72
330
1F
100
AcDbEntity
  8
0
  6
Continuous
 62
     7
100
AcDbEllipse
 10
22.9726381739
 20
120.4926041221
 30
0.0
 11
1.421085471520200E-14
 21
0.3000000000000114
 31
0.0
210
0.0
220
0.0
230
1.0
 40
0.162310141
 41
4.712388980384984
 42
4.958242752515525
  0
LINE
  5
73
330
1F
100
AcDbEntity
  8
0
  6
Continuous
 62
     7
100
AcDbLine
 10
22.8991457617
 20
123.5296690727
 30
0.0
 11
23.0198670107
 21
120.5656194759
 31
0.0
  0
LINE
  5
74
330
1F
100
AcDbEntity
  8
0
  6
Continuous
 62
     7
100
AcDbLine
 10
22.8991457617
 20
131.1382442655
 30
0.0
 11
22.8991457617
 21
123.5296690727
 31
0.0
  0
ELLIPSE
  5
75
330
1F
100
AcDbEntity
  8
0
  6
Continuous
 62
     7
100
AcDbEllipse
 10
22.9558831915
 20
132.7296690727
 30
0.0
 11
0.0
 21
1.592415088791086
 31
0.0
210
0.0
220
0.0
230
1.0
 40
0.0174550657
 41
3.141287974293513
 42
4.71238898038469
  0
ELLIPSE
  5
76
330
1F
100
AcDbEntity
  8
0
  6
Continuous
 62
     7
100
AcDbEllipse
 10
22.9558831915
 20
132.7296690727
 30
0.0
 11
0.0
 21
1.592415088791086
 31
0.0
210
0.0
220
0.0
230
1.0
 40
0.0174550657
 41
4.712388980384672
 42
6.283489986475845
  0
ELLIPSE
  5
77
330
1F
100
AcDbEntity
  8
0
  6
Continuous
 62
     7
100
AcDbEllipse
 10
142.8081982846
 20
120.3287752069
 30
0.0
 11
-0.01517486167827542
 21
0.3151821200439429
 31
0.0
210
0.0
220
0.0
230
1.0
 40
0.1467979457
 41
1.253874329030369
 42
2.645780169171265
  0
LINE
  5
78
330
1F
100
AcDbEntity
  8
0
  6
Continuous
 62
     7
100
AcDbLine
 10
142.8816906968
 20
119.7967475793
 30
0.0
 11
142.7995339481
 21
120.0504867502
 31
0.0
  0
LINE
  5
79
330
1F
100
AcDbEntity
  8
0
  6
Continuous
 62
     7
100
AcDbLine
 10
142.8816906968
 20
119.0613452718
 30
0.0
 11
142.8816906968
 21
119.7967475793
 31
0.0
  0
ELLIPSE
  5
7A
330
1F
100
AcDbEntity
  8
0
  6
Continuous
 62
     7
100
AcDbEllipse
 10
144.7057449818
 20
84.7138562806
 30
0.0
 11
0.0
 21
110.0
 31
0.0
210
0.0
220
0.0
230
1.0
 40
0.0174550649
 41
1.253235897503381
 42
1.902605500554306
  0
LINE
  5
7B
330
1F
100
AcDbEntity
  8
0
  6
Continuous
 62
     7
100
AcDbLine
 10
142.8904182292
 20
41.2295929203
 30
0.0
 11
142.8904182292
 21
48.8809105463
 31
0.0
  0
ELLIPSE
  5
7C
330
1F
100
AcDbEntity
  8
0
  6
Continuous
 62
     7
100
AcDbEllipse
 10
142.8162342033
 20
133.2296690727
 30
0.0
 11
0.0
 21
3.249999999999972
 31
0.0
210
0.0
220
0.0
230
1.0
 40
0.0174550649
 41
5.079197419028859
 42
5.572350105982895
  0
LINE
  5
7D
330
1F
100
AcDbEntity
  8
0
  6
Continuous
 62
     7
100
AcDbLine
 10
142.8696852158
 20
134.3213034363
 30
0.0
 11
142.8691893673
 21
134.3952426227
 31
0.0
  0
LINE
  5
7E
330
1F
100
AcDbEntity
  8
0
  6
Continuous
 62
     7
100
AcDbLine
 10
142.8816906968
 20
123.5296690727
 30
0.0
 11
142.8816906968
 21
131.1382442655
 31
0.0
  0
LINE
  5
7F
330
1F
100
AcDbEntity
  8
0
  6
Continuous
 62
     7
100
AcDbLine
 10
142.7609694477
 20
120.5656194759
 30
0.0
 11
142.8816906968
 21
123.5296690727
 31
0.0
  0
ELLIPSE
  5
80
330
1F
100
AcDbEntity
  8
0
  6
Continuous
 62
     7
100
AcDbEllipse
 10
142.8081982846
 20
120.4926041221
 30
0.0
 11
0.0
 21
0.3000000000000114
 31
0.0
210
0.0
220
0.0
230
1.0
 40
0.162310141
 41
1.324942554664498
 42
1.570796326794897
  0
LINE
  5
81
330
1F
100
AcDbEntity
  8
0
  6
Continuous
 62
     7
100
AcDbLine
 10
142.7595052423
 20
120.4926041221
 30
0.0
 11
142.7595052423
 21
120.424882911
 31
0.0
  0
ELLIPSE
  5
82
330
1F
100
AcDbEntity
  8
0
  6
Continuous
 62
     7
100
AcDbEllipse
 10
142.824953267
 20
132.7296690727
 30
0.0
 11
0.0
 21
1.592415088791086
 31
0.0
210
0.0
220
0.0
230
1.0
 40
0.0174550657
 41
1.570796326794897
 42
3.141897332885982
  0
ELLIPSE
  5
83
330
1F
100
AcDbEntity
  8
0
  6
Continuous
 62
     7
100
AcDbEllipse
 10
142.824953267
 20
132.7296690727
 30
0.0
 11
0.0
 21
1.592415088791086
 31
0.0
210
0.0
220
0.0
230
1.0
 40
0.0174550657
 41
6.282880627884978
 42
7.853981633974501
  0
ELLIPSE
  5
84
330
1F
100
AcDbEntity
  8
0
  6
Continuous
 62
     7
100
AcDbEllipse
 10
142.3903420652
 20
41.2297452367
 30
0.0
 11
0.3536610945847939
 21
-0.3536610945847868
 31
0.0
210
0.0
220
0.0
230
0.9999999999999998
 40
0.9996954599
 41
5.497939437029697
 42
7.068431177329455
  0
ELLIPSE
  5
85
330
1F
100
AcDbEntity
  8
0
  6
Continuous
 62
     7
100
AcDbEllipse
 10
23.3904943932
 20
41.2297452367
 30
0.0
 11
-0.353661094584787
 21
-0.353661094584787
 31
0.0
210
0.0
220
0.0
230
0.9999999999999998
 40
0.9996954599
 41
5.497939437029727
 42
7.068431177329453
  0
ELLIPSE
  5
86
330
1F
100
AcDbEntity
  8
0
  6
Continuous
 62
     7
100
AcDbEllipse
 10
23.5126798477
 20
126.6074074542
 30
0.0
 11
0.4635776634257168
 21
0.1920201554041795
 31
0.0
210
0.0
220
0.0
230
0.9999999999999996
 40
0.9756194433
 41
1.186747744732314
 42
2.740090779007281
  0
ELLIPSE
  5
87
330
1F
100
AcDbEntity
  8
0
  6
Continuous
 62
     7
100
AcDbEllipse
 10
23.5214073802
 20
126.5986799217
 30
0.0
 11
-0.3536610945847904
 21
0.3536610945847798
 31
0.0
210
0.0
220
0.0
230
1.0
 40
0.9996954599
 41
5.497939437029709
 42
5.515088143054518
  0
ELLIPSE
  5
88
330
1F
100
AcDbEntity
  8
0
  6
Continuous
 62
     7
100
AcDbEllipse
 10
142.2681566107
 20
126.6074074542
 30
0.0
 11
0.463577663425724
 21
-0.1920201554041512
 31
0.0
210
0.0
220
0.0
230
1.0
 40
0.9756194433
 41
0.4015018745824443
 42
1.954844908857431
  0
ELLIPSE
  5
89
330
1F
100
AcDbEntity
  8
0
  6
Continuous
 62
     7
100
AcDbEllipse
 10
142.2594290782
 20
126.5986799217
 30
0.0
 11
0.3536610945847941
 21
0.3536610945847798
 31
0.0
210
0.0
220
0.0
230
0.9999999999999998
 40
0.9996954599
 41
0.7680971641250418
 42
0.7852458701498163
  0
LINE
  5
8A
330
1F
100
AcDbEntity
  8
0
  6
Continuous
 62
     7
100
AcDbLine
 10
24.7531341966
 20
127.0987560857
 30
0.0
 11
23.5212550638
 21
127.0987560857
 31
0.0
  0
LINE
  5
8B
330
1F
100
AcDbEntity
  8
0
  6
Continuous
 62
     7
100
AcDbLine
 10
24.72676437
 20
127.1301752026
 30
0.0
 11
25.8904182292
 21
127.1301752026
 31
0.0
  0
LINE
  5
8C
330
1F
100
AcDbEntity
  8
0
  6
Continuous
 62
     7
100
AcDbLine
 10
142.2595813947
 20
127.0987560857
 30
0.0
 11
25.8904182292
 21
127.0987560857
 31
0.0
  0
LINE
  5
8D
330
1F
100
AcDbEntity
  8
0
  6
Continuous
 62
     7
100
AcDbLine
 10
23.3903420768
 20
40.7296690727
 30
0.0
 11
76.2360963254
 21
40.7296690727
 31
0.0
  0
ELLIPSE
  5
8E
330
1F
100
AcDbEntity
  8
0
  6
Continuous
 62
     7
100
AcDbEllipse
 10
82.8904182292
 20
16.7315576543
 30
0.0
 11
0.0
 21
25.19814188246091
 31
0.0
210
0.0
220
0.0
230
1.0
 40
0.8660473877
 41
0.266891343392291
 42
0.3098601206928406
  0
LINE
  5
8F
330
1F
100
AcDbEntity
  8
0
  6
Continuous
 62
     7
100
AcDbLine
 10
89.5447401331
 20
40.7296690727
 30
0.0
 11
142.3904943816
 21
40.7296690727
 31
0.0
  0
ELLIPSE
  5
90
330
1F
100
AcDbEntity
  8
0
  6
Continuous
 62
     7
100
AcDbEllipse
 10
82.8904182292
 20
16.7315576543
 30
0.0
 11
0.0
 21
25.19814188246091
 31
0.0
210
0.0
220
0.0
230
1.0
 40
0.8660473877
 41
5.973325186486761
 42
6.016293963787311
  0
ELLIPSE
  5
91
330
1F
100
AcDbEntity
  8
0
  6
Continuous
 62
     7
100
AcDbEllipse
 10
22.4427844314
 20
120.4926041221
 30
0.0
 11
-0.3023662022251087
 21
-5.684341886080801E-14
 31
0.0
210
0.0
220
0.0
230
1.0
 40
0.9921743826
 41
6.037331535048902
 42
6.283185307179586
  0
LINE
  5
92
330
1F
100
AcDbEntity
  8
0
  6
Continuous
 62
     7
100
AcDbLine
 10
22.1404182292
 20
120.4926041221
 30
0.0
 11
22.1404182292
 21
120.1804375245
 31
0.0
  0
ELLIPSE
  5
93
330
1F
100
AcDbEntity
  8
0
  6
Continuous
 62
     7
100
AcDbEllipse
 10
22.4427844314
 20
120.1817455857
 30
0.0
 11
-0.2915316181695538
 21
-0.08089738727700534
 31
0.0
210
0.0
220
0.0
230
1.0
 40
0.9915793909
 41
6.014675638717857
 42
7.4065814788599
  0
ELLIPSE
  5
94
330
1F
100
AcDbEntity
  8
0
  6
Continuous
 62
     7
100
AcDbEllipse
 10
143.338052027
 20
120.1817455857
 30
0.0
 11
-0.2915316181695857
 21
0.08089738727701956
 31
0.0
210
0.0
220
0.0
230
1.0
 40
0.9915793909
 41
2.018196481909413
 42
3.410102322051539
  0
ELLIPSE
  5
95
330
1F
100
AcDbEntity
  8
0
  6
Continuous
 62
     7
100
AcDbEllipse
 10
143.338052027
 20
120.4926041221
 30
0.0
 11
-0.3023662022251016
 21
0.0
 31
0.0
210
0.0
220
0.0
230
1.0
 40
0.9921743826
 41
3.141592653589615
 42
3.387446425720368
  0
LINE
  5
96
330
1F
100
AcDbEntity
  8
0
  6
Continuous
 62
     7
100
AcDbLine
 10
143.6404182292
 20
120.4926041221
 30
0.0
 11
143.6404182292
 21
120.1804375245
 31
0.0
  0
ELLIPSE
  5
97
330
1F
100
AcDbEntity
  8
0
  6
Continuous
 62
     7
100
AcDbEllipse
 10
24.713363282
 20
133.1506642964
 30
0.0
 11
-0.3950768381760278
 21
2.999992209093136
 31
0.0
210
0.0
220
0.0
230
1.0
 40
0.0173056446
 41
4.710109958632049
 42
6.263452992907928
  0
LINE
  5
98
330
1F
100
AcDbEntity
  8
0
  6
Continuous
 62
     7
100
AcDbLine
 10
140.9941411816
 20
135.9790914211
 30
0.0
 11
139.8886728557
 21
135.9790914211
 31
0.0
  0
ELLIPSE
  5
99
330
1F
100
AcDbEntity
  8
0
  6
Continuous
 62
     7
100
AcDbEllipse
 10
139.8799459879
 20
133.1506642964
 30
0.0
 11
0.0
 21
3.0
 31
0.0
210
0.0
220
0.0
230
1.0
 40
0.0087268678
 41
5.943348397726847
 42
6.223820472970831
  0
ELLIPSE
  5
9A
330
1F
100
AcDbEntity
  8
0
  6
Continuous
 62
     7
100
AcDbEllipse
 10
25.9165988326
 20
133.1506642964
 30
0.0
 11
0.0
 21
3.0
 31
0.0
210
0.0
220
0.0
230
1.0
 40
0.0087268678
 41
0.0593648342107039
 42
1.570796326794897
  0
ELLIPSE
  5
9B
330
1F
100
AcDbEntity
  8
0
  6
Continuous
 62
     7
100
AcDbEllipse
 10
141.0115962466
 20
133.1506642964
 30
0.0
 11
0.0
 21
3.0
 31
0.0
210
0.0
220
0.0
230
1.0
 40
0.0174550649
 41
0.0174532925201438
 42
0.339836909453952
  0
LINE
  5
9C
330
1F
100
AcDbEntity
  8
0
  6
Continuous
 62
     7
100
AcDbLine
 10
25.8904182292
 20
133.1506642964
 30
0.0
 11
25.8904182292
 21
127.0987560857
 31
0.0
  0
ARC
  5
9D
330
1F
100
AcDbEntity
  8
0
  6
Continuous
 62
     7
100
AcDbCircle
 10
24.8216054067
 20
129.5984818953
 30
0.0
 40
0.6311871774406821
100
AcDbArc
 50
116.2300213774
 51
180.0
  0
LINE
  5
9E
330
1F
100
AcDbEntity
  8
0
  6
Continuous
 62
     7
100
AcDbLine
 10
24.1904182292
 20
129.5984818953
 30
0.0
 11
24.1904182292
 21
127.8608562501
 31
0.0
  0
LINE
  5
9F
330
1F
100
AcDbEntity
  8
0
  6
Continuous
 62
     7
100
AcDbLine
 10
24.8216054067
 20
130.6131189227
 30
0.0
 11
24.8216054067
 21
132.7296690727
 31
0.0
  0
ARC
  5
A0
330
1F
100
AcDbEntity
  8
0
  6
Continuous
 62
     7
100
AcDbCircle
 10
24.8216054067
 20
127.8608562501
 30
0.0
 40
0.6311871774406662
100
AcDbArc
 50
180.0
 51
243.7699786226
  0
SPLINE
  5
A1
330
1F
100
AcDbEntity
  8
0
  6
Continuous
 62
     7
100
AcDbSpline
210
0.0
220
0.0
230
1.0
 70
     8
 71
     3
 72
    11
 73
     7
 74
     0
 42
0.00000001
 43
0.00000001
 40
0.0
 40
0.0
 40
0.0
 40
0.0
 40
0.3030001895404333
 40
0.6060013591943236
 40
0.9089836732202435
 40
1.0
 40
1.0
 40
1.0
 40
1.0
 10
24.54263586670074
 20
130.1646737785819
 30
0.0
 10
24.59064790313887
 20
130.1944826614691
 30
0.0
 10
24.68667213131948
 20
130.2541005236661
 30
0.0
 10
24.78239502136103
 20
130.3974603215555
 30
0.0
 10
24.81882723314926
 20
130.5235229186371
 30
0.0
 10
24.82108406367787
 20
130.5963056288584
 30
0.0
 10
24.82160540665628
 20
130.6131189227416
 30
0.0
  0
SPLINE
  5
A2
330
1F
100
AcDbEntity
  8
0
  6
Continuous
 62
     7
100
AcDbSpline
210
0.0
220
0.0
230
1.0
 70
     8
 71
     3
 72
     9
 73
     5
 74
     0
 42
0.00000001
 43
0.00000001
 40
0.0
 40
0.0
 40
0.0
 40
0.0
 40
0.577694260739723
 40
1.0
 40
1.0
 40
1.0
 40
1.0
 10
24.7531341965937
 20
127.0987560857365
 30
0.0
 10
24.72028469497993
 20
127.1451259735659
 30
0.0
 10
24.66342156884866
 20
127.225393151173
 30
0.0
 10
24.5784991089205
 20
127.2740966146613
 30
0.0
 10
24.54263586670074
 20
127.2946643668143
 30
0.0
  0
LINE
  5
A3
330
1F
100
AcDbEntity
  8
0
  6
Continuous
 62
     7
100
AcDbLine
 10
24.766180334
 20
133.1506642964
 30
0.0
 11
24.8216054067
 21
132.7296690727
 31
0.0
  0
LINE
  5
A4
330
1F
100
AcDbEntity
  8
0
  6
Continuous
 62
     7
100
AcDbLine
 10
22.8991457617
 20
123.5296690727
 30
0.0
 11
22.1495104161
 21
120.5656194759
 31
0.0
  0
LINE
  5
A5
330
1F
100
AcDbEntity
  8
0
  6
Continuous
 62
     7
100
AcDbLine
 10
142.8816906968
 20
123.5296690727
 30
0.0
 11
143.6313260423
 21
120.5656194759
 31
0.0
  0
LINE
  5
A6
330
1F
100
AcDbEntity
  8
0
  6
Continuous
 62
     7
100
AcDbLine
 10
22.8991457617
 20
119.7967475793
 30
0.0
 11
22.3889820317
 21
119.8861231746
 31
0.0
  0
LINE
  5
A7
330
1F
100
AcDbEntity
  8
0
  6
Continuous
 62
     7
100
AcDbLine
 10
143.3918544267
 20
119.8861231746
 30
0.0
 11
142.8816906968
 21
119.7967475793
 31
0.0
  0
ELLIPSE
  5
A8
330
1F
100
AcDbEntity
  8
0
  6
Continuous
 62
     7
100
AcDbEllipse
 10
139.8817581647
 20
136.6444987862
 30
0.0
 11
0.0
 21
0.5
 31
0.0
210
0.0
220
0.0
230
1.0
 40
0.0087268678
 41
2.571975146779886
 42
3.082227819376235
  0
ELLIPSE
  5
A9
330
1F
100
AcDbEntity
  8
0
  6
Continuous
 62
     7
100
AcDbEllipse
 10
25.9147866557
 20
136.6444987862
 30
0.0
 11
0.0
 21
0.5
 31
0.0
210
0.0
220
0.0
230
1.0
 40
0.0087268678
 41
3.200957487800889
 42
3.711210160399464
  0
SPLINE
  5
AA
330
1F
100
AcDbEntity
  8
0
  6
Continuous
 62
     7
100
AcDbSpline
210
0.0
220
0.0
230
1.0
 70
     8
 71
     3
 72
    12
 73
     8
 74
     0
 42
0.00000001
 43
0.00000001
 40
0.0
 40
0.0
 40
0.0
 40
0.0
 40
0.0741191986508226
 40
0.1702820734422252
 40
0.3384285008679017
 40
0.6625970664023304
 40
1.0
 40
1.0
 40
1.0
 40
1.0
 10
142.340129656171
 20
136.1793043472317
 30
0.0
 10
142.3676393214076
 20
136.1779579795428
 30
0.0
 10
142.4308402588362
 20
136.1748648230348
 30
0.0
 10
142.5390860720493
 20
136.1449172072879
 30
0.0
 10
142.6800514596371
 20
136.0687777808645
 30
0.0
 10
142.8135594693898
 20
135.9240864710259
 30
0.0
 10
142.8398432087673
 20
135.7707678217152
 30
0.0
 10
142.8532479742136
 20
135.6925749701179
 30
0.0
  0
SPLINE
  5
AB
330
1F
100
AcDbEntity
  8
0
  6
Continuous
 62
     7
100
AcDbSpline
210
0.0
220
0.0
230
1.0
 70
     8
 71
     3
 72
    12
 73
     8
 74
     0
 42
0.00000001
 43
0.00000001
 40
0.0
 40
0.0
 40
0.0
 40
0.0
 40
0.3550149007803205
 40
0.7223821351061565
 40
0.8315747335772821
 40
0.9418948456453485
 40
1.0
 40
1.0
 40
1.0
 40
1.0
 10
22.92758848421762
 20
135.6925749701179
 30
0.0
 10
22.94234613600923
 20
135.7744809276864
 30
0.0
 10
22.97237491504625
 20
135.9411426660422
 30
0.0
 10
23.11532404938973
 20
136.0823519528304
 30
0.0
 10
23.26560428952167
 20
136.1524287018158
 30
0.0
 10
23.35675761539788
 20
136.1760620831752
 30
0.0
 10
23.41917379824315
 20
136.1784727050495
 30
0.0
 10
23.44070680226019
 20
136.1793043472317
 30
0.0
  0
LINE
  5
AC
330
1F
100
AcDbEntity
  8
0
  6
Continuous
 62
     7
100
AcDbLine
 10
23.4407068023
 20
136.1793043472
 30
0.0
 11
24.2862089977
 21
136.1793043472
 31
0.0
  0
LINE
  5
AD
330
1F
100
AcDbEntity
  8
0
  6
Continuous
 62
     7
100
AcDbLine
 10
24.3193877278
 20
136.1502073819
 30
0.0
 11
24.2862089977
 21
136.1793043472
 31
0.0
  0
LINE
  5
AE
330
1F
100
AcDbEntity
  8
0
  6
Continuous
 62
     7
100
AcDbLine
 10
141.0397793133
 20
136.1793043472
 30
0.0
 11
142.3401296562
 21
136.1793043472
 31
0.0
  0
LINE
  5
AF
330
1F
100
AcDbEntity
  8
0
  6
Continuous
 62
     7
100
AcDbLine
 10
141.0106823479
 20
136.1502073819
 30
0.0
 11
141.0397793133
 21
136.1793043472
 31
0.0
  0
LINE
  5
B0
330
1F
100
AcDbEntity
  8
0
  6
Continuous
 62
     7
100
AcDbLine
 10
139.873400837
 20
136.6640602512
 30
0.0
 11
25.9231439834
 21
136.6640602512
 31
0.0
  0
LINE
  5
B1
330
1F
100
AcDbEntity
  8
0
  6
Continuous
 62
     7
100
AcDbLine
 10
139.873400837
 20
136.6640602512
 30
0.0
 11
139.8794049212
 21
136.2234451266
 31
0.0
  0
LINE
  5
B2
330
1F
100
AcDbEntity
  8
0
  6
Continuous
 62
     7
100
AcDbLine
 10
25.9171398992
 20
136.2234451266
 30
0.0
 11
25.9231439834
 21
136.6640602512
 31
0.0
  0
LINE
  5
B3
330
1F
100
AcDbEntity
  8
0
  6
Continuous
 62
     7
100
AcDbLine
 10
31.9815571181
 20
142.4296690727
 30
0.0
 11
33.6541682292
 21
144.9385857394
 31
0.0
  0
LINE
  5
B4
330
1F
100
AcDbEntity
  8
0
  6
Continuous
 62
     7
100
AcDbLine
 10
33.6541682292
 20
139.920752406
 30
0.0
 11
31.9815571181
 21
142.4296690727
 31
0.0
  0
LINE
  5
B5
330
1F
100
AcDbEntity
  8
0
  6
Continuous
 62
     7
100
AcDbLine
 10
31.8599126737
 20
139.920752406
 30
0.0
 11
33.6541682292
 21
139.920752406
 31
0.0
  0
LINE
  5
B6
330
1F
100
AcDbEntity
  8
0
  6
Continuous
 62
     7
100
AcDbLine
 10
30.6434682292
 20
141.7454190727
 30
0.0
 11
31.8599126737
 21
139.920752406
 31
0.0
  0
LINE
  5
B7
330
1F
100
AcDbEntity
  8
0
  6
Continuous
 62
     7
100
AcDbLine
 10
30.1873015625
 20
141.7454190727
 30
0.0
 11
30.6434682292
 21
141.7454190727
 31
0.0
  0
LINE
  5
B8
330
1F
100
AcDbEntity
  8
0
  6
Continuous
 62
     7
100
AcDbLine
 10
30.1873015625
 20
139.920752406
 30
0.0
 11
30.1873015625
 21
141.7454190727
 31
0.0
  0
LINE
  5
B9
330
1F
100
AcDbEntity
  8
0
  6
Continuous
 62
     7
100
AcDbLine
 10
28.8188015625
 20
139.920752406
 30
0.0
 11
30.1873015625
 21
139.920752406
 31
0.0
  0
LINE
  5
BA
330
1F
100
AcDbEntity
  8
0
  6
Continuous
 62
     7
100
AcDbLine
 10
28.8188015625
 20
144.9385857394
 30
0.0
 11
28.8188015625
 21
139.920752406
 31
0.0
  0
LINE
  5
BB
330
1F
100
AcDbEntity
  8
0
  6
Continuous
 62
     7
100
AcDbLine
 10
30.1873015625
 20
144.9385857394
 30
0.0
 11
28.8188015625
 21
144.9385857394
 31
0.0
  0
LINE
  5
BC
330
1F
100
AcDbEntity
  8
0
  6
Continuous
 62
     7
100
AcDbLine
 10
30.1873015625
 20
143.1139190727
 30
0.0
 11
30.1873015625
 21
144.9385857394
 31
0.0
  0
LINE
  5
BD
330
1F
100
AcDbEntity
  8
0
  6
Continuous
 62
     7
100
AcDbLine
 10
30.6434682292
 20
143.1139190727
 30
0.0
 11
30.1873015625
 21
143.1139190727
 31
0.0
  0
LINE
  5
BE
330
1F
100
AcDbEntity
  8
0
  6
Continuous
 62
     7
100
AcDbLine
 10
31.8599126737
 20
144.9385857394
 30
0.0
 11
30.6434682292
 21
143.1139190727
 31
0.0
  0
LINE
  5
BF
330
1F
100
AcDbEntity
  8
0
  6
Continuous
 62
     7
100
AcDbLine
 10
33.6541682292
 20
144.9385857394
 30
0.0
 11
31.8599126737
 21
144.9385857394
 31
0.0
  0
LINE
  5
C0
330
1F
100
AcDbEntity
  8
0
  6
Continuous
 62
     7
100
AcDbLine
 10
28.3626348959
 20
143.5700857394
 30
0.0
 11
28.3626348959
 21
144.9385857394
 31
0.0
  0
LINE
  5
C1
330
1F
100
AcDbEntity
  8
0
  6
Continuous
 62
     7
100
AcDbLine
 10
25.2150848959
 20
143.5700857394
 30
0.0
 11
28.3626348959
 21
143.5700857394
 31
0.0
  0
LINE
  5
C2
330
1F
100
AcDbEntity
  8
0
  6
Continuous
 62
     7
100
AcDbLine
 10
28.3626348959
 20
144.9385857394
 30
0.0
 11
25.2150848959
 21
144.9385857394
 31
0.0
  0
LINE
  5
C3
330
1F
100
AcDbEntity
  8
0
  6
Continuous
 62
     7
100
AcDbLine
 10
25.2150848959
 20
144.9385857394
 30
0.0
 11
25.2150848959
 21
143.5700857394
 31
0.0
  0
LINE
  5
C4
330
1F
100
AcDbEntity
  8
0
  6
Continuous
 62
     7
100
AcDbLine
 10
28.3626348959
 20
139.920752406
 30
0.0
 11
28.3626348959
 21
141.289252406
 31
0.0
  0
LINE
  5
C5
330
1F
100
AcDbEntity
  8
0
  6
Continuous
 62
     7
100
AcDbLine
 10
25.2150848959
 20
139.920752406
 30
0.0
 11
28.3626348959
 21
139.920752406
 31
0.0
  0
LINE
  5
C6
330
1F
100
AcDbEntity
  8
0
  6
Continuous
 62
     7
100
AcDbLine
 10
25.2150848959
 20
143.1139190727
 30
0.0
 11
25.2150848959
 21
139.920752406
 31
0.0
  0
LINE
  5
C7
330
1F
100
AcDbEntity
  8
0
  6
Continuous
 62
     7
100
AcDbLine
 10
28.3626348959
 20
141.289252406
 30
0.0
 11
26.5835848959
 21
141.289252406
 31
0.0
  0
LINE
  5
C8
330
1F
100
AcDbEntity
  8
0
  6
Continuous
 62
     7
100
AcDbLine
 10
26.5835848959
 20
141.289252406
 30
0.0
 11
26.5835848959
 21
141.7454190727
 31
0.0
  0
LINE
  5
C9
330
1F
100
AcDbEntity
  8
0
  6
Continuous
 62
     7
100
AcDbLine
 10
26.5835848959
 20
141.7454190727
 30
0.0
 11
28.3626348959
 21
141.7454190727
 31
0.0
  0
LINE
  5
CA
330
1F
100
AcDbEntity
  8
0
  6
Continuous
 62
     7
100
AcDbLine
 10
28.3626348959
 20
141.7454190727
 30
0.0
 11
28.3626348959
 21
143.1139190727
 31
0.0
  0
LINE
  5
CB
330
1F
100
AcDbEntity
  8
0
  6
Continuous
 62
     7
100
AcDbLine
 10
28.3626348959
 20
143.1139190727
 30
0.0
 11
25.2150848959
 21
143.1139190727
 31
0.0
  0
LINE
  5
CC
330
1F
100
AcDbEntity
  8
0
  6
Continuous
 62
     7
100
AcDbLine
 10
24.7589182292
 20
143.1139190727
 30
0.0
 11
23.3904182292
 21
143.1139190727
 31
0.0
  0
LINE
  5
CD
330
1F
100
AcDbEntity
  8
0
  6
Continuous
 62
     7
100
AcDbLine
 10
24.7589182292
 20
139.920752406
 30
0.0
 11
24.7589182292
 21
143.1139190727
 31
0.0
  0
LINE
  5
CE
330
1F
100
AcDbEntity
  8
0
  6
Continuous
 62
     7
100
AcDbLine
 10
23.3904182292
 20
139.920752406
 30
0.0
 11
24.7589182292
 21
139.920752406
 31
0.0
  0
LINE
  5
CF
330
1F
100
AcDbEntity
  8
0
  6
Continuous
 62
     7
100
AcDbLine
 10
23.3904182292
 20
143.1139190727
 30
0.0
 11
23.3904182292
 21
139.920752406
 31
0.0
  0
LINE
  5
D0
330
1F
100
AcDbEntity
  8
0
  6
Continuous
 62
     7
100
AcDbLine
 10
23.3904182292
 20
143.5700857394
 30
0.0
 11
24.7589182292
 21
143.5700857394
 31
0.0
  0
LINE
  5
D1
330
1F
100
AcDbEntity
  8
0
  6
Continuous
 62
     7
100
AcDbLine
 10
23.3904182292
 20
144.9385857394
 30
0.0
 11
23.3904182292
 21
143.5700857394
 31
0.0
  0
LINE
  5
D2
330
1F
100
AcDbEntity
  8
0
  6
Continuous
 62
     7
100
AcDbLine
 10
24.7589182292
 20
144.9385857394
 30
0.0
 11
23.3904182292
 21
144.9385857394
 31
0.0
  0
LINE
  5
D3
330
1F
100
AcDbEntity
  8
0
  6
Continuous
 62
     7
100
AcDbLine
 10
24.7589182292
 20
143.5700857394
 30
0.0
 11
24.7589182292
 21
144.9385857394
 31
0.0
  0
LINE
  5
D4
330
1F
100
AcDbEntity
  8
0
  6
Continuous
 62
     7
100
AcDbLine
 10
22.0404182292
 20
136.9297452251
 30
0.0
 11
22.0404182292
 21
134.306104735
 31
0.0
  0
LINE
  5
D5
330
1F
100
AcDbEntity
  8
0
  6
Continuous
 62
     7
100
AcDbLine
 10
22.0404182292
 20
131.1532334104
 30
0.0
 11
22.0404182292
 21
39.9295929203
 31
0.0
  0
LINE
  5
D6
330
1F
100
AcDbEntity
  8
0
  6
Continuous
 62
     7
100
AcDbLine
 10
21.9095052423
 20
137.0606582121
 30
0.0
 11
21.9095052423
 21
39.7986799333
 31
0.0
  0
ELLIPSE
  5
D7
330
1F
100
AcDbEntity
  8
0
  6
Continuous
 62
     7
100
AcDbEllipse
 10
21.9749617357
 20
132.7296690727
 30
0.0
 11
0.0
 21
1.75
 31
0.0
210
0.0
220
0.0
230
1.0
 40
0.0174550649
 41
1.570796326794897
 42
3.591930471219308
  0
ELLIPSE
  5
D8
330
1F
100
AcDbEntity
  8
0
  6
Continuous
 62
     7
100
AcDbEllipse
 10
21.9749617357
 20
132.7296690727
 30
0.0
 11
0.0
 21
1.75
 31
0.0
210
0.0
220
0.0
230
1.0
 40
0.0174550649
 41
5.832847489551374
 42
7.853981633974499
  0
ARC
  5
D9
330
1F
100
AcDbEntity
  8
0
  6
Continuous
 62
     7
100
AcDbCircle
 10
28.8904182292
 20
26.6549529687
 30
0.0
 40
4.213705600722395
100
AcDbArc
 50
60.9891768422
 51
119.0108231578
  0
ELLIPSE
  5
DA
330
1F
100
AcDbEntity
  8
0
  6
Continuous
 62
     7
100
AcDbEllipse
 10
22.4095814063
 20
137.0605058956
 30
0.0
 11
0.3536610945847905
 21
-0.3536610945847941
 31
0.0
210
0.0
220
0.0
230
1.0
 40
0.9996954599
 41
2.356346783439918
 42
3.926838523739728
  0
ELLIPSE
  5
DB
330
1F
100
AcDbEntity
  8
0
  6
Continuous
 62
     7
100
AcDbEllipse
 10
22.5404943932
 20
136.9295929087
 30
0.0
 11
0.3536610945847905
 21
-0.3536610945847941
 31
0.0
210
0.0
220
0.0
230
1.0
 40
0.9996954599
 41
2.356346783439927
 42
3.926838523739705
  0
SPLINE
  5
DC
330
1F
100
AcDbEntity
  8
0
  6
Continuous
 62
     7
100
AcDbSpline
210
0.0
220
0.0
230
1.0
 70
     8
 71
     3
 72
    11
 73
     7
 74
     0
 42
0.00000001
 43
0.00000001
 40
0.0
 40
0.0
 40
0.0
 40
0.0
 40
0.2747331712046157
 40
0.5509888175402037
 40
0.7896628800749872
 40
1.0
 40
1.0
 40
1.0
 40
1.0
 10
140.2837857258303
 20
152.9884885334884
 30
0.0
 10
140.5506364129512
 20
152.5536982866865
 30
0.0
 10
141.0858165803545
 20
151.6817083376279
 30
0.0
 10
141.2285416222005
 20
150.0929249322968
 30
0.0
 10
140.854839744494
 20
148.6038630862587
 30
0.0
 10
140.2707959162768
 20
147.8566814883008
 30
0.0
 10
139.9972034055865
 20
147.506667877249
 30
0.0
  0
LINE
  5
DD
330
1F
100
AcDbEntity
  8
0
  6
Continuous
 62
     7
100
AcDbLine
 10
139.9972034056
 20
147.5066678772
 30
0.0
 11
139.9904182292
 21
147.5223507207
 31
0.0
  0
ARC
  5
DE
330
1F
100
AcDbEntity
  8
0
  6
Continuous
 62
     7
100
AcDbCircle
 10
136.8904182292
 20
150.4296690727
 30
0.0
 40
4.249999999999999
100
AcDbArc
 50
316.8371028597
 51
37.018665572
  0
ARC
  5
DF
330
1F
100
AcDbEntity
  8
0
  6
Continuous
 62
     7
100
AcDbCircle
 10
136.8904182292
 20
150.2043851767
 30
0.0
 40
4.213705600722407
100
AcDbArc
 50
240.9891768422
 51
299.0108231578
  0
SPLINE
  5
E0
330
1F
100
AcDbEntity
  8
0
  6
Continuous
 62
     7
100
AcDbSpline
210
0.0
220
0.0
230
1.0
 70
     8
 71
     3
 72
    12
 73
     8
 74
     0
 42
0.00000001
 43
0.00000001
 40
0.0
 40
0.0
 40
0.0
 40
0.0
 40
0.2148519667571511
 40
0.4304516530037766
 40
0.6444827688672033
 40
0.8743306998723871
 40
0.9999999999999999
 40
0.9999999999999999
 40
0.9999999999999999
 40
0.9999999999999999
 10
133.7836330528448
 20
147.506667877249
 30
0.0
 10
133.5044485310161
 20
147.8650653530985
 30
0.0
 10
132.9451078802038
 20
148.5831075858057
 30
0.0
 10
132.5952572208691
 20
149.9037807423514
 30
0.0
 10
132.6408520664026
 20
151.2231235835827
 30
0.0
 10
132.9961282495395
 20
152.25984138444
 30
0.0
 10
133.3662270836106
 20
152.7981910681354
 30
0.0
 10
133.497050732601
 20
152.9884885334884
 30
0.0
  0
ARC
  5
E1
330
1F
100
AcDbEntity
  8
0
  6
Continuous
 62
     7
100
AcDbCircle
 10
136.8904182292
 20
150.4296690727
 30
0.0
 40
4.249999999999999
100
AcDbArc
 50
142.981334428
 51
223.1628971403
  0
LINE
  5
E2
330
1F
100
AcDbEntity
  8
0
  6
Continuous
 62
     7
100
AcDbLine
 10
133.7836330528
 20
147.5066678772
 30
0.0
 11
133.7904182292
 21
147.5223507207
 31
0.0
  0
ELLIPSE
  5
E3
330
1F
100
AcDbEntity
  8
0
  6
Continuous
 62
     7
100
AcDbEllipse
 10
143.3712550522
 20
137.0605058956
 30
0.0
 11
-0.353661094584794
 21
-0.353661094584794
 31
0.0
210
0.0
220
0.0
230
0.9999999999999998
 40
0.9996954599
 41
2.35634678343988
 42
3.92683852373972
  0
ELLIPSE
  5
E4
330
1F
100
AcDbEntity
  8
0
  6
Continuous
 62
     7
100
AcDbEllipse
 10
143.2403420652
 20
136.9295929087
 30
0.0
 11
-0.353661094584794
 21
-0.353661094584794
 31
0.0
210
0.0
220
0.0
230
0.9999999999999998
 40
0.9996954599
 41
2.356346783439937
 42
3.92683852373972
  0
LINE
  5
E5
330
1F
100
AcDbEntity
  8
0
  6
Continuous
 62
     7
100
AcDbLine
 10
22.4094290898
 20
39.2987560857
 30
0.0
 11
143.3714073686
 21
39.2987560857
 31
0.0
  0
LINE
  5
E6
330
1F
100
AcDbEntity
  8
0
  6
Continuous
 62
     7
100
AcDbLine
 10
22.5403420768
 20
39.4296690727
 30
0.0
 11
143.2404943816
 21
39.4296690727
 31
0.0
  0
LINE
  5
E7
330
1F
100
AcDbEntity
  8
0
  6
Continuous
 62
     7
100
AcDbLine
 10
139.9904182292
 20
147.5066678772
 30
0.0
 11
139.9904182292
 21
147.264853325
 31
0.0
  0
LINE
  5
E8
330
1F
100
AcDbEntity
  8
0
  6
Continuous
 62
     7
100
AcDbLine
 10
139.9972034056
 20
147.5066678772
 30
0.0
 11
139.9904182292
 21
147.5066678772
 31
0.0
  0
SPLINE
  5
E9
330
1F
100
AcDbEntity
  8
0
  6
Continuous
 62
     7
100
AcDbSpline
210
0.0
220
0.0
230
1.0
 70
     8
 71
     3
 72
    14
 73
    10
 74
     0
 42
0.00000001
 43
0.00000001
 40
0.0
 40
0.0
 40
0.0
 40
0.0
 40
0.2073448671834481
 40
0.358548615666845
 40
0.4776971896694932
 40
0.597215424240947
 40
0.7378902318913411
 40
0.9330220044288281
 40
1.0
 40
1.0
 40
1.0
 40
1.0
 10
133.497050732601
 20
152.9884885334884
 30
0.0
 10
133.845067616155
 20
153.3684332986098
 30
0.0
 10
134.4468716227938
 20
154.0254482101177
 30
0.0
 10
135.6094706663871
 20
154.5426712883289
 30
0.0
 10
136.6966302673504
 20
154.7308667187954
 30
0.0
 10
137.7883620898129
 20
154.6452234220353
 30
0.0
 10
138.9515917941268
 20
154.2318163507344
 30
0.0
 10
139.7745560591677
 20
153.6215445518316
 30
0.0
 10
140.18014412586
 20
153.1173320453795
 30
0.0
 10
140.2837857258303
 20
152.9884885334884
 30
0.0
  0
LINE
  5
EA
330
1F
100
AcDbEntity
  8
0
  6
Continuous
 62
     7
100
AcDbLine
 10
133.7904182292
 20
147.5066678772
 30
0.0
 11
133.7836330528
 21
147.5066678772
 31
0.0
  0
LINE
  5
EB
330
1F
100
AcDbEntity
  8
0
  6
Continuous
 62
     7
100
AcDbLine
 10
133.7904182292
 20
147.5066678772
 30
0.0
 11
133.7904182292
 21
147.264853325
 31
0.0
  0
ELLIPSE
  5
EC
330
1F
100
AcDbEntity
  8
0
  6
Continuous
 62
     7
100
AcDbEllipse
 10
143.3712550522
 20
39.7988322498
 30
0.0
 11
-0.353661094584794
 21
0.353661094584794
 31
0.0
210
0.0
220
0.0
230
0.9999999999999998
 40
0.9996954599
 41
2.356346783439977
 42
3.926838523739652
  0
ELLIPSE
  5
ED
330
1F
100
AcDbEntity
  8
0
  6
Continuous
 62
     7
100
AcDbEllipse
 10
143.2403420652
 20
39.9297452367
 30
0.0
 11
-0.3536610945847939
 21
0.3536610945847868
 31
0.0
210
0.0
220
0.0
230
0.9999999999999998
 40
0.9996954599
 41
2.356346783439952
 42
3.926838523739657
  0
SPLINE
  5
EE
330
1F
100
AcDbEntity
  8
0
  6
Continuous
 62
     7
100
AcDbSpline
210
0.0
220
0.0
230
1.0
 70
     8
 71
     3
 72
    11
 73
     7
 74
     0
 42
0.00000001
 43
0.00000001
 40
0.0
 40
0.0
 40
0.0
 40
0.0
 40
0.274733171204615
 40
0.5509888175402045
 40
0.7896628800749876
 40
1.0
 40
1.0
 40
1.0
 40
1.0
 10
25.49705073260092
 20
23.87084961190776
 30
0.0
 10
25.23020004548004
 20
24.3056398587097
 30
0.0
 10
24.69501987807671
 20
25.17762980776828
 30
0.0
 10
24.5522948362307
 20
26.76641321309937
 30
0.0
 10
24.92599671393724
 20
28.25547505913752
 30
0.0
 10
25.51004054215444
 20
29.00265665709535
 30
0.0
 10
25.78363305284471
 20
29.35267026814721
 30
0.0
  0
LINE
  5
EF
330
1F
100
AcDbEntity
  8
0
  6
Continuous
 62
     7
100
AcDbLine
 10
25.7836330528
 20
29.3526702681
 30
0.0
 11
25.7904182292
 21
29.3369874247
 31
0.0
  0
ARC
  5
F0
330
1F
100
AcDbEntity
  8
0
  6
Continuous
 62
     7
100
AcDbCircle
 10
28.8904182292
 20
26.4296690727
 30
0.0
 40
4.250000000000007
100
AcDbArc
 50
136.8371028597
 51
217.018665572
  0
LINE
  5
F1
330
1F
100
AcDbEntity
  8
0
  6
Continuous
 62
     7
100
AcDbLine
 10
139.9904182292
 20
147.264853325
 30
0.0
 11
139.9904182292
 21
146.2595759978
 31
0.0
  0
LINE
  5
F2
330
1F
100
AcDbEntity
  8
0
  6
Continuous
 62
     7
100
AcDbLine
 10
31.9904182292
 20
29.5944848204
 30
0.0
 11
31.9904182292
 21
30.5997621476
 31
0.0
  0
LINE
  5
F3
330
1F
100
AcDbEntity
  8
0
  6
Continuous
 62
     7
100
AcDbLine
 10
25.7904182292
 20
29.5944848204
 30
0.0
 11
25.7904182292
 21
30.5997621476
 31
0.0
  0
ELLIPSE
  5
F4
330
1F
100
AcDbEntity
  8
0
  6
Continuous
 62
     7
100
AcDbEllipse
 10
22.4095814063
 20
39.7988322498
 30
0.0
 11
0.3536610945847905
 21
0.3536610945847941
 31
0.0
210
0.0
220
0.0
230
1.0
 40
0.9996954599
 41
2.356346783439918
 42
3.926838523739665
  0
LINE
  5
F5
330
1F
100
AcDbEntity
  8
0
  6
Continuous
 62
     7
100
AcDbLine
 10
143.8713312162
 20
39.7986799333
 30
0.0
 11
143.8713312162
 21
137.0606582121
 31
0.0
  0
LINE
  5
F6
330
1F
100
AcDbEntity
  8
0
  6
Continuous
 62
     7
100
AcDbLine
 10
143.3714073686
 20
137.5605820597
 30
0.0
 11
22.4094290898
 21
137.5605820597
 31
0.0
  0
LINE
  5
F7
330
1F
100
AcDbEntity
  8
0
  6
Continuous
 62
     7
100
AcDbLine
 10
133.7904182292
 20
147.264853325
 30
0.0
 11
133.7904182292
 21
146.2595759978
 31
0.0
  0
SPLINE
  5
F8
330
1F
100
AcDbEntity
  8
0
  6
Continuous
 62
     7
100
AcDbSpline
210
0.0
220
0.0
230
1.0
 70
     8
 71
     3
 72
    12
 73
     8
 74
     0
 42
0.00000001
 43
0.00000001
 40
0.0
 40
0.0
 40
0.0
 40
0.0
 40
0.2148519667571507
 40
0.4304516530037757
 40
0.6444827688672041
 40
0.8743306998723874
 40
1.0
 40
1.0
 40
1.0
 40
1.0
 10
31.99720340558642
 20
29.35267026814721
 30
0.0
 10
32.27638792741516
 20
28.99427279229763
 30
0.0
 10
32.83572857822749
 20
28.27623055959047
 30
0.0
 10
33.18557923756217
 20
26.95555740304482
 30
0.0
 10
33.13998439202865
 20
25.63621456181341
 30
0.0
 10
32.78470820889175
 20
24.59949676095617
 30
0.0
 10
32.41460937482061
 20
24.06114707726081
 30
0.0
 10
32.28378572583021
 20
23.87084961190776
 30
0.0
  0
ARC
  5
F9
330
1F
100
AcDbEntity
  8
0
  6
Continuous
 62
     7
100
AcDbCircle
 10
28.8904182292
 20
26.4296690727
 30
0.0
 40
4.250000000000007
100
AcDbArc
 50
322.981334428
 51
43.1628971403
  0
LINE
  5
FA
330
1F
100
AcDbEntity
  8
0
  6
Continuous
 62
     7
100
AcDbLine
 10
31.9972034056
 20
29.3526702681
 30
0.0
 11
31.9904182292
 21
29.3369874247
 31
0.0
  0
ELLIPSE
  5
FB
330
1F
100
AcDbEntity
  8
0
  6
Continuous
 62
     7
100
AcDbEllipse
 10
22.5404943932
 20
39.9297452367
 30
0.0
 11
0.3536610945847905
 21
0.353661094584787
 31
0.0
210
0.0
220
0.0
230
1.0
 40
0.9996954599
 41
2.356346783439934
 42
3.926838523739684
  0
LINE
  5
FC
330
1F
100
AcDbEntity
  8
0
  6
Continuous
 62
     7
100
AcDbLine
 10
143.7404182292
 20
39.9295929203
 30
0.0
 11
143.7404182292
 21
131.1532334104
 31
0.0
  0
LINE
  5
FD
330
1F
100
AcDbEntity
  8
0
  6
Continuous
 62
     7
100
AcDbLine
 10
143.7404182292
 20
134.306104735
 30
0.0
 11
143.7404182292
 21
136.9297452251
 31
0.0
  0
ELLIPSE
  5
FE
330
1F
100
AcDbEntity
  8
0
  6
Continuous
 62
     7
100
AcDbEllipse
 10
143.8058747227
 20
132.7296690727
 30
0.0
 11
0.0
 21
1.75
 31
0.0
210
0.0
220
0.0
230
1.0
 40
0.0174550649
 41
2.69125483596103
 42
6.733523124808354
  0
LINE
  5
FF
330
1F
100
AcDbEntity
  8
0
  6
Continuous
 62
     7
100
AcDbLine
 10
143.2404943816
 20
137.4296690727
 30
0.0
 11
22.5403420768
 21
137.4296690727
 31
0.0
  0
LINE
  5
100
330
1F
100
AcDbEntity
  8
0
  6
Continuous
 62
     7
100
AcDbLine
 10
25.7836330528
 20
29.3526702681
 30
0.0
 11
25.7904182292
 21
29.3526702681
 31
0.0
  0
SPLINE
  5
101
330
1F
100
AcDbEntity
  8
0
  6
Continuous
 62
     7
100
AcDbSpline
210
0.0
220
0.0
230
1.0
 70
     8
 71
     3
 72
    14
 73
    10
 74
     0
 42
0.00000001
 43
0.00000001
 40
0.0
 40
0.0
 40
0.0
 40
0.0
 40
0.2073448671834481
 40
0.358548615666845
 40
0.4776971896694932
 40
0.597215424240947
 40
0.7378902318913411
 40
0.9330220044288281
 40
1.0
 40
1.0
 40
1.0
 40
1.0
 10
32.28378572583021
 20
23.87084961190776
 30
0.0
 10
31.93576884227619
 20
23.49090484678633
 30
0.0
 10
31.33396483563743
 20
22.83388993527842
 30
0.0
 10
30.17136579204411
 20
22.31666685706725
 30
0.0
 10
29.08420619108085
 20
22.12847142660076
 30
0.0
 10
27.99247436861835
 20
22.21411472336081
 30
0.0
 10
26.82924466430443
 20
22.62752179466181
 30
0.0
 10
26.00628039926357
 20
23.23779359356455
 30
0.0
 10
25.60069233257126
 20
23.74200610001667
 30
0.0
 10
25.49705073260092
 20
23.87084961190776
 30
0.0
  0
LINE
  5
102
330
1F
100
AcDbEntity
  8
0
  6
Continuous
 62
     7
100
AcDbLine
 10
31.9904182292
 20
29.3526702681
 30
0.0
 11
31.9972034056
 21
29.3526702681
 31
0.0
  0
LINE
  5
103
330
1F
100
AcDbEntity
  8
0
  6
Continuous
 62
     7
100
AcDbLine
 10
31.9904182292
 20
29.3526702681
 30
0.0
 11
31.9904182292
 21
29.5944848204
 31
0.0
  0
LINE
  5
104
330
1F
100
AcDbEntity
  8
0
  6
Continuous
 62
     7
100
AcDbLine
 10
25.7904182292
 20
29.3526702681
 30
0.0
 11
25.7904182292
 21
29.5944848204
 31
0.0
  0
LINE
  5
105
330
1F
100
AcDbEntity
  8
0
  6
Continuous
 62
     7
100
AcDbLine
 10
31.9904182292
 20
29.3526702681
 30
0.0
 11
31.9904182292
 21
29.3369874247
 31
0.0
  0
LINE
  5
106
330
1F
100
AcDbEntity
  8
0
  6
Continuous
 62
     7
100
AcDbLine
 10
139.9904182292
 20
147.5066678772
 30
0.0
 11
139.9904182292
 21
147.5223507207
 31
0.0
  0
LINE
  5
107
330
1F
100
AcDbEntity
  8
0
  6
Continuous
 62
     7
100
AcDbLine
 10
25.7904182292
 20
29.3526702681
 30
0.0
 11
25.7904182292
 21
29.3369874247
 31
0.0
  0
LINE
  5
108
330
1F
100
AcDbEntity
  8
0
  6
Continuous
 62
     7
100
AcDbLine
 10
133.7904182292
 20
147.5066678772
 30
0.0
 11
133.7904182292
 21
147.5223507207
 31
0.0
  0
SPLINE
  5
109
330
1F
100
AcDbEntity
  8
0
  6
Continuous
 62
     7
100
AcDbSpline
210
0.0
220
0.0
230
1.0
 70
     8
 71
     3
 72
     9
 73
     5
 74
     0
 42
0.00000001
 43
0.00000001
 40
0.0
 40
0.0
 40
0.0
 40
0.0
 40
0.5175208016818003
 40
1.0
 40
1.0
 40
1.0
 40
1.0
 10
133.8968779116618
 20
146.5944175862061
 30
0.0
 10
133.8911817318973
 20
146.5934290424139
 30
0.0
 10
133.8801750636706
 20
146.5915188896451
 30
0.0
 10
133.8196299750402
 20
146.5899191390664
 30
0.0
 10
133.7904182292156
 20
146.5891472926896
 30
0.0
  0
LINE
  5
10A
330
1F
100
AcDbEntity
  8
0
  6
Continuous
 62
     7
100
AcDbLine
 10
134.1483053558
 20
146.9296690727
 30
0.0
 11
133.8968779117
 21
146.5944175862
 31
0.0
  0
LINE
  5
10B
330
1F
100
AcDbEntity
  8
0
  6
Continuous
 62
     7
100
AcDbLine
 10
139.6325311026
 20
146.9296690727
 30
0.0
 11
134.1483053558
 21
146.9296690727
 31
0.0
  0
LINE
  5
10C
330
1F
100
AcDbEntity
  8
0
  6
Continuous
 62
     7
100
AcDbLine
 10
139.6325311026
 20
146.9296690727
 30
0.0
 11
139.8839585468
 21
146.5944175862
 31
0.0
  0
SPLINE
  5
10D
330
1F
100
AcDbEntity
  8
0
  6
Continuous
 62
     7
100
AcDbSpline
210
0.0
220
0.0
230
1.0
 70
     8
 71
     3
 72
     9
 73
     5
 74
     0
 42
0.00000001
 43
0.00000001
 40
0.0
 40
0.0
 40
0.0
 40
0.0
 40
0.5175021458616532
 40
1.0
 40
1.0
 40
1.0
 40
1.0
 10
139.9904182292156
 20
146.5891472926896
 30
0.0
 10
139.9593337988446
 20
146.5899795934823
 30
0.0
 10
139.899267515797
 20
146.5915878975237
 30
0.0
 10
139.8889410461938
 20
146.5934966278969
 30
0.0
 10
139.8839585467694
 20
146.5944175862061
 30
0.0
  0
SPLINE
  5
10E
330
1F
100
AcDbEntity
  8
0
  6
Continuous
 62
     7
100
AcDbSpline
210
0.0
220
0.0
230
1.0
 70
     8
 71
     3
 72
     9
 73
     5
 74
     0
 42
0.00000001
 43
0.00000001
 40
0.0
 40
0.0
 40
0.0
 40
0.0
 40
0.5175208016818003
 40
1.0
 40
1.0
 40
1.0
 40
1.0
 10
31.88395854676939
 20
30.26492055919008
 30
0.0
 10
31.88965472653392
 20
30.2659091029823
 30
0.0
 10
31.90066139476064
 20
30.26781925575107
 30
0.0
 10
31.96120648339108
 20
30.26941900632982
 30
0.0
 10
31.99041822921561
 20
30.27019085270659
 30
0.0
  0
LINE
  5
10F
330
1F
100
AcDbEntity
  8
0
  6
Continuous
 62
     7
100
AcDbLine
 10
31.6325311026
 20
29.9296690727
 30
0.0
 11
31.8839585468
 21
30.2649205592
 31
0.0
  0
LINE
  5
110
330
1F
100
AcDbEntity
  8
0
  6
Continuous
 62
     7
100
AcDbLine
 10
26.1483053558
 20
29.9296690727
 30
0.0
 11
31.6325311026
 21
29.9296690727
 31
0.0
  0
LINE
  5
111
330
1F
100
AcDbEntity
  8
0
  6
Continuous
 62
     7
100
AcDbLine
 10
26.1483053558
 20
29.9296690727
 30
0.0
 11
25.8968779117
 21
30.2649205592
 31
0.0
  0
SPLINE
  5
112
330
1F
100
AcDbEntity
  8
0
  6
Continuous
 62
     7
100
AcDbSpline
210
0.0
220
0.0
230
1.0
 70
     8
 71
     3
 72
     9
 73
     5
 74
     0
 42
0.00000001
 43
0.00000001
 40
0.0
 40
0.0
 40
0.0
 40
0.0
 40
0.5175021458616532
 40
1.0
 40
1.0
 40
1.0
 40
1.0
 10
25.79041822921561
 20
30.27019085270659
 30
0.0
 10
25.82150265958665
 20
30.26935855191393
 30
0.0
 10
25.88156894263421
 20
30.26775024787247
 30
0.0
 10
25.89189541223744
 20
30.26584151749928
 30
0.0
 10
25.89687791166184
 20
30.26492055919008
 30
0.0
  0
LINE
  5
113
330
1F
100
AcDbEntity
  8
0
  6
Continuous
 62
     7
100
AcDbLine
 10
146.3904182292
 20
19.4295929203
 30
0.0
 11
146.3904182292
 21
157.4297452251
 31
0.0
  0
LINE
  5
114
330
1F
100
AcDbEntity
  8
0
  6
Continuous
 62
     7
100
AcDbLine
 10
146.3642356318
 20
19.4557755177
 30
0.0
 11
146.3642356318
 21
22.0296233812
 31
0.0
  0
ELLIPSE
  5
115
330
1F
100
AcDbEntity
  8
0
  6
Continuous
 62
     7
100
AcDbEllipse
 10
145.6180316061
 20
132.7296690727
 30
0.0
 11
0.0
 21
1.75
 31
0.0
210
0.0
220
0.0
230
1.0
 40
0.0174550649
 41
0.0
 42
6.283185307179586
  0
LINE
  5
116
330
1F
100
AcDbEntity
  8
0
  6
Continuous
 62
     7
100
AcDbLine
 10
19.3904182292
 20
157.4297452251
 30
0.0
 11
19.3904182292
 21
19.4295929203
 31
0.0
  0
LINE
  5
117
330
1F
100
AcDbEntity
  8
0
  6
Continuous
 62
     7
100
AcDbLine
 10
19.4166008266
 20
157.4035626277
 30
0.0
 11
19.4166008266
 21
154.8297147642
 31
0.0
  0
ELLIPSE
  5
118
330
1F
100
AcDbEntity
  8
0
  6
Continuous
 62
     7
100
AcDbEllipse
 10
20.1628048523
 20
132.7296690727
 30
0.0
 11
0.0
 21
1.75
 31
0.0
210
0.0
220
0.0
230
1.0
 40
0.0174550649
 41
0.0
 42
6.283185307179586
  0
ARC
  5
119
330
1F
100
AcDbEntity
  8
0
  6
Continuous
 62
     7
100
AcDbCircle
 10
136.8904182292
 20
150.4296690727
 30
0.0
 40
4.249999999999999
100
AcDbArc
 50
37.018665572
 51
142.981334428
  0
ARC
  5
11A
330
1F
100
AcDbEntity
  8
0
  6
Continuous
 62
     7
100
AcDbCircle
 10
28.8904182292
 20
26.4296690727
 30
0.0
 40
4.250000000000007
100
AcDbArc
 50
217.018665572
 51
322.981334428
  0
ARC
  5
11B
330
1F
100
AcDbEntity
  8
0
  6
Continuous
 62
     7
100
AcDbCircle
 10
28.2904182292
 20
26.6049529687
 30
0.0
 40
2.500000000000011
100
AcDbArc
 50
180.0
 51
270.0
  0
LINE
  5
11C
330
1F
100
AcDbEntity
  8
0
  6
Continuous
 62
     7
100
AcDbLine
 10
28.2904182292
 20
24.1049529687
 30
0.0
 11
29.4904182292
 21
24.1049529687
 31
0.0
  0
ARC
  5
11D
330
1F
100
AcDbEntity
  8
0
  6
Continuous
 62
     7
100
AcDbCircle
 10
29.4904182292
 20
26.6049529687
 30
0.0
 40
2.500000000000011
100
AcDbArc
 50
270.0
 51
0.0
  0
LINE
  5
11E
330
1F
100
AcDbEntity
  8
0
  6
Continuous
 62
     7
100
AcDbLine
 10
31.9904182292
 20
29.3369874247
 30
0.0
 11
31.9904182292
 21
26.6049529687
 31
0.0
  0
LINE
  5
11F
330
1F
100
AcDbEntity
  8
0
  6
Continuous
 62
     7
100
AcDbLine
 10
25.7904182292
 20
29.3369874247
 30
0.0
 11
25.7904182292
 21
26.6049529687
 31
0.0
  0
LINE
  5
120
330
1F
100
AcDbEntity
  8
0
  6
Continuous
 62
     7
100
AcDbLine
 10
137.4904182292
 20
152.7543851767
 30
0.0
 11
136.2904182292
 21
152.7543851767
 31
0.0
  0
ARC
  5
121
330
1F
100
AcDbEntity
  8
0
  6
Continuous
 62
     7
100
AcDbCircle
 10
136.2904182292
 20
150.2543851767
 30
0.0
 40
2.5
100
AcDbArc
 50
90.0
 51
180.0
  0
ARC
  5
122
330
1F
100
AcDbEntity
  8
0
  6
Continuous
 62
     7
100
AcDbCircle
 10
137.4904182292
 20
150.2543851767
 30
0.0
 40
2.5
100
AcDbArc
 50
0.0
 51
90.0
  0
LINE
  5
123
330
1F
100
AcDbEntity
  8
0
  6
Continuous
 62
     7
100
AcDbLine
 10
139.9904182292
 20
147.5223507207
 30
0.0
 11
139.9904182292
 21
150.2543851767
 31
0.0
  0
LINE
  5
124
330
1F
100
AcDbEntity
  8
0
  6
Continuous
 62
     7
100
AcDbLine
 10
133.7904182292
 20
147.5223507207
 30
0.0
 11
133.7904182292
 21
150.2543851767
 31
0.0
  0
ARC
  5
125
330
1F
100
AcDbEntity
  8
0
  6
Continuous
 62
     7
100
AcDbCircle
 10
21.1904182292
 20
156.1296690727
 30
0.0
 40
1.000000000000011
100
AcDbArc
 50
270.0
 51
0.0
  0
ARC
  5
126
330
1F
100
AcDbEntity
  8
0
  6
Continuous
 62
     7
100
AcDbCircle
 10
144.5904182292
 20
20.7296690727
 30
0.0
 40
1.0
100
AcDbArc
 50
90.0
 51
180.0
  0
LINE
  5
127
330
1F
100
AcDbEntity
  8
0
  6
Continuous
 62
     7
100
AcDbLine
 10
146.0642813233
 20
21.7296690727
 30
0.0
 11
144.5904182292
 21
21.7296690727
 31
0.0
  0
LINE
  5
128
330
1F
100
AcDbEntity
  8
0
  6
Continuous
 62
     7
100
AcDbLine
 10
19.7165551352
 20
155.1296690727
 30
0.0
 11
21.1904182292
 21
155.1296690727
 31
0.0
  0
ELLIPSE
  5
129
330
1F
100
AcDbEntity
  8
0
  6
Continuous
 62
     7
100
AcDbEllipse
 10
146.0641899334
 20
22.0297147711
 30
0.0
 11
0.2121966567508764
 21
-0.2121966567508764
 31
0.0
210
0.0
220
0.0
230
0.9999999999999998
 40
0.9996954599
 41
5.497939437029716
 42
7.06843117732941
  0
ELLIPSE
  5
12A
330
1F
100
AcDbEntity
  8
0
  6
Continuous
 62
     7
100
AcDbEllipse
 10
19.716646525
 20
154.8296233743
 30
0.0
 11
-0.2121966567508764
 21
0.212196656750848
 31
0.0
210
0.0
220
0.0
230
1.0
 40
0.9996954599
 41
5.497939437029738
 42
7.068431177329373
  0
LINE
  5
12B
330
1F
100
AcDbEntity
  8
0
  6
Continuous
 62
     7
100
AcDbLine
 10
22.1904182292
 20
156.1296690727
 30
0.0
 11
22.1904182292
 21
157.6035321668
 31
0.0
  0
LINE
  5
12C
330
1F
100
AcDbEntity
  8
0
  6
Continuous
 62
     7
100
AcDbLine
 10
143.5904182292
 20
20.7296690727
 30
0.0
 11
143.5904182292
 21
19.2558059786
 31
0.0
  0
ELLIPSE
  5
12D
330
1F
100
AcDbEntity
  8
0
  6
Continuous
 62
     7
100
AcDbEllipse
 10
145.8903420652
 20
157.4295929087
 30
0.0
 11
0.353661094584794
 21
0.353661094584794
 31
0.0
210
0.0
220
0.0
230
0.9999999999999998
 40
0.9996954599
 41
5.497939437029745
 42
7.068431177329499
  0
ELLIPSE
  5
12E
330
1F
100
AcDbEntity
  8
0
  6
Continuous
 62
     7
100
AcDbEllipse
 10
19.8904943932
 20
19.4297452367
 30
0.0
 11
-0.353661094584787
 21
-0.3536610945847905
 31
0.0
210
0.0
220
0.0
230
1.0
 40
0.9996954599
 41
5.497939437029737
 42
7.068431177329446
  0
ELLIPSE
  5
12F
330
1F
100
AcDbEntity
  8
0
  6
Continuous
 62
     7
100
AcDbEllipse
 10
22.4904639276
 20
157.6034407769
 30
0.0
 11
0.2121966567508729
 21
-0.2121966567508764
 31
0.0
210
0.0
220
0.0
230
0.9999999999999998
 40
0.9996954599
 41
2.356346783439936
 42
3.926838523739729
  0
ELLIPSE
  5
130
330
1F
100
AcDbEntity
  8
0
  6
Continuous
 62
     7
100
AcDbEllipse
 10
143.2903725308
 20
19.2558973685
 30
0.0
 11
-0.212196656750848
 21
0.2121966567508728
 31
0.0
210
0.0
220
0.0
230
0.9999999999999998
 40
0.9996954599
 41
2.356346783439972
 42
3.926838523739697
  0
LINE
  5
131
330
1F
100
AcDbEntity
  8
0
  6
Continuous
 62
     7
100
AcDbLine
 10
22.4903725378
 20
157.9034864753
 30
0.0
 11
19.9165246742
 21
157.9034864753
 31
0.0
  0
LINE
  5
132
330
1F
100
AcDbEntity
  8
0
  6
Continuous
 62
     7
100
AcDbLine
 10
145.8904943816
 20
157.9296690727
 30
0.0
 11
19.8903420768
 21
157.9296690727
 31
0.0
  0
LINE
  5
133
330
1F
100
AcDbEntity
  8
0
  6
Continuous
 62
     7
100
AcDbLine
 10
143.2904639207
 20
18.9558516701
 30
0.0
 11
145.8643117842
 21
18.9558516701
 31
0.0
  0
LINE
  5
134
330
1F
100
AcDbEntity
  8
0
  6
Continuous
 62
     7
100
AcDbLine
 10
19.8903420768
 20
18.9296690727
 30
0.0
 11
145.8904943816
 21
18.9296690727
 31
0.0
  0
LINE
  5
135
330
1F
100
AcDbEntity
  8
0
  6
Continuous
 62
     7
100
AcDbLine
 10
139.6325311026
 20
147.2703737483
 30
0.0
 11
139.6325311026
 21
146.9296690727
 31
0.0
  0
LINE
  5
136
330
1F
100
AcDbEntity
  8
0
  6
Continuous
 62
     7
100
AcDbLine
 10
134.1483053558
 20
147.2703737483
 30
0.0
 11
134.1483053558
 21
146.9296690727
 31
0.0
  0
LINE
  5
137
330
1F
100
AcDbEntity
  8
0
  6
Continuous
 62
     7
100
AcDbLine
 10
31.6325311026
 20
29.5889643971
 30
0.0
 11
31.6325311026
 21
29.9296690727
 31
0.0
  0
LINE
  5
138
330
1F
100
AcDbEntity
  8
0
  6
Continuous
 62
     7
100
AcDbLine
 10
26.1483053558
 20
29.5889643971
 30
0.0
 11
26.1483053558
 21
29.9296690727
 31
0.0
  0
ELLIPSE
  5
139
330
1F
100
AcDbEntity
  8
0
  6
Continuous
 62
     7
100
AcDbEllipse
 10
145.8903420652
 20
19.4297452367
 30
0.0
 11
0.3536610945847941
 21
-0.3536610945847905
 31
0.0
210
0.0
220
0.0
230
1.0
 40
0.9996954599
 41
5.497939437029795
 42
7.068431177329459
  0
ELLIPSE
  5
13A
330
1F
100
AcDbEntity
  8
0
  6
Continuous
 62
     7
100
AcDbEllipse
 10
145.8641594678
 20
19.4559278341
 30
0.0
 11
0.3536610945847655
 21
-0.3536610945847868
 31
0.0
210
0.0
220
0.0
230
0.9999999999999998
 40
0.9996954599
 41
5.497939437029721
 42
7.068431177329462
  0
ELLIPSE
  5
13B
330
1F
100
AcDbEntity
  8
0
  6
Continuous
 62
     7
100
AcDbEllipse
 10
19.9166769906
 20
157.4034103113
 30
0.0
 11
-0.3536610945847905
 21
0.3536610945847656
 31
0.0
210
0.0
220
0.0
230
1.0
 40
0.9996954599
 41
5.497939437029699
 42
7.068431177329481
  0
CIRCLE
  5
13C
330
1F
100
AcDbEntity
  8
0
  6
Continuous
 62
     7
100
AcDbCircle
 10
20.7904182292
 20
156.5296690727
 30
0.0
 40
0.6000000000000014
  0
CIRCLE
  5
13D
330
1F
100
AcDbEntity
  8
0
  6
Continuous
 62
     7
100
AcDbCircle
 10
144.9904182292
 20
20.3296690727
 30
0.0
 40
0.6000000000000227
  0
ELLIPSE
  5
13E
330
1F
100
AcDbEntity
  8
0
  6
Continuous
 62
     7
100
AcDbEllipse
 10
19.8904943932
 20
157.4295929087
 30
0.0
 11
-0.3536610945847905
 21
0.3536610945847941
 31
0.0
210
0.0
220
0.0
230
1.0
 40
0.9996954599
 41
5.497939437029697
 42
7.068431177329507
  0
ARC
  5
13F
330
1F
100
AcDbEntity
  8
0
  6
Continuous
 62
     7
100
AcDbCircle
 10
28.8904182292
 20
26.4296690727
 30
0.0
 40
2.095598151757078
100
AcDbArc
 50
125.9895963129
 51
234.0104036871
  0
SPLINE
  5
140
330
1F
100
AcDbEntity
  8
0
  6
Continuous
 62
     7
100
AcDbSpline
210
0.0
220
0.0
230
1.0
 70
     8
 71
     3
 72
     8
 73
     4
 74
     0
 42
0.00000001
 43
0.00000001
 40
0.0
 40
0.0
 40
0.0
 40
0.0
 40
0.0007298054706714
 40
0.0007298054706714
 40
0.0007298054706714
 40
0.0007298054706714
 10
27.65896440490635
 20
24.73407092094114
 30
0.0
 10
27.60450795654837
 20
24.56641941696934
 30
0.0
 10
27.55343128120533
 20
24.39821042667743
 30
0.0
 10
27.50477758316056
 20
24.22966907269815
 30
0.0
  0
ARC
  5
141
330
1F
100
AcDbEntity
  8
0
  6
Continuous
 62
     7
100
AcDbCircle
 10
28.8904182292
 20
26.4296690727
 30
0.0
 40
2.599999999999966
100
AcDbArc
 50
122.204227504
 51
237.795772496
  0
SPLINE
  5
142
330
1F
100
AcDbEntity
  8
0
  6
Continuous
 62
     7
100
AcDbSpline
210
0.0
220
0.0
230
1.0
 70
     8
 71
     3
 72
     8
 73
     4
 74
     0
 42
0.00000001
 43
0.00000001
 40
0.0
 40
0.0
 40
0.0
 40
0.0
 40
0.0007298054706714
 40
0.0007298054706714
 40
0.0007298054706714
 40
0.0007298054706714
 10
27.50477758316057
 20
28.62966907269806
 30
0.0
 10
27.55343128120534
 20
28.46112771871877
 30
0.0
 10
27.60450795654856
 20
28.29291872842689
 30
0.0
 10
27.65896440490653
 20
28.1252672244551
 30
0.0
  0
LINE
  5
143
330
1F
100
AcDbEntity
  8
0
  6
Continuous
 62
     7
100
AcDbLine
 10
138.1218720535
 20
152.1252672245
 30
0.0
 11
135.6589644049
 21
152.1252672245
 31
0.0
  0
SPLINE
  5
144
330
1F
100
AcDbEntity
  8
0
  6
Continuous
 62
     7
100
AcDbSpline
210
0.0
220
0.0
230
1.0
 70
     8
 71
     3
 72
     8
 73
     4
 74
     0
 42
0.00000001
 43
0.00000001
 40
0.0
 40
0.0
 40
0.0
 40
0.0
 40
0.0007298054706715
 40
0.0007298054706715
 40
0.0007298054706715
 40
0.0007298054706715
 10
135.5047775831604
 20
152.6296690726981
 30
0.0
 10
135.5534312812052
 20
152.4611277187188
 30
0.0
 10
135.6045079565484
 20
152.2929187284269
 30
0.0
 10
135.6589644049064
 20
152.1252672244551
 30
0.0
  0
LINE
  5
145
330
1F
100
AcDbEntity
  8
0
  6
Continuous
 62
     7
100
AcDbLine
 10
135.5106577444
 20
152.6296690727
 30
0.0
 11
138.270178714
 21
152.6296690727
 31
0.0
  0
SPLINE
  5
146
330
1F
100
AcDbEntity
  8
0
  6
Continuous
 62
     7
100
AcDbSpline
210
0.0
220
0.0
230
1.0
 70
     8
 71
     3
 72
     8
 73
     4
 74
     0
 42
0.00000001
 43
0.00000001
 40
0.0
 40
0.0
 40
0.0
 40
0.0
 40
0.0007298054706715
 40
0.0007298054706715
 40
0.0007298054706715
 40
0.0007298054706715
 10
138.1218720535249
 20
152.1252672244551
 30
0.0
 10
138.1763285018829
 20
152.2929187284269
 30
0.0
 10
138.2274051772259
 20
152.4611277187188
 30
0.0
 10
138.2760588752707
 20
152.6296690726981
 30
0.0
  0
LINE
  5
147
330
1F
100
AcDbEntity
  8
0
  6
Continuous
 62
     7
100
AcDbLine
 10
30.270178714
 20
24.2296690727
 30
0.0
 11
27.5106577444
 21
24.2296690727
 31
0.0
  0
LINE
  5
148
330
1F
100
AcDbEntity
  8
0
  6
Continuous
 62
     7
100
AcDbLine
 10
27.6589644049
 20
24.7340709209
 30
0.0
 11
30.1218720535
 21
24.7340709209
 31
0.0
  0
SPLINE
  5
149
330
1F
100
AcDbEntity
  8
0
  6
Continuous
 62
     7
100
AcDbSpline
210
0.0
220
0.0
230
1.0
 70
     8
 71
     3
 72
     8
 73
     4
 74
     0
 42
0.00000001
 43
0.00000001
 40
0.0
 40
0.0
 40
0.0
 40
0.0
 40
0.0007298054706714
 40
0.0007298054706714
 40
0.0007298054706714
 40
0.0007298054706714
 10
30.121872053525
 20
24.73407092094114
 30
0.0
 10
30.17632850188298
 20
24.56641941696934
 30
0.0
 10
30.22740517722603
 20
24.39821042667743
 30
0.0
 10
30.27605887527079
 20
24.22966907269815
 30
0.0
  0
ARC
  5
14A
330
1F
100
AcDbEntity
  8
0
  6
Continuous
 62
     7
100
AcDbCircle
 10
136.8904182292
 20
150.4296690727
 30
0.0
 40
2.600000000000011
100
AcDbArc
 50
302.204227504
 51
57.795772496
  0
ARC
  5
14B
330
1F
100
AcDbEntity
  8
0
  6
Continuous
 62
     7
100
AcDbCircle
 10
136.8904182292
 20
150.4296690727
 30
0.0
 40
2.600000000000011
100
AcDbArc
 50
122.204227504
 51
237.795772496
  0
LINE
  5
14C
330
1F
100
AcDbEntity
  8
0
  6
Continuous
 62
     7
100
AcDbLine
 10
138.2760588753
 20
148.2296690727
 30
0.0
 11
135.5047775832
 21
148.2296690727
 31
0.0
  0
ARC
  5
14D
330
1F
100
AcDbEntity
  8
0
  6
Continuous
 62
     7
100
AcDbCircle
 10
136.8904182292
 20
150.4296690727
 30
0.0
 40
2.0955981517571
100
AcDbArc
 50
125.9895963129
 51
234.0104036871
  0
SPLINE
  5
14E
330
1F
100
AcDbEntity
  8
0
  6
Continuous
 62
     7
100
AcDbSpline
210
0.0
220
0.0
230
1.0
 70
     8
 71
     3
 72
     8
 73
     4
 74
     0
 42
0.00000001
 43
0.00000001
 40
0.0
 40
0.0
 40
0.0
 40
0.0
 40
0.0007298054706715
 40
0.0007298054706715
 40
0.0007298054706715
 40
0.0007298054706715
 10
135.6589644049062
 20
148.7340709209411
 30
0.0
 10
135.6045079565483
 20
148.5664194169693
 30
0.0
 10
135.5534312812052
 20
148.3982104266774
 30
0.0
 10
135.5047775831604
 20
148.2296690726981
 30
0.0
  0
LINE
  5
14F
330
1F
100
AcDbEntity
  8
0
  6
Continuous
 62
     7
100
AcDbLine
 10
135.6589644049
 20
148.7340709209
 30
0.0
 11
138.1218720535
 21
148.7340709209
 31
0.0
  0
SPLINE
  5
150
330
1F
100
AcDbEntity
  8
0
  6
Continuous
 62
     7
100
AcDbSpline
210
0.0
220
0.0
230
1.0
 70
     8
 71
     3
 72
     8
 73
     4
 74
     0
 42
0.00000001
 43
0.00000001
 40
0.0
 40
0.0
 40
0.0
 40
0.0
 40
0.0007298054706715
 40
0.0007298054706715
 40
0.0007298054706715
 40
0.0007298054706715
 10
138.1218720535249
 20
148.7340709209411
 30
0.0
 10
138.1763285018828
 20
148.5664194169693
 30
0.0
 10
138.2274051772259
 20
148.3982104266774
 30
0.0
 10
138.2760588752707
 20
148.2296690726981
 30
0.0
  0
ARC
  5
151
330
1F
100
AcDbEntity
  8
0
  6
Continuous
 62
     7
100
AcDbCircle
 10
136.8904182292
 20
150.4296690727
 30
0.0
 40
2.0955981517571
100
AcDbArc
 50
305.9895963129
 51
54.0104036871
  0
LINE
  5
152
330
1F
100
AcDbEntity
  8
0
  6
Continuous
 62
     7
100
AcDbLine
 10
30.1218720535
 20
28.1252672245
 30
0.0
 11
27.6589644049
 21
28.1252672245
 31
0.0
  0
LINE
  5
153
330
1F
100
AcDbEntity
  8
0
  6
Continuous
 62
     7
100
AcDbLine
 10
27.5047775832
 20
28.6296690727
 30
0.0
 11
30.2760588753
 21
28.6296690727
 31
0.0
  0
SPLINE
  5
154
330
1F
100
AcDbEntity
  8
0
  6
Continuous
 62
     7
100
AcDbSpline
210
0.0
220
0.0
230
1.0
 70
     8
 71
     3
 72
     8
 73
     4
 74
     0
 42
0.00000001
 43
0.00000001
 40
0.0
 40
0.0
 40
0.0
 40
0.0
 40
0.0007298054706714
 40
0.0007298054706714
 40
0.0007298054706714
 40
0.0007298054706714
 10
30.12187205352499
 20
28.12526722445507
 30
0.0
 10
30.17632850188297
 20
28.29291872842686
 30
0.0
 10
30.22740517722601
 20
28.46112771871877
 30
0.0
 10
30.27605887527077
 20
28.62966907269807
 30
0.0
  0
ARC
  5
155
330
1F
100
AcDbEntity
  8
0
  6
Continuous
 62
     7
100
AcDbCircle
 10
28.8904182292
 20
26.4296690727
 30
0.0
 40
2.599999999999962
100
AcDbArc
 50
302.204227504
 51
57.795772496
  0
ARC
  5
156
330
1F
100
AcDbEntity
  8
0
  6
Continuous
 62
     7
100
AcDbCircle
 10
28.8904182292
 20
26.4296690727
 30
0.0
 40
2.095598151757078
100
AcDbArc
 50
305.9895963129
 51
54.0104036871
  0
ELLIPSE
  5
157
330
1F
100
AcDbEntity
  8
0
  6
Continuous
 62
     7
100
AcDbEllipse
 10
30.361164281
 20
27.4597104488
 30
0.0
 11
1.414644378339165
 21
1.414644378339165
 31
0.0
210
0.0
220
0.0
230
0.9999999999999998
 40
0.9996954599
 41
6.116863914039399
 42
7.06843117732945
  0
ELLIPSE
  5
158
330
1F
100
AcDbEntity
  8
0
  6
Continuous
 62
     7
100
AcDbEllipse
 10
135.4196721775
 20
149.3996276966
 30
0.0
 11
-1.414644378339176
 21
-1.414644378339176
 31
0.0
210
0.0
220
0.0
230
0.9999999999999998
 40
0.9996954599
 41
6.116863914039397
 42
7.068431177329441
  0
ELLIPSE
  5
159
330
1F
100
AcDbEntity
  8
0
  6
Continuous
 62
     7
100
AcDbEllipse
 10
27.4196721775
 20
27.4597104488
 30
0.0
 11
-1.414644378339165
 21
1.414644378339165
 31
0.0
210
0.0
220
0.0
230
0.9999999999999998
 40
0.9996954599
 41
5.497939437029733
 42
6.449506700319788
  0
ELLIPSE
  5
15A
330
1F
100
AcDbEntity
  8
0
  6
Continuous
 62
     7
100
AcDbEllipse
 10
138.361164281
 20
149.3996276966
 30
0.0
 11
1.414644378339147
 21
-1.414644378339176
 31
0.0
210
0.0
220
0.0
230
0.9999999999999998
 40
0.9996954599
 41
5.497939437029731
 42
6.449506700319801
  0
LINE
  5
15B
330
1F
100
AcDbEntity
  8
0
  6
Continuous
 62
     7
100
AcDbLine
 10
30.3617735467
 20
29.4600151049
 30
0.0
 11
31.6788947635
 21
29.4600151049
 31
0.0
  0
LINE
  5
15C
330
1F
100
AcDbEntity
  8
0
  6
Continuous
 62
     7
100
AcDbLine
 10
26.1019416925
 20
29.4600151049
 30
0.0
 11
27.4190629117
 21
29.4600151049
 31
0.0
  0
LINE
  5
15D
330
1F
100
AcDbEntity
  8
0
  6
Continuous
 62
     7
100
AcDbLine
 10
26.1019416949
 20
29.5889643971
 30
0.0
 11
31.6788947635
 21
29.5889643971
 31
0.0
  0
LINE
  5
15E
330
1F
100
AcDbEntity
  8
0
  6
Continuous
 62
     7
100
AcDbLine
 10
135.4190629117
 20
147.3993230405
 30
0.0
 11
134.1019416949
 21
147.3993230405
 31
0.0
  0
LINE
  5
15F
330
1F
100
AcDbEntity
  8
0
  6
Continuous
 62
     7
100
AcDbLine
 10
139.678894766
 20
147.3993230405
 30
0.0
 11
138.3617735467
 21
147.3993230405
 31
0.0
  0
LINE
  5
160
330
1F
100
AcDbEntity
  8
0
  6
Continuous
 62
     7
100
AcDbLine
 10
134.1019416949
 20
147.2703737483
 30
0.0
 11
139.6788947635
 21
147.2703737483
 31
0.0
  0
ARC
  5
161
330
1F
100
AcDbEntity
  8
0
  6
Continuous
 62
     7
100
AcDbCircle
 10
28.8904182292
 20
26.4296690727
 30
0.0
 40
2.02145818988317
100
AcDbArc
 50
126.6666812575
 51
233.3333187425
  0
LWPOLYLINE
  5
162
330
1F
100
AcDbEntity
  8
0
  6
Continuous
 62
     7
100
AcDbPolyline
 90
        3
 70
   128
 43
0.0
 10
27.6832866904
 20
24.8082108828
 10
27.6717522425
 20
24.7732355888
 10
27.6589644049
 20
24.7340709209
  0
LWPOLYLINE
  5
163
330
1F
100
AcDbEntity
  8
0
  6
Continuous
 62
     7
100
AcDbPolyline
 90
        3
 70
   128
 43
0.0
 10
27.6832866904
 20
28.0511272626
 10
27.6717522425
 20
28.0861025566
 10
27.6589644049
 20
28.1252672245
  0
LINE
  5
164
330
1F
100
AcDbEntity
  8
0
  6
Continuous
 62
     7
100
AcDbLine
 10
27.6832866904
 20
24.8082108828
 30
0.0
 11
30.097549768
 21
24.8082108828
 31
0.0
  0
LWPOLYLINE
  5
165
330
1F
100
AcDbEntity
  8
0
  6
Continuous
 62
     7
100
AcDbPolyline
 90
        3
 70
   128
 43
0.0
 10
30.097549768
 20
24.8082108828
 10
30.1090842159
 20
24.7732355888
 10
30.1218720535
 20
24.7340709209
  0
ARC
  5
166
330
1F
100
AcDbEntity
  8
0
  6
Continuous
 62
     7
100
AcDbCircle
 10
28.8904182292
 20
26.4296690727
 30
0.0
 40
2.02145818988317
100
AcDbArc
 50
306.6666812575
 51
53.3333187425
  0
LWPOLYLINE
  5
167
330
1F
100
AcDbEntity
  8
0
  6
Continuous
 62
     7
100
AcDbPolyline
 90
        3
 70
   128
 43
0.0
 10
30.097549768
 20
28.0511272626
 10
30.1090842159
 20
28.0861025566
 10
30.1218720535
 20
28.1252672245
  0
LINE
  5
168
330
1F
100
AcDbEntity
  8
0
  6
Continuous
 62
     7
100
AcDbLine
 10
30.097549768
 20
28.0511272626
 30
0.0
 11
27.6832866904
 21
28.0511272626
 31
0.0
  0
LINE
  5
169
330
1F
100
AcDbEntity
  8
0
  6
Continuous
 62
     7
100
AcDbLine
 10
138.097549768
 20
152.0511272626
 30
0.0
 11
135.6832866904
 21
152.0511272626
 31
0.0
  0
LWPOLYLINE
  5
16A
330
1F
100
AcDbEntity
  8
0
  6
Continuous
 62
     7
100
AcDbPolyline
 90
        3
 70
   128
 43
0.0
 10
135.6832866904
 20
152.0511272626
 10
135.6717522425
 20
152.0861025566
 10
135.6589644049
 20
152.1252672245
  0
LWPOLYLINE
  5
16B
330
1F
100
AcDbEntity
  8
0
  6
Continuous
 62
     7
100
AcDbPolyline
 90
        3
 70
   128
 43
0.0
 10
138.097549768
 20
152.0511272626
 10
138.1090842159
 20
152.0861025566
 10
138.1218720535
 20
152.1252672245
  0
ARC
  5
16C
330
1F
100
AcDbEntity
  8
0
  6
Continuous
 62
     7
100
AcDbCircle
 10
136.8904182292
 20
150.4296690727
 30
0.0
 40
2.021458189883166
100
AcDbArc
 50
306.6666812575
 51
53.3333187425
  0
LWPOLYLINE
  5
16D
330
1F
100
AcDbEntity
  8
0
  6
Continuous
 62
     7
100
AcDbPolyline
 90
        3
 70
   128
 43
0.0
 10
138.097549768
 20
148.8082108828
 10
138.1090842159
 20
148.7732355888
 10
138.1218720535
 20
148.7340709209
  0
LINE
  5
16E
330
1F
100
AcDbEntity
  8
0
  6
Continuous
 62
     7
100
AcDbLine
 10
135.6832866904
 20
148.8082108828
 30
0.0
 11
138.097549768
 21
148.8082108828
 31
0.0
  0
LWPOLYLINE
  5
16F
330
1F
100
AcDbEntity
  8
0
  6
Continuous
 62
     7
100
AcDbPolyline
 90
        3
 70
   128
 43
0.0
 10
135.6832866904
 20
148.8082108828
 10
135.6717522425
 20
148.7732355888
 10
135.6589644049
 20
148.7340709209
  0
ARC
  5
170
330
1F
100
AcDbEntity
  8
0
  6
Continuous
 62
     7
100
AcDbCircle
 10
136.8904182292
 20
150.4296690727
 30
0.0
 40
2.021458189883183
100
AcDbArc
 50
126.6666812575
 51
233.3333187425
  0
SPLINE
  5
171
330
1F
100
AcDbEntity
  8
0
  6
Continuous
 62
     7
100
AcDbSpline
210
0.0
220
0.0
230
1.0
 70
     8
 71
     3
 72
     8
 73
     4
 74
     0
 42
0.00000001
 43
0.00000001
 40
6.997604490004233
 40
6.997604490004233
 40
6.997604490004233
 40
6.997604490004233
 40
7.390151294403444
 40
7.390151294403444
 40
7.390151294403444
 40
7.390151294403444
 10
25.82490088639116
 20
29.77414557544708
 30
0.0
 10
25.80988203310405
 20
29.81042734065777
 30
0.0
 10
25.80207874874082
 20
29.84967878094744
 30
0.0
 10
25.80207874837785
 20
29.8889644249266
 30
0.0
  0
SPLINE
  5
172
330
1F
100
AcDbEntity
  8
0
  6
Continuous
 62
     7
100
AcDbSpline
210
0.0
220
0.0
230
1.0
 70
     8
 71
     3
 72
     8
 73
     4
 74
     0
 42
0.00000001
 43
0.00000001
 40
6.605057671030598
 40
6.605057671030598
 40
6.605057671030598
 40
6.605057671030598
 40
6.997604490004233
 40
6.997604490004233
 40
6.997604490004233
 40
6.997604490004233
 10
25.88989549606092
 20
29.67682128988797
 30
0.0
 10
25.86214252376692
 20
29.70458694935946
 30
0.0
 10
25.83991973967827
 20
29.73786381023639
 30
0.0
 10
25.82490088639116
 20
29.77414557544708
 30
0.0
  0
SPLINE
  5
173
330
1F
100
AcDbEntity
  8
0
  6
Continuous
 62
     7
100
AcDbSpline
210
0.0
220
0.0
230
1.0
 70
     8
 71
     3
 72
     8
 73
     4
 74
     0
 42
0.00000001
 43
0.00000001
 40
6.212510859439274
 40
6.212510859439274
 40
6.212510859439274
 40
6.212510859439274
 40
6.605057671030598
 40
6.605057671030598
 40
6.605057671030598
 40
6.605057671030598
 10
25.9871753104818
 20
29.61179696815217
 30
0.0
 10
25.95091012382202
 20
29.62682268723916
 30
0.0
 10
25.91764846835491
 20
29.64905563041647
 30
0.0
 10
25.88989549606092
 20
29.67682128988797
 30
0.0
  0
SPLINE
  5
174
330
1F
100
AcDbEntity
  8
0
  6
Continuous
 62
     7
100
AcDbSpline
210
0.0
220
0.0
230
1.0
 70
     8
 71
     3
 72
     8
 73
     4
 74
     0
 42
0.00000001
 43
0.00000001
 40
5.819964047847144
 40
5.819964047847144
 40
5.819964047847144
 40
5.819964047847144
 40
6.212510859439274
 40
6.212510859439274
 40
6.212510859439274
 40
6.212510859439274
 10
26.10194169489674
 20
29.58896439707563
 30
0.0
 10
26.06267400204325
 20
29.58896439743938
 30
0.0
 10
26.02344049714157
 20
29.59677124906517
 30
0.0
 10
25.9871753104818
 20
29.61179696815217
 30
0.0
  0
SPLINE
  5
175
330
1F
100
AcDbEntity
  8
0
  6
Continuous
 62
     7
100
AcDbSpline
210
0.0
220
0.0
230
1.0
 70
     8
 71
     3
 72
    10
 73
     6
 74
     0
 42
0.00000001
 43
0.00000001
 40
0.0
 40
0.0
 40
0.0
 40
0.0
 40
0.3055359642697359
 40
0.7364662782968834
 40
1.0
 40
1.0
 40
1.0
 40
1.0
 10
25.80324281507453
 20
29.58825804713406
 30
0.0
 10
25.8278039723883
 20
29.56445645055381
 30
0.0
 10
25.88700637810432
 20
29.50708489597145
 30
0.0
 10
25.99560045734334
 20
29.46701319798682
 30
0.0
 10
26.07268849094795
 20
29.46194019659722
 30
0.0
 10
26.10194169248088
 20
29.46001510491843
 30
0.0
  0
SPLINE
  5
176
330
1F
100
AcDbEntity
  8
0
  6
Continuous
 62
     7
100
AcDbSpline
210
0.0
220
0.0
230
1.0
 70
     8
 71
     3
 72
     8
 73
     4
 74
     0
 42
0.00000001
 43
0.00000001
 40
6.353859766489303
 40
6.353859766489303
 40
6.353859766489303
 40
6.353859766489303
 40
6.746406566512029
 40
6.746406566512029
 40
6.746406566512029
 40
6.746406566512029
 10
31.79366114794955
 20
29.61179696815217
 30
0.0
 10
31.75739596128977
 20
29.59677124906517
 30
0.0
 10
31.71816245638814
 20
29.58896439743938
 30
0.0
 10
31.67889476353461
 20
29.58896439707563
 30
0.0
  0
SPLINE
  5
177
330
1F
100
AcDbEntity
  8
0
  6
Continuous
 62
     7
100
AcDbSpline
210
0.0
220
0.0
230
1.0
 70
     8
 71
     3
 72
     8
 73
     4
 74
     0
 42
0.00000001
 43
0.00000001
 40
5.961312943306204
 40
5.961312943306204
 40
5.961312943306204
 40
5.961312943306204
 40
6.353859766489303
 40
6.353859766489303
 40
6.353859766489303
 40
6.353859766489303
 10
31.89094096237043
 20
29.67682128988797
 30
0.0
 10
31.86318799007644
 20
29.64905563041647
 30
0.0
 10
31.82992633460933
 20
29.62682268723916
 30
0.0
 10
31.79366114794955
 20
29.61179696815217
 30
0.0
  0
SPLINE
  5
178
330
1F
100
AcDbEntity
  8
0
  6
Continuous
 62
     7
100
AcDbSpline
210
0.0
220
0.0
230
1.0
 70
     8
 71
     3
 72
     8
 73
     4
 74
     0
 42
0.00000001
 43
0.00000001
 40
5.568766130840943
 40
5.568766130840943
 40
5.568766130840943
 40
5.568766130840943
 40
5.961312943306204
 40
5.961312943306204
 40
5.961312943306204
 40
5.961312943306204
 10
31.95593557204019
 20
29.77414557544708
 30
0.0
 10
31.94091671875308
 20
29.73786381023639
 30
0.0
 10
31.91869393466443
 20
29.70458694935946
 30
0.0
 10
31.89094096237043
 20
29.67682128988797
 30
0.0
  0
SPLINE
  5
179
330
1F
100
AcDbEntity
  8
0
  6
Continuous
 62
     7
100
AcDbSpline
210
0.0
220
0.0
230
1.0
 70
     8
 71
     3
 72
     8
 73
     4
 74
     0
 42
0.00000001
 43
0.00000001
 40
5.176219319955728
 40
5.176219319955728
 40
5.176219319955728
 40
5.176219319955728
 40
5.568766130840943
 40
5.568766130840943
 40
5.568766130840943
 40
5.568766130840943
 10
31.9787577100535
 20
29.8889644249266
 30
0.0
 10
31.97875770969053
 20
29.84967878094744
 30
0.0
 10
31.9709544253273
 20
29.81042734065777
 30
0.0
 10
31.95593557204019
 20
29.77414557544708
 30
0.0
  0
SPLINE
  5
17A
330
1F
100
AcDbEntity
  8
0
  6
Continuous
 62
     7
100
AcDbSpline
210
0.0
220
0.0
230
1.0
 70
     8
 71
     3
 72
    10
 73
     6
 74
     0
 42
0.00000001
 43
0.00000001
 40
0.0
 40
0.0
 40
0.0
 40
0.0
 40
0.4478437295206755
 40
0.8761311778639087
 40
1.0
 40
1.0
 40
1.0
 40
1.0
 10
31.67889476353461
 20
29.46001510491843
 30
0.0
 10
31.72884025399483
 20
29.46568546757933
 30
0.0
 10
31.82655023294834
 20
29.47677858151514
 30
0.0
 10
31.93162626516612
 20
29.53083298578959
 30
0.0
 10
31.970618666345
 20
29.57914710926627
 30
0.0
 10
31.97936608635002
 20
29.58998573211194
 30
0.0
  0
SPLINE
  5
17B
330
1F
100
AcDbEntity
  8
0
  6
Continuous
 62
     7
100
AcDbSpline
210
0.0
220
0.0
230
1.0
 70
     8
 71
     3
 72
     8
 73
     4
 74
     0
 42
0.00000001
 43
0.00000001
 40
6.35385976647107
 40
6.35385976647107
 40
6.35385976647107
 40
6.35385976647107
 40
6.746406566512029
 40
6.746406566512029
 40
6.746406566512029
 40
6.746406566512029
 10
133.9871753104817
 20
147.247541177244
 30
0.0
 10
134.0234404971415
 20
147.262566896331
 30
0.0
 10
134.0626740020431
 20
147.2703737479568
 30
0.0
 10
134.1019416948966
 20
147.2703737483206
 30
0.0
  0
SPLINE
  5
17C
330
1F
100
AcDbEntity
  8
0
  6
Continuous
 62
     7
100
AcDbSpline
210
0.0
220
0.0
230
1.0
 70
     8
 71
     3
 72
     8
 73
     4
 74
     0
 42
0.00000001
 43
0.00000001
 40
5.961312943312688
 40
5.961312943312688
 40
5.961312943312688
 40
5.961312943312688
 40
6.35385976647107
 40
6.35385976647107
 40
6.35385976647107
 40
6.35385976647107
 10
133.8898954960608
 20
147.1825168555082
 30
0.0
 10
133.9176484683548
 20
147.2102825149797
 30
0.0
 10
133.9509101238219
 20
147.2325154581571
 30
0.0
 10
133.9871753104817
 20
147.247541177244
 30
0.0
  0
SPLINE
  5
17D
330
1F
100
AcDbEntity
  8
0
  6
Continuous
 62
     7
100
AcDbSpline
210
0.0
220
0.0
230
1.0
 70
     8
 71
     3
 72
     8
 73
     4
 74
     0
 42
0.00000001
 43
0.00000001
 40
5.568766130842619
 40
5.568766130842619
 40
5.568766130842619
 40
5.568766130842619
 40
5.961312943312688
 40
5.961312943312688
 40
5.961312943312688
 40
5.961312943312688
 10
133.824900886391
 20
147.0851925699491
 30
0.0
 10
133.8399197396782
 20
147.1214743351598
 30
0.0
 10
133.8621425237668
 20
147.1547511960368
 30
0.0
 10
133.8898954960608
 20
147.1825168555082
 30
0.0
  0
SPLINE
  5
17E
330
1F
100
AcDbEntity
  8
0
  6
Continuous
 62
     7
100
AcDbSpline
210
0.0
220
0.0
230
1.0
 70
     8
 71
     3
 72
     8
 73
     4
 74
     0
 42
0.00000001
 43
0.00000001
 40
5.176219319955728
 40
5.176219319955728
 40
5.176219319955728
 40
5.176219319955728
 40
5.568766130842619
 40
5.568766130842619
 40
5.568766130842619
 40
5.568766130842619
 10
133.8020787483777
 20
146.9703737204696
 30
0.0
 10
133.8020787487407
 20
147.0096593644488
 30
0.0
 10
133.8098820331039
 20
147.0489108047384
 30
0.0
 10
133.824900886391
 20
147.0851925699491
 30
0.0
  0
SPLINE
  5
17F
330
1F
100
AcDbEntity
  8
0
  6
Continuous
 62
     7
100
AcDbSpline
210
0.0
220
0.0
230
1.0
 70
     8
 71
     3
 72
    10
 73
     6
 74
     0
 42
0.00000001
 43
0.00000001
 40
0.0
 40
0.0
 40
0.0
 40
0.0
 40
0.4478437295207676
 40
0.8761311778637823
 40
0.9999999999999999
 40
0.9999999999999999
 40
0.9999999999999999
 40
0.9999999999999999
 10
134.1019416948966
 20
147.3993230404778
 30
0.0
 10
134.0519962044364
 20
147.3936526778168
 30
0.0
 10
133.9542862254829
 20
147.382559563881
 30
0.0
 10
133.8492101932651
 20
147.3285051596066
 30
0.0
 10
133.8102177920862
 20
147.2801910361299
 30
0.0
 10
133.8014703720812
 20
147.2693524132843
 30
0.0
  0
SPLINE
  5
180
330
1F
100
AcDbEntity
  8
0
  6
Continuous
 62
     7
100
AcDbSpline
210
0.0
220
0.0
230
1.0
 70
     8
 71
     3
 72
     8
 73
     4
 74
     0
 42
0.00000001
 43
0.00000001
 40
6.997604490000256
 40
6.997604490000256
 40
6.997604490000256
 40
6.997604490000256
 40
7.390151294403444
 40
7.390151294403444
 40
7.390151294403444
 40
7.390151294403444
 10
139.9559355720401
 20
147.0851925699491
 30
0.0
 10
139.9709544253272
 20
147.0489108047384
 30
0.0
 10
139.9787577096904
 20
147.0096593644488
 30
0.0
 10
139.9787577100534
 20
146.9703737204696
 30
0.0
  0
SPLINE
  5
181
330
1F
100
AcDbEntity
  8
0
  6
Continuous
 62
     7
100
AcDbSpline
210
0.0
220
0.0
230
1.0
 70
     8
 71
     3
 72
     8
 73
     4
 74
     0
 42
0.00000001
 43
0.00000001
 40
6.605057671011974
 40
6.605057671011974
 40
6.605057671011974
 40
6.605057671011974
 40
6.997604490000256
 40
6.997604490000256
 40
6.997604490000256
 40
6.997604490000256
 10
139.8909409623703
 20
147.1825168555082
 30
0.0
 10
139.9186939346643
 20
147.1547511960368
 30
0.0
 10
139.9409167187529
 20
147.1214743351598
 30
0.0
 10
139.9559355720401
 20
147.0851925699491
 30
0.0
  0
SPLINE
  5
182
330
1F
100
AcDbEntity
  8
0
  6
Continuous
 62
     7
100
AcDbSpline
210
0.0
220
0.0
230
1.0
 70
     8
 71
     3
 72
     8
 73
     4
 74
     0
 42
0.00000001
 43
0.00000001
 40
6.212510859429855
 40
6.212510859429855
 40
6.212510859429855
 40
6.212510859429855
 40
6.605057671011974
 40
6.605057671011974
 40
6.605057671011974
 40
6.605057671011974
 10
139.7936611479495
 20
147.247541177244
 30
0.0
 10
139.8299263346092
 20
147.2325154581571
 30
0.0
 10
139.8631879900763
 20
147.2102825149797
 30
0.0
 10
139.8909409623703
 20
147.1825168555082
 30
0.0
  0
SPLINE
  5
183
330
1F
100
AcDbEntity
  8
0
  6
Continuous
 62
     7
100
AcDbSpline
210
0.0
220
0.0
230
1.0
 70
     8
 71
     3
 72
     8
 73
     4
 74
     0
 42
0.00000001
 43
0.00000001
 40
5.819964047847144
 40
5.819964047847144
 40
5.819964047847144
 40
5.819964047847144
 40
6.212510859429855
 40
6.212510859429855
 40
6.212510859429855
 40
6.212510859429855
 10
139.6788947635345
 20
147.2703737483206
 30
0.0
 10
139.718162456388
 20
147.2703737479568
 30
0.0
 10
139.7573959612897
 20
147.262566896331
 30
0.0
 10
139.7936611479495
 20
147.247541177244
 30
0.0
  0
SPLINE
  5
184
330
1F
100
AcDbEntity
  8
0
  6
Continuous
 62
     7
100
AcDbSpline
210
0.0
220
0.0
230
1.0
 70
     8
 71
     3
 72
    10
 73
     6
 74
     0
 42
0.00000001
 43
0.00000001
 40
0.0
 40
0.0
 40
0.0
 40
0.0
 40
0.3055359642688666
 40
0.7364662782977329
 40
1.0
 40
1.0
 40
1.0
 40
1.0
 10
139.9775936433571
 20
147.2710800982616
 30
0.0
 10
139.9530324860436
 20
147.2948816948418
 30
0.0
 10
139.8938300803279
 20
147.3522532494242
 30
0.0
 10
139.7852360010893
 20
147.392324947409
 30
0.0
 10
139.7081479674849
 20
147.3973979487989
 30
0.0
 10
139.6788947659522
 20
147.3993230404778
 30
0.0
  0
LINE
  5
185
330
1F
100
AcDbEntity
  8
0
  6
Continuous
 62
     7
100
AcDbLine
 10
31.9787577101
 20
29.8889644249
 30
0.0
 11
31.9787577101
 21
30.2698249958
 31
0.0
  0
LINE
  5
186
330
1F
100
AcDbEntity
  8
0
  6
Continuous
 62
     7
100
AcDbLine
 10
139.9787577101
 20
146.9703737205
 30
0.0
 11
139.9787577101
 21
146.5895232765
 31
0.0
  0
LINE
  5
187
330
1F
100
AcDbEntity
  8
0
  6
Continuous
 62
     7
100
AcDbLine
 10
25.8020787484
 20
30.2698148689
 30
0.0
 11
25.8020787484
 21
29.8889644249
 31
0.0
  0
LINE
  5
188
330
1F
100
AcDbEntity
  8
0
  6
Continuous
 62
     7
100
AcDbLine
 10
133.8020787484
 20
146.5895131496
 30
0.0
 11
133.8020787484
 21
146.9703737205
 31
0.0
  0
ELLIPSE
  5
189
330
1F
100
AcDbEntity
  8
0
  6
Continuous
 62
     7
100
AcDbEllipse
 10
19.8904372684
 20
19.4296881119
 30
0.0
 11
0.3535803155654414
 21
0.3535803155654414
 31
0.0
210
0.0
220
0.0
230
0.9999999999999998
 40
0.9999238505
 41
2.356232566403266
 42
3.926952740776327
  0
LINE
  5
18A
330
1F
100
AcDbEntity
  8
0
  6
Continuous
 62
     7
100
AcDbLine
 10
19.3904182292
 20
157.4296881112
 30
0.0
 11
19.3904182292
 21
19.4296500342
 31
0.0
  0
ELLIPSE
  5
18B
330
1F
100
AcDbEntity
  8
0
  6
Continuous
 62
     7
100
AcDbEllipse
 10
19.8904372684
 20
157.4296500335
 30
0.0
 11
0.3535803155654413
 21
-0.3535803155654378
 31
0.0
210
0.0
220
0.0
230
1.0
 40
0.9999238505
 41
2.356232566403301
 42
3.926952740776317
  0
LINE
  5
18C
330
1F
100
AcDbEntity
  8
0
  6
Continuous
 62
     7
100
AcDbLine
 10
145.8904372677
 20
157.9296690727
 30
0.0
 11
19.8903991907
 21
157.9296690727
 31
0.0
  0
ELLIPSE
  5
18D
330
1F
100
AcDbEntity
  8
0
  6
Continuous
 62
     7
100
AcDbEllipse
 10
145.89039919
 20
157.4296500335
 30
0.0
 11
-0.3535803155654378
 21
-0.3535803155654093
 31
0.0
210
0.0
220
0.0
230
0.9999999999999998
 40
0.9999238505
 41
2.35623256640338
 42
3.926952740776358
  0
LINE
  5
18E
330
1F
100
AcDbEntity
  8
0
  6
Continuous
 62
     7
100
AcDbLine
 10
146.3904182292
 20
19.4296500342
 30
0.0
 11
146.3904182292
 21
157.4296881112
 31
0.0
  0
ELLIPSE
  5
18F
330
1F
100
AcDbEntity
  8
0
  6
Continuous
 62
     7
100
AcDbEllipse
 10
145.89039919
 20
19.4296881119
 30
0.0
 11
-0.3535803155654378
 21
0.3535803155654413
 31
0.0
210
0.0
220
0.0
230
1.0
 40
0.9999238505
 41
2.35623256640326
 42
3.926952740776357
  0
LINE
  5
190
330
1F
100
AcDbEntity
  8
0
  6
Continuous
 62
     7
100
AcDbLine
 10
19.8903991907
 20
18.9296690727
 30
0.0
 11
145.8904372677
 21
18.9296690727
 31
0.0
  0
DIMENSION
  5
191
330
1F
100
AcDbEntity
  8
ОСНОВНОЙ
100
AcDbDimension
  2
_D
 10
9.3904182292
 20
18.9296690727
 30
0.0
 11
9.3904182292
 21
88.4296690727
 31
0.0
 70
   160
  1
<>
 71
     2
 42
-1.0
  3
SLDDIMSTYLE0
100
AcDbAlignedDimension
 13
19.8903420768
 23
157.9296690727
 33
0.0
 14
19.8903420768
 24
18.9296690727
 34
0.0
 50
90.0
100
AcDbRotatedDimension
  0
DIMENSION
  5
19D
330
1F
100
AcDbEntity
  8
ОСНОВНОЙ
100
AcDbDimension
  2
_D_1
 10
146.3904182292
 20
8.9296690727
 30
0.0
 11
82.8904182292
 21
8.9296690727
 31
0.0
 70
   160
  1
<>
 71
     2
 42
-1.0
  3
SLDDIMSTYLE0
100
AcDbAlignedDimension
 13
19.3904182292
 23
19.4295929203
 33
0.0
 14
146.3904182292
 24
19.4295929203
 34
0.0
 50
0.0
100
AcDbRotatedDimension
  0
SPLINE
  5
1A7
330
1F
100
AcDbEntity
  8
0
  6
Continuous
 62
     7
100
AcDbSpline
210
0.0
220
0.0
230
1.0
 70
     8
 71
     3
 72
    10
 73
     6
 74
     0
 42
0.00000001
 43
0.00000001
 40
0.0
 40
0.0
 40
0.0
 40
0.0
 40
0.2060127681683101
 40
0.8359853665788102
 40
1.0
 40
1.0
 40
1.0
 40
1.0
 10
256.4838966014324
 20
42.83942749049973
 30
0.0
 10
256.4209434360723
 20
42.81208726000041
 30
0.0
 10
256.1654839056325
 20
42.70114252186821
 30
0.0
 10
255.8265910921744
 20
42.64587168278778
 30
0.0
 10
255.5620277354076
 20
42.65883589218606
 30
0.0
 10
255.5073766525726
 20
42.66151392020316
 30
0.0
  0
SPLINE
  5
1A8
330
1F
100
AcDbEntity
  8
0
  6
Continuous
 62
     7
100
AcDbSpline
210
0.0
220
0.0
230
1.0
 70
     8
 71
     3
 72
    10
 73
     6
 74
     0
 42
0.00000001
 43
0.00000001
 40
0.0
 40
0.0
 40
0.0
 40
0.0
 40
0.1393834568547736
 40
0.6634265431414844
 40
1.0
 40
1.0
 40
1.0
 40
1.0
 10
257.1553706986211
 20
43.09166078815264
 30
0.0
 10
257.1862959864582
 20
43.11825430700476
 30
0.0
 10
257.3334917675669
 20
43.24483207082369
 30
0.0
 10
257.4963094701366
 20
43.41414445722101
 30
0.0
 10
257.5780524030475
 20
43.50074694269032
 30
0.0
 10
257.6100207654067
 20
43.53461579884827
 30
0.0
  0
SPLINE
  5
1A9
330
1F
100
AcDbEntity
  8
0
  6
Continuous
 62
     7
100
AcDbSpline
210
0.0
220
0.0
230
1.0
 70
     8
 71
     3
 72
    14
 73
    10
 74
     0
 42
0.00000001
 43
0.00000001
 40
0.0
 40
0.0
 40
0.0
 40
0.0
 40
0.1477053872685846
 40
0.3461472515778876
 40
0.4709781032196594
 40
0.5686052573293319
 40
0.712996570535911
 40
0.8899129465913771
 40
1.0
 40
1.0
 40
1.0
 40
1.0
 10
257.6138586848154
 20
43.53886839144121
 30
0.0
 10
257.6170439157053
 20
43.54228016713081
 30
0.0
 10
257.6245084973198
 20
43.55027565598733
 30
0.0
 10
257.5904079894964
 20
43.51475219536803
 30
0.0
 10
257.5263908304053
 20
43.45260993799729
 30
0.0
 10
257.4035283520617
 20
43.34177749831083
 30
0.0
 10
257.1996494287361
 20
43.18571489658336
 30
0.0
 10
256.9764154437945
 20
43.03300307077453
 30
0.0
 10
256.8067708840388
 20
42.96945325057382
 30
0.0
 10
256.7416996417015
 20
42.94507719185003
 30
0.0
  0
LINE
  5
1AA
330
1F
100
AcDbEntity
  8
0
  6
Continuous
 62
     7
100
AcDbLine
 10
256.5795206148
 20
42.8786149587
 30
0.0
 11
256.4838966014
 21
42.8394274905
 31
0.0
  0
LINE
  5
1AB
330
1F
100
AcDbEntity
  8
0
  6
Continuous
 62
     7
100
AcDbLine
 10
240.0019202432
 20
154.6796690727
 30
0.0
 11
238.5175158693
 21
154.6926232734
 31
0.0
  0
ARC
  5
1AC
330
1F
100
AcDbEntity
  8
0
  6
Continuous
 62
     7
100
AcDbCircle
 10
178.6019202432
 20
34.9744782516
 30
0.0
 40
0.2999999999999985
100
AcDbArc
 50
180.0
 51
269.0
  0
LINE
  5
1AD
330
1F
100
AcDbEntity
  8
0
  6
Continuous
 62
     7
100
AcDbLine
 10
182.8106464464
 20
34.6009689641
 30
0.0
 11
180.8019202432
 21
34.6360314104
 31
0.0
  0
LINE
  5
1AE
330
1F
100
AcDbEntity
  8
0
  6
Continuous
 62
     7
100
AcDbLine
 10
179.0019202432
 20
34.6674505272
 30
0.0
 11
178.5966845212
 21
34.6745239431
 31
0.0
  0
ARC
  5
1AF
330
1F
100
AcDbEntity
  8
0
  6
Continuous
 62
     7
100
AcDbCircle
 10
182.8019202432
 20
34.1010451165
 30
0.0
 40
0.5
100
AcDbArc
 50
0.0
 51
89.0
  0
LINE
  5
1B0
330
1F
100
AcDbEntity
  8
0
  6
Continuous
 62
     7
100
AcDbLine
 10
176.8019202432
 20
34.3798766109
 30
0.0
 11
176.015132025
 21
33.8289615696
 31
0.0
  0
LINE
  5
1B1
330
1F
100
AcDbEntity
  8
0
  6
Continuous
 62
     7
100
AcDbLine
 10
176.015132025
 20
20.5303765758
 30
0.0
 11
176.8019202432
 21
19.9794615345
 31
0.0
  0
ARC
  5
1B2
330
1F
100
AcDbEntity
  8
0
  6
Continuous
 62
     7
100
AcDbCircle
 10
176.3019202432
 20
20.939952598
 30
0.0
 40
0.5000000000000011
100
AcDbArc
 50
180.0
 51
235.0
  0
ARC
  5
1B3
330
1F
100
AcDbEntity
  8
0
  6
Continuous
 62
     7
100
AcDbCircle
 10
176.3019202432
 20
33.4193855474
 30
0.0
 40
0.5000000000000011
100
AcDbArc
 50
125.0
 51
180.0
  0
LINE
  5
1B4
330
1F
100
AcDbEntity
  8
0
  6
Continuous
 62
     7
100
AcDbLine
 10
176.8019202432
 20
94.4296690727
 30
0.0
 11
176.2975569754
 21
94.4252675611
 31
0.0
  0
LINE
  5
1B5
330
1F
100
AcDbEntity
  8
0
  6
Continuous
 62
     7
100
AcDbLine
 10
176.2975569754
 20
82.4340705843
 30
0.0
 11
176.8019202432
 21
82.4296690727
 31
0.0
  0
ARC
  5
1B6
330
1F
100
AcDbEntity
  8
0
  6
Continuous
 62
     7
100
AcDbCircle
 10
176.3019202432
 20
93.9252865996
 30
0.0
 40
0.5
100
AcDbArc
 50
90.5
 51
180.0
  0
ARC
  5
1B7
330
1F
100
AcDbEntity
  8
0
  6
Continuous
 62
     7
100
AcDbCircle
 10
176.3019202432
 20
82.9340515458
 30
0.0
 40
0.5000000000000027
100
AcDbArc
 50
180.0
 51
269.5
  0
LINE
  5
1B8
330
1F
100
AcDbEntity
  8
0
  6
Continuous
 62
     7
100
AcDbLine
 10
234.3019202432
 20
44.107133944
 30
0.0
 11
255.796526663
 21
44.2947145325
 31
0.0
  0
LINE
  5
1B9
330
1F
100
AcDbEntity
  8
0
  6
Continuous
 62
     7
100
AcDbLine
 10
251.9415394947
 20
42.3757304476
 30
0.0
 11
234.3019202432
 21
42.5296690727
 31
0.0
  0
LINE
  5
1BA
330
1F
100
AcDbEntity
  8
0
  6
Continuous
 62
     7
100
AcDbLine
 10
234.3019202432
 20
42.5296690727
 30
0.0
 11
234.3019202432
 21
44.107133944
 31
0.0
  0
LINE
  5
1BB
330
1F
100
AcDbEntity
  8
0
  6
Continuous
 62
     7
100
AcDbLine
 10
258.0019202432
 20
49.0363513333
 30
0.0
 11
258.0019202432
 21
118.9229868121
 31
0.0
  0
ARC
  5
1BC
330
1F
100
AcDbEntity
  8
0
  6
Continuous
 62
     7
100
AcDbCircle
 10
251.8019202432
 20
118.9229868121
 30
0.0
 40
6.200000000000017
100
AcDbArc
 50
0.0
 51
89.0
  0
LINE
  5
1BD
330
1F
100
AcDbEntity
  8
0
  6
Continuous
 62
     7
100
AcDbLine
 10
240.0019202432
 20
125.3299010121
 30
0.0
 11
251.9101251631
 21
125.1220425221
 31
0.0
  0
LINE
  5
1BE
330
1F
100
AcDbEntity
  8
0
  6
Continuous
 62
     7
100
AcDbLine
 10
240.0019202432
 20
125.3299010121
 30
0.0
 11
240.0019202432
 21
134.2473408443
 31
0.0
  0
ARC
  5
1BF
330
1F
100
AcDbEntity
  8
0
  6
Continuous
 62
     7
100
AcDbCircle
 10
239.0019202432
 20
134.2473408443
 30
0.0
 40
1.000000000000014
100
AcDbArc
 50
0.0
 51
89.0
  0
LINE
  5
1C0
330
1F
100
AcDbEntity
  8
0
  6
Continuous
 62
     7
100
AcDbLine
 10
236.9142734976
 20
135.2839331818
 30
0.0
 11
239.0193726496
 21
135.2471885394
 31
0.0
  0
ARC
  5
1C1
330
1F
100
AcDbEntity
  8
0
  6
Continuous
 62
     7
100
AcDbCircle
 10
236.9229997009
 20
135.7838570294
 30
0.0
 40
0.5000000000000352
100
AcDbArc
 50
190.5191482142
 51
269.0
  0
ARC
  5
1C2
330
1F
100
AcDbEntity
  8
0
  6
Continuous
 62
     7
100
AcDbCircle
 10
239.4988717517
 20
133.1253520004
 30
0.0
 40
3.999999999999997
100
AcDbArc
 50
125.3648224091
 51
140.0733986727
  0
ARC
  5
1C3
330
1F
100
AcDbEntity
  8
0
  6
Continuous
 62
     7
100
AcDbCircle
 10
238.0519202432
 20
135.1640602512
 30
0.0
 40
1.5
100
AcDbArc
 50
90.0
 51
125.3648224091
  0
LINE
  5
1C4
330
1F
100
AcDbEntity
  8
0
  6
Continuous
 62
     7
100
AcDbLine
 10
238.0519202432
 20
136.6640602512
 30
0.0
 11
238.7399201498
 21
136.2234451266
 31
0.0
  0
ARC
  5
1C5
330
1F
100
AcDbEntity
  8
0
  6
Continuous
 62
     7
100
AcDbCircle
 10
239.0095751437
 20
136.6444987862
 30
0.0
 40
0.4999999999999895
100
AcDbArc
 50
237.3633209231
 51
266.5986455482
  0
ARC
  5
1C6
330
1F
100
AcDbEntity
  8
0
  6
Continuous
 62
     7
100
AcDbCircle
 10
238.8019202432
 20
133.1506642964
 30
0.0
 40
3.000000000000004
100
AcDbArc
 50
0.0
 51
86.5986455482
  0
LINE
  5
1C7
330
1F
100
AcDbEntity
  8
0
  6
Continuous
 62
     7
100
AcDbLine
 10
241.8019202432
 20
127.0987560857
 30
0.0
 11
241.8019202432
 21
133.1506642964
 31
0.0
  0
LINE
  5
1C8
330
1F
100
AcDbEntity
  8
0
  6
Continuous
 62
     7
100
AcDbLine
 10
241.8019202432
 20
127.0987560857
 30
0.0
 11
251.9415394947
 21
126.9217683734
 31
0.0
  0
ARC
  5
1C9
330
1F
100
AcDbEntity
  8
0
  6
Continuous
 62
     7
100
AcDbCircle
 10
251.8019202432
 20
118.9229868121
 30
0.0
 40
8.000000000000028
100
AcDbArc
 50
0.0
 51
89.0
  0
LINE
  5
1CA
330
1F
100
AcDbEntity
  8
0
  6
Continuous
 62
     7
100
AcDbLine
 10
259.8019202432
 20
49.0363513333
 30
0.0
 11
259.8019202432
 21
118.9229868121
 31
0.0
  0
ARC
  5
1CB
330
1F
100
AcDbEntity
  8
0
  6
Continuous
 62
     7
100
AcDbCircle
 10
251.8019202432
 20
49.0363513333
 30
0.0
 40
8.000000000000028
100
AcDbArc
 50
317.386807624
 51
0.0
  0
ARC
  5
1CC
330
1F
100
AcDbEntity
  8
0
  6
Continuous
 62
     7
100
AcDbCircle
 10
255.4816263264
 20
45.6511241414
 30
0.0
 40
2.999999999999996
100
AcDbArc
 50
270.5
 51
317.386807624
  0
LINE
  5
1CD
330
1F
100
AcDbEntity
  8
0
  6
Continuous
 62
     7
100
AcDbLine
 10
255.5078059329
 20
42.6512383722
 30
0.0
 11
254.9328129592
 21
42.6462204845
 31
0.0
  0
ARC
  5
1CE
330
1F
100
AcDbEntity
  8
0
  6
Continuous
 62
     7
100
AcDbCircle
 10
254.9415394947
 20
41.6462585614
 30
0.0
 40
1.000000000000021
100
AcDbArc
 50
90.5
 51
177.252691678
  0
ARC
  5
1CF
330
1F
100
AcDbEntity
  8
0
  6
Continuous
 62
     7
100
AcDbCircle
 10
253.4432635357
 20
41.7181553673
 30
0.0
 40
0.5000000000000107
100
AcDbArc
 50
282.6412487025
 51
357.252691678
  0
ARC
  5
1D0
330
1F
100
AcDbEntity
  8
0
  6
Continuous
 62
     7
100
AcDbCircle
 10
251.8019202432
 20
49.0363513333
 30
0.0
 40
7.999999999999998
100
AcDbArc
 50
271.0
 51
282.6412487025
  0
LINE
  5
1D1
330
1F
100
AcDbEntity
  8
0
  6
Continuous
 62
     7
100
AcDbLine
 10
251.9415394947
 20
41.037569772
 30
0.0
 11
251.9415394947
 21
42.3757304476
 31
0.0
  0
ARC
  5
1D2
330
1F
100
AcDbEntity
  8
0
  6
Continuous
 62
     7
100
AcDbCircle
 10
251.8019202432
 20
49.0363513333
 30
0.0
 40
6.200000000000019
100
AcDbArc
 50
310.1125647021
 51
0.0
  0
SPLINE
  5
1D3
330
1F
100
AcDbEntity
  8
0
  6
Continuous
 62
     7
100
AcDbSpline
210
0.0
220
0.0
230
1.0
 70
     8
 71
     3
 72
    13
 73
     9
 74
     0
 42
0.00000001
 43
0.00000001
 40
0.0
 40
0.0
 40
0.0
 40
0.0
 40
0.1512783716708144
 40
0.3076038172772734
 40
0.4638948850361548
 40
0.6311791851717439
 40
0.8383642068122579
 40
0.9999999999999999
 40
0.9999999999999999
 40
0.9999999999999999
 40
0.9999999999999999
 10
257.6894499763488
 20
43.61998782620993
 30
0.0
 10
257.6774721752395
 20
43.60688532897342
 30
0.0
 10
257.6531169597307
 20
43.58024319816978
 30
0.0
 10
257.4485780336662
 20
43.36410389948836
 30
0.0
 10
257.0968687778882
 20
43.02958918396544
 30
0.0
 10
256.5110968522354
 20
42.5513444870689
 30
0.0
 10
255.6896874939085
 20
42.00154435013384
 30
0.0
 10
254.9269588752872
 20
41.67988141818174
 30
0.0
 10
254.5926929111625
 20
41.53891257625404
 30
0.0
  0
LINE
  5
1D4
330
1F
100
AcDbEntity
  8
0
  6
Continuous
 62
     7
100
AcDbLine
 10
253.9426888553
 20
41.6941897654
 30
0.0
 11
253.9506121522
 21
41.6724741519
 31
0.0
  0
LINE
  5
1D5
330
1F
100
AcDbEntity
  8
0
  6
Continuous
 62
     7
100
AcDbLine
 10
251.9415394947
 20
41.037569772
 30
0.0
 11
234.3019202432
 21
40.7296690727
 31
0.0
  0
LINE
  5
1D6
330
1F
100
AcDbEntity
  8
0
  6
Continuous
 62
     7
100
AcDbLine
 10
253.6022799816
 20
41.2415780458
 30
0.0
 11
253.5526864218
 21
41.2302756363
 31
0.0
  0
LINE
  5
1D7
330
1F
100
AcDbEntity
  8
0
  6
Continuous
 62
     7
100
AcDbLine
 10
253.6452890816
 20
41.2516232503
 30
0.0
 11
253.6063860002
 21
41.2425138105
 31
0.0
  0
SPLINE
  5
1D8
330
1F
100
AcDbEntity
  8
0
  6
Continuous
 62
     7
100
AcDbSpline
210
0.0
220
0.0
230
1.0
 70
     8
 71
     3
 72
    11
 73
     7
 74
     0
 42
0.00000001
 43
0.00000001
 40
0.0
 40
0.0
 40
0.0
 40
0.0
 40
0.0038276184825266
 40
0.1845893845144836
 40
0.5855021325463619
 40
1.0
 40
1.0
 40
1.0
 40
1.0
 10
254.5926929111625
 20
41.53891257625403
 30
0.0
 10
254.5906748382463
 20
41.53816200627131
 30
0.0
 10
254.4933519626236
 20
41.50196528191675
 30
0.0
 10
254.205087709485
 20
41.40159736588568
 30
0.0
 10
253.8318575582336
 20
41.29597552099178
 30
0.0
 10
253.7081654962226
 20
41.26657064021833
 30
0.0
 10
253.6452890816275
 20
41.25162325034889
 30
0.0
  0
LINE
  5
1D9
330
1F
100
AcDbEntity
  8
0
  6
Continuous
 62
     7
100
AcDbLine
 10
240.0019202432
 20
125.0299467036
 30
0.0
 11
240.0019202432
 21
125.3299010121
 31
0.0
  0
LINE
  5
1DA
330
1F
100
AcDbEntity
  8
0
  6
Continuous
 62
     7
100
AcDbLine
 10
234.8019202432
 20
119.0613452718
 30
0.0
 11
234.8019202432
 21
132.5310881542
 31
0.0
  0
LINE
  5
1DB
330
1F
100
AcDbEntity
  8
0
  6
Continuous
 62
     7
100
AcDbLine
 10
234.8019202432
 20
132.5310881542
 30
0.0
 11
235.5181209255
 21
134.3952426227
 31
0.0
  0
ARC
  5
1DC
330
1F
100
AcDbEntity
  8
0
  6
Continuous
 62
     7
100
AcDbCircle
 10
238.5519202432
 20
133.2296690727
 30
0.0
 40
3.249999999999985
100
AcDbArc
 50
130.7278569728
 51
158.9834245759
  0
ARC
  5
1DD
330
1F
100
AcDbEntity
  8
0
  6
Continuous
 62
     7
100
AcDbCircle
 10
130.3019202432
 20
84.7138562806
 30
0.0
 40
110.0
100
AcDbArc
 50
340.9887347399
 51
18.1948723388
  0
LINE
  5
1DE
330
1F
100
AcDbEntity
  8
0
  6
Continuous
 62
     7
100
AcDbLine
 10
241.8019202432
 20
147.264853325
 30
0.0
 11
241.8019202432
 21
137.5605820597
 31
0.0
  0
LINE
  5
1DF
330
1F
100
AcDbEntity
  8
0
  6
Continuous
 62
     7
100
AcDbLine
 10
241.8019202432
 20
137.5605820597
 30
0.0
 11
234.3019202432
 21
137.4296690727
 31
0.0
  0
LINE
  5
1E0
330
1F
100
AcDbEntity
  8
0
  6
Continuous
 62
     7
100
AcDbLine
 10
234.3019202432
 20
111.9296690727
 30
0.0
 11
234.3019202432
 21
137.4296690727
 31
0.0
  0
LINE
  5
1E1
330
1F
100
AcDbEntity
  8
0
  6
Continuous
 62
     7
100
AcDbLine
 10
234.3019202432
 20
111.9296690727
 30
0.0
 11
232.8019202432
 21
111.9296690727
 31
0.0
  0
LINE
  5
1E2
330
1F
100
AcDbEntity
  8
0
  6
Continuous
 62
     7
100
AcDbLine
 10
232.8019202432
 20
111.9296690727
 30
0.0
 11
232.8019202432
 21
138.9037149674
 31
0.0
  0
LINE
  5
1E3
330
1F
100
AcDbEntity
  8
0
  6
Continuous
 62
     7
100
AcDbLine
 10
240.0019202432
 20
139.0293914349
 30
0.0
 11
232.8019202432
 21
138.9037149674
 31
0.0
  0
LINE
  5
1E4
330
1F
100
AcDbEntity
  8
0
  6
Continuous
 62
     7
100
AcDbLine
 10
240.0019202432
 20
147.264853325
 30
0.0
 11
240.0019202432
 21
139.0293914349
 31
0.0
  0
ARC
  5
1E5
330
1F
100
AcDbEntity
  8
0
  6
Continuous
 62
     7
100
AcDbCircle
 10
231.8019202432
 20
147.264853325
 30
0.0
 40
8.200000000000017
100
AcDbArc
 50
0.0
 51
89.0
  0
LINE
  5
1E6
330
1F
100
AcDbEntity
  8
0
  6
Continuous
 62
     7
100
AcDbLine
 10
195.8019202432
 20
156.0944847524
 30
0.0
 11
231.9450299759
 21
155.4636044253
 31
0.0
  0
LINE
  5
1E7
330
1F
100
AcDbEntity
  8
0
  6
Continuous
 62
     7
100
AcDbLine
 10
195.8019202432
 20
156.0944847524
 30
0.0
 11
195.8019202432
 21
157.0296690727
 31
0.0
  0
LINE
  5
1E8
330
1F
100
AcDbEntity
  8
0
  6
Continuous
 62
     7
100
AcDbLine
 10
195.8019202432
 20
157.0296690727
 30
0.0
 11
193.8019202432
 21
157.0296690727
 31
0.0
  0
LINE
  5
1E9
330
1F
100
AcDbEntity
  8
0
  6
Continuous
 62
     7
100
AcDbLine
 10
193.8019202432
 20
157.9296690727
 30
0.0
 11
193.8019202432
 21
157.0296690727
 31
0.0
  0
LINE
  5
1EA
330
1F
100
AcDbEntity
  8
0
  6
Continuous
 62
     7
100
AcDbLine
 10
193.8019202432
 20
157.9296690727
 30
0.0
 11
231.9764443075
 21
157.2633302766
 31
0.0
  0
ARC
  5
1EB
330
1F
100
AcDbEntity
  8
0
  6
Continuous
 62
     7
100
AcDbCircle
 10
231.8019202432
 20
147.264853325
 30
0.0
 40
10.00000000000003
100
AcDbArc
 50
0.0
 51
89.0
  0
LINE
  5
1EC
330
1F
100
AcDbEntity
  8
0
  6
Continuous
 62
     7
100
AcDbLine
 10
241.8019202432
 20
39.2987560857
 30
0.0
 11
241.8019202432
 21
29.5944848204
 31
0.0
  0
ARC
  5
1ED
330
1F
100
AcDbEntity
  8
0
  6
Continuous
 62
     7
100
AcDbCircle
 10
231.8019202432
 20
29.5944848204
 30
0.0
 40
10.00000000000003
100
AcDbArc
 50
271.0
 51
0.0
  0
LINE
  5
1EE
330
1F
100
AcDbEntity
  8
0
  6
Continuous
 62
     7
100
AcDbLine
 10
231.9764443075
 20
19.5960078688
 30
0.0
 11
193.8019202432
 21
18.9296690727
 31
0.0
  0
LINE
  5
1EF
330
1F
100
AcDbEntity
  8
0
  6
Continuous
 62
     7
100
AcDbLine
 10
193.8019202432
 20
19.8296690727
 30
0.0
 11
193.8019202432
 21
18.9296690727
 31
0.0
  0
LINE
  5
1F0
330
1F
100
AcDbEntity
  8
0
  6
Continuous
 62
     7
100
AcDbLine
 10
193.8019202432
 20
19.8296690727
 30
0.0
 11
195.8019202432
 21
19.8296690727
 31
0.0
  0
LINE
  5
1F1
330
1F
100
AcDbEntity
  8
0
  6
Continuous
 62
     7
100
AcDbLine
 10
195.8019202432
 20
19.8296690727
 30
0.0
 11
195.8019202432
 21
20.764853393
 31
0.0
  0
LINE
  5
1F2
330
1F
100
AcDbEntity
  8
0
  6
Continuous
 62
     7
100
AcDbLine
 10
231.9450299759
 20
21.3957337201
 30
0.0
 11
195.8019202432
 21
20.764853393
 31
0.0
  0
ARC
  5
1F3
330
1F
100
AcDbEntity
  8
0
  6
Continuous
 62
     7
100
AcDbCircle
 10
231.8019202432
 20
29.5944848204
 30
0.0
 40
8.200000000000017
100
AcDbArc
 50
271.0
 51
0.0
  0
LINE
  5
1F4
330
1F
100
AcDbEntity
  8
0
  6
Continuous
 62
     7
100
AcDbLine
 10
240.0019202432
 20
37.8299467105
 30
0.0
 11
240.0019202432
 21
29.5944848204
 31
0.0
  0
LINE
  5
1F5
330
1F
100
AcDbEntity
  8
0
  6
Continuous
 62
     7
100
AcDbLine
 10
232.8019202432
 20
37.955623178
 30
0.0
 11
240.0019202432
 21
37.8299467105
 31
0.0
  0
LINE
  5
1F6
330
1F
100
AcDbEntity
  8
0
  6
Continuous
 62
     7
100
AcDbLine
 10
232.8019202432
 20
37.955623178
 30
0.0
 11
232.8019202432
 21
64.9296690727
 31
0.0
  0
LINE
  5
1F7
330
1F
100
AcDbEntity
  8
0
  6
Continuous
 62
     7
100
AcDbLine
 10
232.8019202432
 20
64.9296690727
 30
0.0
 11
234.3019202432
 21
64.9296690727
 31
0.0
  0
LINE
  5
1F8
330
1F
100
AcDbEntity
  8
0
  6
Continuous
 62
     7
100
AcDbLine
 10
234.3019202432
 20
39.4296690727
 30
0.0
 11
234.3019202432
 21
64.9296690727
 31
0.0
  0
LINE
  5
1F9
330
1F
100
AcDbEntity
  8
0
  6
Continuous
 62
     7
100
AcDbLine
 10
234.3019202432
 20
39.4296690727
 30
0.0
 11
241.8019202432
 21
39.2987560857
 31
0.0
  0
LINE
  5
1FA
330
1F
100
AcDbEntity
  8
0
  6
Continuous
 62
     7
100
AcDbLine
 10
232.8019202432
 20
64.9296690727
 30
0.0
 11
232.8019202432
 21
111.9296690727
 31
0.0
  0
LINE
  5
1FB
330
1F
100
AcDbEntity
  8
0
  6
Continuous
 62
     7
100
AcDbLine
 10
232.8019202432
 20
137.3037149674
 30
0.0
 11
231.0966845212
 21
137.3334799676
 31
0.0
  0
LINE
  5
1FC
330
1F
100
AcDbEntity
  8
0
  6
Continuous
 62
     7
100
AcDbLine
 10
230.8019202432
 20
141.3331525149
 30
0.0
 11
230.8019202432
 21
155.4835574799
 31
0.0
  0
ARC
  5
1FD
330
1F
100
AcDbEntity
  8
0
  6
Continuous
 62
     7
100
AcDbCircle
 10
231.1019202432
 20
137.6334342762
 30
0.0
 40
0.3000000000000398
100
AcDbArc
 50
180.0
 51
269.0
  0
LINE
  5
1FE
330
1F
100
AcDbEntity
  8
0
  6
Continuous
 62
     7
100
AcDbLine
 10
230.8019202432
 20
137.6334342762
 30
0.0
 11
230.8019202432
 21
141.3331525149
 31
0.0
  0
LINE
  5
1FF
330
1F
100
AcDbEntity
  8
0
  6
Continuous
 62
     7
100
AcDbLine
 10
240.0019202432
 20
154.6796690727
 30
0.0
 11
240.0019202432
 21
152.9884885335
 31
0.0
  0
LINE
  5
200
330
1F
100
AcDbEntity
  8
0
  6
Continuous
 62
     7
100
AcDbLine
 10
234.3019202432
 20
64.9296690727
 30
0.0
 11
234.3019202432
 21
111.9296690727
 31
0.0
  0
LINE
  5
201
330
1F
100
AcDbEntity
  8
0
  6
Continuous
 62
     7
100
AcDbLine
 10
195.8019202432
 20
23.5483324339
 30
0.0
 11
195.8019202432
 21
21.0327405173
 31
0.0
  0
SPLINE
  5
202
330
1F
100
AcDbEntity
  8
0
  6
Continuous
 62
     7
100
AcDbSpline
210
0.0
220
0.0
230
1.0
 70
    24
 71
     3
 72
    12
 73
     8
 74
     0
 42
0.00000001
 43
0.00000001
 40
0.0
 40
0.0
 40
0.0
 40
0.0
 40
0.2304284864389753
 40
0.4608584284956515
 40
0.6912566929224335
 40
0.9216466995080074
 40
0.9999999999999999
 40
0.9999999999999999
 40
0.9999999999999999
 40
0.9999999999999999
 10
195.8019202431639
 20
21.03274051728303
 30
0.0
 10
195.8019202431639
 20
20.99956169941409
 30
0.0
 10
195.8019202431639
 20
20.93320385408551
 30
0.0
 10
195.8019202431639
 20
20.84939363664247
 30
0.0
 10
195.8019202431639
 20
20.7899483060391
 30
0.0
 10
195.8019202431639
 20
20.76683666598712
 30
0.0
 10
195.8019202431639
 20
20.76525483282572
 30
0.0
 10
195.8019202431639
 20
20.76485339303355
 30
0.0
  0
LINE
  5
203
330
1F
100
AcDbEntity
  8
0
  6
Continuous
 62
     7
100
AcDbLine
 10
241.8019202432
 20
137.5605820597
 30
0.0
 11
241.8019202432
 21
137.0606582121
 31
0.0
  0
LINE
  5
204
330
1F
100
AcDbEntity
  8
0
  6
Continuous
 62
     7
100
AcDbLine
 10
241.8019202432
 20
39.7986799333
 30
0.0
 11
241.8019202432
 21
39.2987560857
 31
0.0
  0
SPLINE
  5
205
330
1F
100
AcDbEntity
  8
0
  6
Continuous
 62
     7
100
AcDbSpline
210
0.0
220
0.0
230
1.0
 70
    24
 71
     3
 72
    12
 73
     8
 74
     0
 42
0.00000001
 43
0.00000001
 40
0.0
 40
0.0
 40
0.0
 40
0.0
 40
0.2304284865636731
 40
0.460858428712001
 40
0.6912566937112015
 40
0.9216466999863568
 40
1.0
 40
1.0
 40
1.0
 40
1.0
 10
195.8019202431639
 20
23.8465677150342
 30
0.0
 10
195.8019202431639
 20
23.81284117461727
 30
0.0
 10
195.8019202431639
 20
23.74538788073755
 30
0.0
 10
195.8019202431639
 20
23.65553392112556
 30
0.0
 10
195.8019202431639
 20
23.58756234491212
 30
0.0
 10
195.8019202431639
 20
23.55633306121138
 30
0.0
 10
195.8019202431639
 20
23.54995186311992
 30
0.0
 10
195.8019202431639
 20
23.54833243391023
 30
0.0
  0
LINE
  5
206
330
1F
100
AcDbEntity
  8
0
  6
Continuous
 62
     7
100
AcDbLine
 10
195.8019202432
 20
156.0944847524
 30
0.0
 11
195.8019202432
 21
155.7945304438
 31
0.0
  0
LINE
  5
207
330
1F
100
AcDbEntity
  8
0
  6
Continuous
 62
     7
100
AcDbLine
 10
241.8019202432
 20
39.7986799333
 30
0.0
 11
241.8019202432
 21
40.8605820597
 31
0.0
  0
LINE
  5
208
330
1F
100
AcDbEntity
  8
0
  6
Continuous
 62
     7
100
AcDbLine
 10
241.8019202432
 20
133.1506642964
 30
0.0
 11
241.8019202432
 21
137.0606582121
 31
0.0
  0
LINE
  5
209
330
1F
100
AcDbEntity
  8
0
  6
Continuous
 62
     7
100
AcDbLine
 10
195.8019202432
 20
23.846567715
 30
0.0
 11
195.8019202432
 21
141.8465006005
 31
0.0
  0
LINE
  5
20A
330
1F
100
AcDbEntity
  8
0
  6
Continuous
 62
     7
100
AcDbLine
 10
195.8019202432
 20
154.2244491613
 30
0.0
 11
195.8019202432
 21
155.7945304438
 31
0.0
  0
LINE
  5
20B
330
1F
100
AcDbEntity
  8
0
  6
Continuous
 62
     7
100
AcDbLine
 10
186.0472524074
 20
70.9296690727
 30
0.0
 11
186.0019202432
 21
70.9296690727
 31
0.0
  0
LINE
  5
20C
330
1F
100
AcDbEntity
  8
0
  6
Continuous
 62
     7
100
AcDbLine
 10
186.0019202432
 20
75.0735198309
 30
0.0
 11
186.0019202432
 21
70.9296690727
 31
0.0
  0
SPLINE
  5
20D
330
1F
100
AcDbEntity
  8
0
  6
Continuous
 62
     7
100
AcDbSpline
210
0.0
220
0.0
230
1.0
 70
     8
 71
     3
 72
    10
 73
     6
 74
     0
 42
0.00000001
 43
0.00000001
 40
0.0
 40
0.0
 40
0.0
 40
0.0
 40
0.5
 40
0.5
 40
1.0
 40
1.0
 40
1.0
 40
1.0
 10
186.0472524074286
 20
74.97930864356528
 30
0.0
 10
186.0376781543555
 20
75.00019559085207
 30
0.0
 10
186.0279771672017
 20
75.02063708598837
 30
0.0
 10
186.0105744703269
 20
75.05637202593496
 30
0.0
 10
186.0019202431639
 20
75.07351983092708
 30
0.0
 10
186.0019202431639
 20
75.07351983092707
 30
0.0
  0
LINE
  5
20E
330
1F
100
AcDbEntity
  8
0
  6
Continuous
 62
     7
100
AcDbLine
 10
193.8019202432
 20
157.0296690727
 30
0.0
 11
195.8019202432
 21
157.0122153371
 31
0.0
  0
LINE
  5
20F
330
1F
100
AcDbEntity
  8
0
  6
Continuous
 62
     7
100
AcDbLine
 10
195.8019202432
 20
156.1470542672
 30
0.0
 11
195.8019202432
 21
157.0122153371
 31
0.0
  0
LINE
  5
210
330
1F
100
AcDbEntity
  8
0
  6
Continuous
 62
     7
100
AcDbLine
 10
178.3019202432
 20
155.9943340808
 30
0.0
 11
195.8019202432
 21
156.1470542672
 31
0.0
  0
LINE
  5
211
330
1F
100
AcDbEntity
  8
0
  6
Continuous
 62
     7
100
AcDbLine
 10
178.3019202432
 20
128.4296690727
 30
0.0
 11
178.3019202432
 21
155.9943340808
 31
0.0
  0
LINE
  5
212
330
1F
100
AcDbEntity
  8
0
  6
Continuous
 62
     7
100
AcDbLine
 10
178.3019202432
 20
128.4296690727
 30
0.0
 11
176.8019202432
 21
128.4034864753
 31
0.0
  0
LINE
  5
213
330
1F
100
AcDbEntity
  8
0
  6
Continuous
 62
     7
100
AcDbLine
 10
176.8019202432
 20
128.4034864753
 30
0.0
 11
176.8019202432
 21
133.4296690727
 31
0.0
  0
LINE
  5
214
330
1F
100
AcDbEntity
  8
0
  6
Continuous
 62
     7
100
AcDbLine
 10
176.8019202432
 20
133.4296690727
 30
0.0
 11
176.5019202432
 21
133.4296690727
 31
0.0
  0
LINE
  5
215
330
1F
100
AcDbEntity
  8
0
  6
Continuous
 62
     7
100
AcDbLine
 10
176.5019202432
 20
133.4296690727
 30
0.0
 11
176.5019202432
 21
133.9296690727
 31
0.0
  0
LINE
  5
216
330
1F
100
AcDbEntity
  8
0
  6
Continuous
 62
     7
100
AcDbLine
 10
176.5019202432
 20
133.9296690727
 30
0.0
 11
176.8019202432
 21
133.9296690727
 31
0.0
  0
LINE
  5
217
330
1F
100
AcDbEntity
  8
0
  6
Continuous
 62
     7
100
AcDbLine
 10
176.8019202432
 20
133.9296690727
 30
0.0
 11
176.8019202432
 21
135.1796690727
 31
0.0
  0
LINE
  5
218
330
1F
100
AcDbEntity
  8
0
  6
Continuous
 62
     7
100
AcDbLine
 10
176.5019202432
 20
135.1796690727
 30
0.0
 11
176.8019202432
 21
135.1796690727
 31
0.0
  0
LINE
  5
219
330
1F
100
AcDbEntity
  8
0
  6
Continuous
 62
     7
100
AcDbLine
 10
176.5019202432
 20
138.6796690727
 30
0.0
 11
176.5019202432
 21
135.1796690727
 31
0.0
  0
LINE
  5
21A
330
1F
100
AcDbEntity
  8
0
  6
Continuous
 62
     7
100
AcDbLine
 10
176.8019202432
 20
138.6796690727
 30
0.0
 11
176.5019202432
 21
138.6796690727
 31
0.0
  0
LINE
  5
21B
330
1F
100
AcDbEntity
  8
0
  6
Continuous
 62
     7
100
AcDbLine
 10
176.8019202432
 20
138.6796690727
 30
0.0
 11
176.8019202432
 21
157.285656715
 31
0.0
  0
ARC
  5
21C
330
1F
100
AcDbEntity
  8
0
  6
Continuous
 62
     7
100
AcDbCircle
 10
177.3019202432
 20
157.285656715
 30
0.0
 40
0.5000000000000029
100
AcDbArc
 50
90.5
 51
180.0
  0
LINE
  5
21D
330
1F
100
AcDbEntity
  8
0
  6
Continuous
 62
     7
100
AcDbLine
 10
177.2975569754
 20
157.7856376765
 30
0.0
 11
193.8019202432
 21
157.9296690727
 31
0.0
  0
LINE
  5
21E
330
1F
100
AcDbEntity
  8
0
  6
Continuous
 62
     7
100
AcDbLine
 10
195.8019202432
 20
19.8471228083
 30
0.0
 11
193.8019202432
 21
19.8296690727
 31
0.0
  0
LINE
  5
21F
330
1F
100
AcDbEntity
  8
0
  6
Continuous
 62
     7
100
AcDbLine
 10
193.8019202432
 20
18.9296690727
 30
0.0
 11
177.2975569754
 21
19.0737004689
 31
0.0
  0
ARC
  5
220
330
1F
100
AcDbEntity
  8
0
  6
Continuous
 62
     7
100
AcDbCircle
 10
177.3019202432
 20
19.5736814304
 30
0.0
 40
0.5000000000000029
100
AcDbArc
 50
180.0
 51
269.5
  0
LINE
  5
221
330
1F
100
AcDbEntity
  8
0
  6
Continuous
 62
     7
100
AcDbLine
 10
176.8019202432
 20
19.5736814304
 30
0.0
 11
176.8019202432
 21
26.9296690727
 31
0.0
  0
LINE
  5
222
330
1F
100
AcDbEntity
  8
0
  6
Continuous
 62
     7
100
AcDbLine
 10
176.8019202432
 20
26.9296690727
 30
0.0
 11
176.5019202432
 21
26.9296690727
 31
0.0
  0
LINE
  5
223
330
1F
100
AcDbEntity
  8
0
  6
Continuous
 62
     7
100
AcDbLine
 10
176.5019202432
 20
27.4296690727
 30
0.0
 11
176.5019202432
 21
26.9296690727
 31
0.0
  0
LINE
  5
224
330
1F
100
AcDbEntity
  8
0
  6
Continuous
 62
     7
100
AcDbLine
 10
176.5019202432
 20
27.4296690727
 30
0.0
 11
176.8019202432
 21
27.4296690727
 31
0.0
  0
LINE
  5
225
330
1F
100
AcDbEntity
  8
0
  6
Continuous
 62
     7
100
AcDbLine
 10
176.8019202432
 20
27.4296690727
 30
0.0
 11
176.8019202432
 21
48.4558516701
 31
0.0
  0
LINE
  5
226
330
1F
100
AcDbEntity
  8
0
  6
Continuous
 62
     7
100
AcDbLine
 10
176.8019202432
 20
48.4558516701
 30
0.0
 11
178.3019202432
 21
48.4296690727
 31
0.0
  0
LINE
  5
227
330
1F
100
AcDbEntity
  8
0
  6
Continuous
 62
     7
100
AcDbLine
 10
178.3019202432
 20
20.8650040645
 30
0.0
 11
178.3019202432
 21
48.4296690727
 31
0.0
  0
LINE
  5
228
330
1F
100
AcDbEntity
  8
0
  6
Continuous
 62
     7
100
AcDbLine
 10
195.8019202432
 20
20.7122838782
 30
0.0
 11
178.3019202432
 21
20.8650040645
 31
0.0
  0
LINE
  5
229
330
1F
100
AcDbEntity
  8
0
  6
Continuous
 62
     7
100
AcDbLine
 10
195.8019202432
 20
19.8471228083
 30
0.0
 11
195.8019202432
 21
20.7122838782
 31
0.0
  0
LINE
  5
22A
330
1F
100
AcDbEntity
  8
0
  6
Continuous
 62
     7
100
AcDbLine
 10
185.3019202432
 20
105.9296690727
 30
0.0
 11
186.0019202432
 21
105.9296690727
 31
0.0
  0
LINE
  5
22B
330
1F
100
AcDbEntity
  8
0
  6
Continuous
 62
     7
100
AcDbLine
 10
186.0019202432
 20
105.9296690727
 30
0.0
 11
186.0019202432
 21
101.7858183145
 31
0.0
  0
ARC
  5
22C
330
1F
100
AcDbEntity
  8
0
  6
Continuous
 62
     7
100
AcDbCircle
 10
183.5019202432
 20
103.0467703358
 30
0.0
 40
2.800000000000022
100
AcDbArc
 50
271.0
 51
333.2344994232
  0
LINE
  5
22D
330
1F
100
AcDbEntity
  8
0
  6
Continuous
 62
     7
100
AcDbLine
 10
183.5507869812
 20
100.2471967893
 30
0.0
 11
179.087958318
 21
100.1692978252
 31
0.0
  0
ARC
  5
22E
330
1F
100
AcDbEntity
  8
0
  6
Continuous
 62
     7
100
AcDbCircle
 10
179.1019202432
 20
99.3694196691
 30
0.0
 40
0.8000000000000048
100
AcDbArc
 50
91.0
 51
180.0
  0
LINE
  5
22F
330
1F
100
AcDbEntity
  8
0
  6
Continuous
 62
     7
100
AcDbLine
 10
178.3019202432
 20
93.4296690727
 30
0.0
 11
178.3019202432
 21
99.3694196691
 31
0.0
  0
LINE
  5
230
330
1F
100
AcDbEntity
  8
0
  6
Continuous
 62
     7
100
AcDbLine
 10
178.3019202432
 20
93.4296690727
 30
0.0
 11
176.8019202432
 21
93.4034864753
 31
0.0
  0
LINE
  5
231
330
1F
100
AcDbEntity
  8
0
  6
Continuous
 62
     7
100
AcDbLine
 10
176.8019202432
 20
93.4034864753
 30
0.0
 11
176.8019202432
 21
99.178116736
 31
0.0
  0
ARC
  5
232
330
1F
100
AcDbEntity
  8
0
  6
Continuous
 62
     7
100
AcDbCircle
 10
179.6019202432
 20
99.178116736
 30
0.0
 40
2.799999999999988
100
AcDbArc
 50
91.0
 51
180.0
  0
LINE
  5
233
330
1F
100
AcDbEntity
  8
0
  6
Continuous
 62
     7
100
AcDbLine
 10
179.5530535051
 20
101.9776902824
 30
0.0
 11
183.9613082126
 21
102.0546366546
 31
0.0
  0
ARC
  5
234
330
1F
100
AcDbEntity
  8
0
  6
Continuous
 62
     7
100
AcDbCircle
 10
183.9473462874
 20
102.8545148107
 30
0.0
 40
0.8000000000000137
100
AcDbArc
 50
271.0
 51
350.0
  0
LINE
  5
235
330
1F
100
AcDbEntity
  8
0
  6
Continuous
 62
     7
100
AcDbLine
 10
184.7351924898
 20
102.7155962685
 30
0.0
 11
185.3019202432
 21
105.9296690727
 31
0.0
  0
LINE
  5
236
330
1F
100
AcDbEntity
  8
0
  6
Continuous
 62
     7
100
AcDbLine
 10
186.0019202432
 20
70.9296690727
 30
0.0
 11
185.3019202432
 21
70.9296690727
 31
0.0
  0
LINE
  5
237
330
1F
100
AcDbEntity
  8
0
  6
Continuous
 62
     7
100
AcDbLine
 10
185.3019202432
 20
70.9296690727
 30
0.0
 11
184.7351924898
 21
74.1437418769
 31
0.0
  0
ARC
  5
238
330
1F
100
AcDbEntity
  8
0
  6
Continuous
 62
     7
100
AcDbCircle
 10
183.9473462874
 20
74.0048233347
 30
0.0
 40
0.8000000000000113
100
AcDbArc
 50
10.0
 51
89.0
  0
LINE
  5
239
330
1F
100
AcDbEntity
  8
0
  6
Continuous
 62
     7
100
AcDbLine
 10
183.9613082126
 20
74.8047014908
 30
0.0
 11
179.5530535051
 21
74.881647863
 31
0.0
  0
ARC
  5
23A
330
1F
100
AcDbEntity
  8
0
  6
Continuous
 62
     7
100
AcDbCircle
 10
179.6019202432
 20
77.6812214094
 30
0.0
 40
2.800000000000002
100
AcDbArc
 50
180.0
 51
269.0
  0
LINE
  5
23B
330
1F
100
AcDbEntity
  8
0
  6
Continuous
 62
     7
100
AcDbLine
 10
176.8019202432
 20
77.6812214094
 30
0.0
 11
176.8019202432
 21
83.4558516701
 31
0.0
  0
LINE
  5
23C
330
1F
100
AcDbEntity
  8
0
  6
Continuous
 62
     7
100
AcDbLine
 10
176.8019202432
 20
83.4558516701
 30
0.0
 11
178.3019202432
 21
83.4296690727
 31
0.0
  0
LINE
  5
23D
330
1F
100
AcDbEntity
  8
0
  6
Continuous
 62
     7
100
AcDbLine
 10
178.3019202432
 20
77.4899184763
 30
0.0
 11
178.3019202432
 21
83.4296690727
 31
0.0
  0
ARC
  5
23E
330
1F
100
AcDbEntity
  8
0
  6
Continuous
 62
     7
100
AcDbCircle
 10
179.1019202432
 20
77.4899184763
 30
0.0
 40
0.8000000000000048
100
AcDbArc
 50
180.0
 51
269.0
  0
LINE
  5
23F
330
1F
100
AcDbEntity
  8
0
  6
Continuous
 62
     7
100
AcDbLine
 10
179.087958318
 20
76.6900403202
 30
0.0
 11
183.5507869812
 21
76.6121413561
 31
0.0
  0
ARC
  5
240
330
1F
100
AcDbEntity
  8
0
  6
Continuous
 62
     7
100
AcDbCircle
 10
183.5019202432
 20
73.8125678096
 30
0.0
 40
2.800000000000022
100
AcDbArc
 50
26.7655005768
 51
89.0
  0
LINE
  5
241
330
1F
100
AcDbEntity
  8
0
  6
Continuous
 62
     7
100
AcDbLine
 10
176.8019202432
 20
83.4558516701
 30
0.0
 11
176.8019202432
 21
93.4034864753
 31
0.0
  0
LINE
  5
242
330
1F
100
AcDbEntity
  8
0
  6
Continuous
 62
     7
100
AcDbLine
 10
178.3019202432
 20
83.4296690727
 30
0.0
 11
178.3019202432
 21
93.4296690727
 31
0.0
  0
LINE
  5
243
330
1F
100
AcDbEntity
  8
0
  6
Continuous
 62
     7
100
AcDbLine
 10
186.0019202432
 20
105.9296690727
 30
0.0
 11
186.0472524074
 21
105.9296690727
 31
0.0
  0
SPLINE
  5
244
330
1F
100
AcDbEntity
  8
0
  6
Continuous
 62
     7
100
AcDbSpline
210
0.0
220
0.0
230
1.0
 70
     8
 71
     3
 72
    10
 73
     6
 74
     0
 42
0.00000001
 43
0.00000001
 40
0.0
 40
0.0
 40
0.0
 40
0.0
 40
0.5000000000000001
 40
0.5000000000000001
 40
1.0
 40
1.0
 40
1.0
 40
1.0
 10
186.0019202431639
 20
101.7858183144691
 30
0.0
 10
186.0019202431639
 20
101.7858183144691
 30
0.0
 10
186.010569604757
 20
101.8029540420761
 30
0.0
 10
186.028094290975
 20
101.8389436627555
 30
0.0
 10
186.0377255936395
 20
101.8592460468804
 30
0.0
 10
186.0472524074274
 20
101.8800295018278
 30
0.0
  0
LINE
  5
245
330
1F
100
AcDbEntity
  8
0
  6
Continuous
 62
     7
100
AcDbLine
 10
176.8019202432
 20
65.9296690727
 30
0.0
 11
178.3019202432
 21
65.9558516701
 31
0.0
  0
LINE
  5
246
330
1F
100
AcDbEntity
  8
0
  6
Continuous
 62
     7
100
AcDbLine
 10
178.3019202432
 20
58.4296690727
 30
0.0
 11
178.3019202432
 21
65.9558516701
 31
0.0
  0
LINE
  5
247
330
1F
100
AcDbEntity
  8
0
  6
Continuous
 62
     7
100
AcDbLine
 10
178.3019202432
 20
58.4296690727
 30
0.0
 11
176.8019202432
 21
58.4034864753
 31
0.0
  0
LINE
  5
248
330
1F
100
AcDbEntity
  8
0
  6
Continuous
 62
     7
100
AcDbLine
 10
176.8019202432
 20
58.4034864753
 30
0.0
 11
176.8019202432
 21
65.9296690727
 31
0.0
  0
LINE
  5
249
330
1F
100
AcDbEntity
  8
0
  6
Continuous
 62
     7
100
AcDbLine
 10
178.3019202432
 20
110.9034864753
 30
0.0
 11
176.8019202432
 21
110.9296690727
 31
0.0
  0
LINE
  5
24A
330
1F
100
AcDbEntity
  8
0
  6
Continuous
 62
     7
100
AcDbLine
 10
178.3019202432
 20
110.9034864753
 30
0.0
 11
178.3019202432
 21
118.4296690727
 31
0.0
  0
LINE
  5
24B
330
1F
100
AcDbEntity
  8
0
  6
Continuous
 62
     7
100
AcDbLine
 10
176.8019202432
 20
118.4558516701
 30
0.0
 11
178.3019202432
 21
118.4296690727
 31
0.0
  0
LINE
  5
24C
330
1F
100
AcDbEntity
  8
0
  6
Continuous
 62
     7
100
AcDbLine
 10
176.8019202432
 20
110.9296690727
 30
0.0
 11
176.8019202432
 21
118.4558516701
 31
0.0
  0
LINE
  5
24D
330
1F
100
AcDbEntity
  8
0
  6
Continuous
 62
     7
100
AcDbLine
 10
186.3019202432
 20
103.0467703358
 30
0.0
 11
186.3019202432
 21
105.9296690727
 31
0.0
  0
LINE
  5
24E
330
1F
100
AcDbEntity
  8
0
  6
Continuous
 62
     7
100
AcDbLine
 10
186.0472524074
 20
105.9296690727
 30
0.0
 11
186.3019202432
 21
105.9296690727
 31
0.0
  0
ARC
  5
24F
330
1F
100
AcDbEntity
  8
0
  6
Continuous
 62
     7
100
AcDbCircle
 10
183.5019202432
 20
103.0467703358
 30
0.0
 40
2.80000000000004
100
AcDbArc
 50
335.3740121436
 51
0.0
  0
LINE
  5
250
330
1F
100
AcDbEntity
  8
0
  6
Continuous
 62
     7
100
AcDbLine
 10
186.3019202432
 20
70.9296690727
 30
0.0
 11
186.3019202432
 21
73.8125678096
 31
0.0
  0
LINE
  5
251
330
1F
100
AcDbEntity
  8
0
  6
Continuous
 62
     7
100
AcDbLine
 10
186.3019202432
 20
70.9296690727
 30
0.0
 11
186.0472524074
 21
70.9296690727
 31
0.0
  0
ARC
  5
252
330
1F
100
AcDbEntity
  8
0
  6
Continuous
 62
     7
100
AcDbCircle
 10
183.5019202432
 20
73.8125678096
 30
0.0
 40
2.80000000000004
100
AcDbArc
 50
0.0
 51
24.6259878564
  0
LINE
  5
253
330
1F
100
AcDbEntity
  8
0
  6
Continuous
 62
     7
100
AcDbLine
 10
178.6019202432
 20
23.4296690727
 30
0.0
 11
178.6019202432
 21
25.9873613804
 31
0.0
  0
LINE
  5
254
330
1F
100
AcDbEntity
  8
0
  6
Continuous
 62
     7
100
AcDbLine
 10
178.6019202432
 20
23.4296690727
 30
0.0
 11
178.3019202432
 21
23.4296690727
 31
0.0
  0
LINE
  5
255
330
1F
100
AcDbEntity
  8
0
  6
Continuous
 62
     7
100
AcDbLine
 10
178.6019202432
 20
25.9873613804
 30
0.0
 11
178.3019202432
 21
25.9873613804
 31
0.0
  0
LINE
  5
256
330
1F
100
AcDbEntity
  8
0
  6
Continuous
 62
     7
100
AcDbLine
 10
178.6019202432
 20
26.480951124
 30
0.0
 11
178.6019202432
 21
26.9296690727
 31
0.0
  0
LINE
  5
257
330
1F
100
AcDbEntity
  8
0
  6
Continuous
 62
     7
100
AcDbLine
 10
178.6019202432
 20
26.480951124
 30
0.0
 11
178.3019202432
 21
26.480951124
 31
0.0
  0
LINE
  5
258
330
1F
100
AcDbEntity
  8
0
  6
Continuous
 62
     7
100
AcDbLine
 10
178.6019202432
 20
26.9296690727
 30
0.0
 11
178.3019202432
 21
26.9296690727
 31
0.0
  0
LINE
  5
259
330
1F
100
AcDbEntity
  8
0
  6
Continuous
 62
     7
100
AcDbLine
 10
178.6019202432
 20
26.0322331753
 30
0.0
 11
178.3019202432
 21
26.0322331753
 31
0.0
  0
LINE
  5
25A
330
1F
100
AcDbEntity
  8
0
  6
Continuous
 62
     7
100
AcDbLine
 10
178.6019202432
 20
23.3847972778
 30
0.0
 11
178.3019202432
 21
23.3847972778
 31
0.0
  0
LINE
  5
25B
330
1F
100
AcDbEntity
  8
0
  6
Continuous
 62
     7
100
AcDbLine
 10
178.6019202432
 20
26.1272627367
 30
0.0
 11
178.6019202432
 21
26.480951124
 31
0.0
  0
ARC
  5
25C
330
1F
100
AcDbEntity
  8
0
  6
Continuous
 62
     7
100
AcDbCircle
 10
178.5019202432
 20
140.7296690727
 30
0.0
 40
0.5
100
AcDbArc
 50
270.0
 51
0.0
  0
LINE
  5
25D
330
1F
100
AcDbEntity
  8
0
  6
Continuous
 62
     7
100
AcDbLine
 10
179.0019202432
 20
140.7296690727
 30
0.0
 11
179.0019202432
 21
144.9296690727
 31
0.0
  0
ARC
  5
25E
330
1F
100
AcDbEntity
  8
0
  6
Continuous
 62
     7
100
AcDbCircle
 10
178.5019202432
 20
144.9296690727
 30
0.0
 40
0.5
100
AcDbArc
 50
0.0
 51
90.0
  0
LINE
  5
25F
330
1F
100
AcDbEntity
  8
0
  6
Continuous
 62
     7
100
AcDbLine
 10
178.5019202432
 20
140.2296690727
 30
0.0
 11
178.3019202432
 21
140.2296690727
 31
0.0
  0
LINE
  5
260
330
1F
100
AcDbEntity
  8
0
  6
Continuous
 62
     7
100
AcDbLine
 10
178.3019202432
 20
145.4296690727
 30
0.0
 11
178.5019202432
 21
145.4296690727
 31
0.0
  0
LINE
  5
261
330
1F
100
AcDbEntity
  8
0
  6
Continuous
 62
     7
100
AcDbLine
 10
178.3019202432
 20
38.473306735
 30
0.0
 11
178.3455512593
 21
38.4725451528
 31
0.0
  0
ARC
  5
262
330
1F
100
AcDbEntity
  8
0
  6
Continuous
 62
     7
100
AcDbCircle
 10
178.5019202432
 20
31.9210177043
 30
0.0
 40
0.5000000000000068
100
AcDbArc
 50
271.0
 51
0.0
  0
LINE
  5
263
330
1F
100
AcDbEntity
  8
0
  6
Continuous
 62
     7
100
AcDbLine
 10
179.0019202432
 20
36.1383204411
 30
0.0
 11
179.0019202432
 21
31.9210177043
 31
0.0
  0
ARC
  5
264
330
1F
100
AcDbEntity
  8
0
  6
Continuous
 62
     7
100
AcDbCircle
 10
178.5019202432
 20
36.1383204411
 30
0.0
 40
0.5
100
AcDbArc
 50
0.0
 51
89.0
  0
LINE
  5
265
330
1F
100
AcDbEntity
  8
0
  6
Continuous
 62
     7
100
AcDbLine
 10
178.5106464464
 20
31.4210938567
 30
0.0
 11
178.3019202432
 21
31.4174505272
 31
0.0
  0
LINE
  5
266
330
1F
100
AcDbEntity
  8
0
  6
Continuous
 62
     7
100
AcDbLine
 10
178.3019202432
 20
36.6418876181
 30
0.0
 11
178.5106464464
 21
36.6382442887
 31
0.0
  0
ARC
  5
267
330
1F
100
AcDbEntity
  8
0
  6
Continuous
 62
     7
100
AcDbCircle
 10
178.3019202432
 20
144.7296690727
 30
0.0
 40
2.5
100
AcDbArc
 50
0.0
 51
90.0
  0
LINE
  5
268
330
1F
100
AcDbEntity
  8
0
  6
Continuous
 62
     7
100
AcDbLine
 10
178.3455512593
 20
29.5867929926
 30
0.0
 11
178.3019202432
 21
29.5860314104
 31
0.0
  0
ARC
  5
269
330
1F
100
AcDbEntity
  8
0
  6
Continuous
 62
     7
100
AcDbCircle
 10
178.3019202432
 20
140.9296690727
 30
0.0
 40
2.500000000000028
100
AcDbArc
 50
270.0
 51
0.0
  0
LINE
  5
26A
330
1F
100
AcDbEntity
  8
0
  6
Continuous
 62
     7
100
AcDbLine
 10
180.8019202432
 20
144.7296690727
 30
0.0
 11
180.8019202432
 21
140.9296690727
 31
0.0
  0
ARC
  5
26B
330
1F
100
AcDbEntity
  8
0
  6
Continuous
 62
     7
100
AcDbCircle
 10
178.3019202432
 20
35.9729259149
 30
0.0
 40
2.500000000000011
100
AcDbArc
 50
0.0
 51
89.0
  0
ARC
  5
26C
330
1F
100
AcDbEntity
  8
0
  6
Continuous
 62
     7
100
AcDbCircle
 10
178.3019202432
 20
32.0864122305
 30
0.0
 40
2.500000000000007
100
AcDbArc
 50
271.0
 51
0.0
  0
LINE
  5
26D
330
1F
100
AcDbEntity
  8
0
  6
Continuous
 62
     7
100
AcDbLine
 10
180.8019202432
 20
35.9729259149
 30
0.0
 11
180.8019202432
 21
32.0864122305
 31
0.0
  0
LINE
  5
26E
330
1F
100
AcDbEntity
  8
0
  6
Continuous
 62
     7
100
AcDbLine
 10
178.3019202432
 20
118.4296690727
 30
0.0
 11
178.3019202432
 21
128.4296690727
 31
0.0
  0
LINE
  5
26F
330
1F
100
AcDbEntity
  8
0
  6
Continuous
 62
     7
100
AcDbLine
 10
176.8019202432
 20
118.4558516701
 30
0.0
 11
176.8019202432
 21
128.4034864753
 31
0.0
  0
LINE
  5
270
330
1F
100
AcDbEntity
  8
0
  6
Continuous
 62
     7
100
AcDbLine
 10
178.3019202432
 20
48.4296690727
 30
0.0
 11
178.3019202432
 21
58.4296690727
 31
0.0
  0
LINE
  5
271
330
1F
100
AcDbEntity
  8
0
  6
Continuous
 62
     7
100
AcDbLine
 10
176.8019202432
 20
48.4558516701
 30
0.0
 11
176.8019202432
 21
58.4034864753
 31
0.0
  0
LINE
  5
272
330
1F
100
AcDbEntity
  8
0
  6
Continuous
 62
     7
100
AcDbLine
 10
178.4519202432
 20
137.0558516701
 30
0.0
 11
178.4519202432
 21
138.43417313
 31
0.0
  0
LINE
  5
273
330
1F
100
AcDbEntity
  8
0
  6
Continuous
 62
     7
100
AcDbLine
 10
178.4519202432
 20
137.0558516701
 30
0.0
 11
178.3019202432
 21
137.0558516701
 31
0.0
  0
LINE
  5
274
330
1F
100
AcDbEntity
  8
0
  6
Continuous
 62
     7
100
AcDbLine
 10
175.8019202432
 20
153.6299127976
 30
0.0
 11
175.8019202432
 21
154.9299127976
 31
0.0
  0
ARC
  5
275
330
1F
100
AcDbEntity
  8
0
  6
Continuous
 62
     7
100
AcDbCircle
 10
176.3019202432
 20
154.9299127976
 30
0.0
 40
0.5
100
AcDbArc
 50
90.0
 51
180.0
  0
ARC
  5
276
330
1F
100
AcDbEntity
  8
0
  6
Continuous
 62
     7
100
AcDbCircle
 10
176.3019202432
 20
138.6296690727
 30
0.0
 40
0.5
100
AcDbArc
 50
180.0
 51
270.0
  0
LINE
  5
277
330
1F
100
AcDbEntity
  8
0
  6
Continuous
 62
     7
100
AcDbLine
 10
175.8019202432
 20
138.6296690727
 30
0.0
 11
175.8019202432
 21
139.9296690727
 31
0.0
  0
LINE
  5
278
330
1F
100
AcDbEntity
  8
0
  6
Continuous
 62
     7
100
AcDbLine
 10
175.8019202432
 20
139.9296690727
 30
0.0
 11
175.8019202432
 21
153.6299127976
 31
0.0
  0
LINE
  5
279
330
1F
100
AcDbEntity
  8
0
  6
Continuous
 62
     7
100
AcDbLine
 10
176.5019202432
 20
138.1296690727
 30
0.0
 11
176.3019202432
 21
138.1296690727
 31
0.0
  0
LINE
  5
27A
330
1F
100
AcDbEntity
  8
0
  6
Continuous
 62
     7
100
AcDbLine
 10
176.3019202432
 20
155.4299127976
 30
0.0
 11
176.8019202432
 21
155.4299127976
 31
0.0
  0
LINE
  5
27B
330
1F
100
AcDbEntity
  8
0
  6
Continuous
 62
     7
100
AcDbLine
 10
183.3019202432
 20
34.1010451165
 30
0.0
 11
183.3019202432
 21
20.8213697256
 31
0.0
  0
LINE
  5
27C
330
1F
100
AcDbEntity
  8
0
  6
Continuous
 62
     7
100
AcDbLine
 10
178.4519202432
 20
131.0058516701
 30
0.0
 11
178.3019202432
 21
131.0058516701
 31
0.0
  0
LINE
  5
27D
330
1F
100
AcDbEntity
  8
0
  6
Continuous
 62
     7
100
AcDbLine
 10
178.4519202432
 20
131.0058516701
 30
0.0
 11
178.4519202432
 21
129.1058516701
 31
0.0
  0
LINE
  5
27E
330
1F
100
AcDbEntity
  8
0
  6
Continuous
 62
     7
100
AcDbLine
 10
178.4519202432
 20
129.1058516701
 30
0.0
 11
178.3019202432
 21
129.1058516701
 31
0.0
  0
LINE
  5
27F
330
1F
100
AcDbEntity
  8
0
  6
Continuous
 62
     7
100
AcDbLine
 10
178.4519202432
 20
131.1058516701
 30
0.0
 11
178.3019202432
 21
131.1058516701
 31
0.0
  0
LINE
  5
280
330
1F
100
AcDbEntity
  8
0
  6
Continuous
 62
     7
100
AcDbLine
 10
178.4519202432
 20
131.1058516701
 30
0.0
 11
178.4519202432
 21
131.0058516701
 31
0.0
  0
LINE
  5
281
330
1F
100
AcDbEntity
  8
0
  6
Continuous
 62
     7
100
AcDbLine
 10
178.4519202432
 20
129.1058516701
 30
0.0
 11
178.4519202432
 21
129.0058516701
 31
0.0
  0
LINE
  5
282
330
1F
100
AcDbEntity
  8
0
  6
Continuous
 62
     7
100
AcDbLine
 10
178.4519202432
 20
129.0058516701
 30
0.0
 11
178.3019202432
 21
129.0058516701
 31
0.0
  0
LINE
  5
283
330
1F
100
AcDbEntity
  8
0
  6
Continuous
 62
     7
100
AcDbLine
 10
175.8019202432
 20
27.1796690727
 30
0.0
 11
175.8019202432
 21
33.4193855474
 31
0.0
  0
LINE
  5
284
330
1F
100
AcDbEntity
  8
0
  6
Continuous
 62
     7
100
AcDbLine
 10
175.8019202432
 20
20.939952598
 30
0.0
 11
175.8019202432
 21
27.1796690727
 31
0.0
  0
LINE
  5
285
330
1F
100
AcDbEntity
  8
0
  6
Continuous
 62
     7
100
AcDbLine
 10
178.4519202432
 20
134.3071337214
 30
0.0
 11
178.4519202432
 21
134.6724782727
 31
0.0
  0
LINE
  5
286
330
1F
100
AcDbEntity
  8
0
  6
Continuous
 62
     7
100
AcDbLine
 10
178.4519202432
 20
134.3071337214
 30
0.0
 11
178.3019202432
 21
134.3071337214
 31
0.0
  0
LINE
  5
287
330
1F
100
AcDbEntity
  8
0
  6
Continuous
 62
     7
100
AcDbLine
 10
178.4519202432
 20
134.6724782727
 30
0.0
 11
178.3019202432
 21
134.6724782727
 31
0.0
  0
LINE
  5
288
330
1F
100
AcDbEntity
  8
0
  6
Continuous
 62
     7
100
AcDbLine
 10
178.4519202432
 20
136.0276465419
 30
0.0
 11
178.3019202432
 21
136.0276465419
 31
0.0
  0
LINE
  5
289
330
1F
100
AcDbEntity
  8
0
  6
Continuous
 62
     7
100
AcDbLine
 10
178.4519202432
 20
134.6724782727
 30
0.0
 11
178.4519202432
 21
136.0276465419
 31
0.0
  0
LINE
  5
28A
330
1F
100
AcDbEntity
  8
0
  6
Continuous
 62
     7
100
AcDbLine
 10
178.4519202432
 20
131.5058516701
 30
0.0
 11
178.3019202432
 21
131.5058516701
 31
0.0
  0
LINE
  5
28B
330
1F
100
AcDbEntity
  8
0
  6
Continuous
 62
     7
100
AcDbLine
 10
178.4519202432
 20
131.5058516701
 30
0.0
 11
178.4519202432
 21
131.1058516701
 31
0.0
  0
LINE
  5
28C
330
1F
100
AcDbEntity
  8
0
  6
Continuous
 62
     7
100
AcDbLine
 10
178.4519202432
 20
133.8558516701
 30
0.0
 11
178.3019202432
 21
133.8558516701
 31
0.0
  0
LINE
  5
28D
330
1F
100
AcDbEntity
  8
0
  6
Continuous
 62
     7
100
AcDbLine
 10
178.4519202432
 20
133.8558516701
 30
0.0
 11
178.4519202432
 21
134.3071337214
 31
0.0
  0
LINE
  5
28E
330
1F
100
AcDbEntity
  8
0
  6
Continuous
 62
     7
100
AcDbLine
 10
175.8019202432
 20
87.4296690727
 30
0.0
 11
175.8019202432
 21
89.4296690727
 31
0.0
  0
LINE
  5
28F
330
1F
100
AcDbEntity
  8
0
  6
Continuous
 62
     7
100
AcDbLine
 10
175.8019202432
 20
89.4296690727
 30
0.0
 11
175.8019202432
 21
93.9252865996
 31
0.0
  0
LINE
  5
290
330
1F
100
AcDbEntity
  8
0
  6
Continuous
 62
     7
100
AcDbLine
 10
175.8019202432
 20
82.9340515458
 30
0.0
 11
175.8019202432
 21
87.4296690727
 31
0.0
  0
LINE
  5
291
330
1F
100
AcDbEntity
  8
0
  6
Continuous
 62
     7
100
AcDbLine
 10
178.4519202432
 20
128.6058516701
 30
0.0
 11
178.3019202432
 21
128.6058516701
 31
0.0
  0
LINE
  5
292
330
1F
100
AcDbEntity
  8
0
  6
Continuous
 62
     7
100
AcDbLine
 10
178.4519202432
 20
129.0058516701
 30
0.0
 11
178.4519202432
 21
128.6058516701
 31
0.0
  0
LINE
  5
293
330
1F
100
AcDbEntity
  8
0
  6
Continuous
 62
     7
100
AcDbLine
 10
176.5019202432
 20
132.6796690727
 30
0.0
 11
176.8019202432
 21
132.6796690727
 31
0.0
  0
LINE
  5
294
330
1F
100
AcDbEntity
  8
0
  6
Continuous
 62
     7
100
AcDbLine
 10
176.5019202432
 20
132.6796690727
 30
0.0
 11
176.5019202432
 21
133.4296690727
 31
0.0
  0
LINE
  5
295
330
1F
100
AcDbEntity
  8
0
  6
Continuous
 62
     7
100
AcDbLine
 10
176.5019202432
 20
134.6796690727
 30
0.0
 11
176.8019202432
 21
134.6796690727
 31
0.0
  0
LINE
  5
296
330
1F
100
AcDbEntity
  8
0
  6
Continuous
 62
     7
100
AcDbLine
 10
176.5019202432
 20
133.9296690727
 30
0.0
 11
176.5019202432
 21
134.6796690727
 31
0.0
  0
LINE
  5
297
330
1F
100
AcDbEntity
  8
0
  6
Continuous
 62
     7
100
AcDbLine
 10
178.4519202432
 20
133.3481593624
 30
0.0
 11
178.4519202432
 21
133.5173901316
 31
0.0
  0
LINE
  5
298
330
1F
100
AcDbEntity
  8
0
  6
Continuous
 62
     7
100
AcDbLine
 10
178.4519202432
 20
133.3481593624
 30
0.0
 11
178.3019202432
 21
133.3481593624
 31
0.0
  0
LINE
  5
299
330
1F
100
AcDbEntity
  8
0
  6
Continuous
 62
     7
100
AcDbLine
 10
178.4519202432
 20
133.5173901316
 30
0.0
 11
178.3019202432
 21
133.5173901316
 31
0.0
  0
SPLINE
  5
29A
330
1F
100
AcDbEntity
  8
0
  6
Continuous
 62
     7
100
AcDbSpline
210
0.0
220
0.0
230
1.0
 70
    24
 71
     3
 72
    15
 73
    11
 74
     0
 42
0.00000001
 43
0.00000001
 40
0.0
 40
0.0
 40
0.0
 40
0.0
 40
0.1392449771444393
 40
0.2657021051015593
 40
0.3809368040136037
 40
0.4893585640324664
 40
0.6001902458324825
 40
0.720743413981996
 40
0.8531871022797538
 40
1.0
 40
1.0
 40
1.0
 40
1.0
 10
178.4519202431639
 20
133.5173901316289
 30
0.0
 10
178.4519202431639
 20
133.5251507720397
 30
0.0
 10
178.4519202431639
 20
133.5399593384697
 30
0.0
 10
178.4519202431639
 20
133.5684859657012
 30
0.0
 10
178.4519202431639
 20
133.6020548434087
 30
0.0
 10
178.4519202431639
 20
133.6400988177629
 30
0.0
 10
178.4519202431639
 20
133.6848501447042
 30
0.0
 10
178.4519202431639
 20
133.7355530965839
 30
0.0
 10
178.4519202431639
 20
133.7935046442493
 30
0.0
 10
178.4519202431639
 20
133.8343684428768
 30
0.0
 10
178.4519202431639
 20
133.8558516700904
 30
0.0
  0
LINE
  5
29B
330
1F
100
AcDbEntity
  8
0
  6
Continuous
 62
     7
100
AcDbLine
 10
178.4519202432
 20
136.0558516701
 30
0.0
 11
178.3019202432
 21
136.0558516701
 31
0.0
  0
LINE
  5
29C
330
1F
100
AcDbEntity
  8
0
  6
Continuous
 62
     7
100
AcDbLine
 10
176.5019202432
 20
111.6796690727
 30
0.0
 11
176.8019202432
 21
111.6796690727
 31
0.0
  0
LINE
  5
29D
330
1F
100
AcDbEntity
  8
0
  6
Continuous
 62
     7
100
AcDbLine
 10
176.5019202432
 20
111.6796690727
 30
0.0
 11
176.5019202432
 21
132.6796690727
 31
0.0
  0
LINE
  5
29E
330
1F
100
AcDbEntity
  8
0
  6
Continuous
 62
     7
100
AcDbLine
 10
176.5019202432
 20
134.6796690727
 30
0.0
 11
176.5019202432
 21
135.1796690727
 31
0.0
  0
LINE
  5
29F
330
1F
100
AcDbEntity
  8
0
  6
Continuous
 62
     7
100
AcDbLine
 10
176.5019202432
 20
95.4296690727
 30
0.0
 11
176.8019202432
 21
95.4296690727
 31
0.0
  0
LINE
  5
2A0
330
1F
100
AcDbEntity
  8
0
  6
Continuous
 62
     7
100
AcDbLine
 10
176.5019202432
 20
95.4296690727
 30
0.0
 11
176.5019202432
 21
98.4296690727
 31
0.0
  0
LINE
  5
2A1
330
1F
100
AcDbEntity
  8
0
  6
Continuous
 62
     7
100
AcDbLine
 10
176.5019202432
 20
98.4296690727
 30
0.0
 11
176.8019202432
 21
98.4296690727
 31
0.0
  0
LINE
  5
2A2
330
1F
100
AcDbEntity
  8
0
  6
Continuous
 62
     7
100
AcDbLine
 10
176.5019202432
 20
78.4296690727
 30
0.0
 11
176.8019202432
 21
78.4296690727
 31
0.0
  0
LINE
  5
2A3
330
1F
100
AcDbEntity
  8
0
  6
Continuous
 62
     7
100
AcDbLine
 10
176.5019202432
 20
78.4296690727
 30
0.0
 11
176.5019202432
 21
81.4296690727
 31
0.0
  0
LINE
  5
2A4
330
1F
100
AcDbEntity
  8
0
  6
Continuous
 62
     7
100
AcDbLine
 10
176.5019202432
 20
81.4296690727
 30
0.0
 11
176.8019202432
 21
81.4296690727
 31
0.0
  0
LINE
  5
2A5
330
1F
100
AcDbEntity
  8
0
  6
Continuous
 62
     7
100
AcDbLine
 10
176.5019202432
 20
35.1796690727
 30
0.0
 11
176.5019202432
 21
65.1796690727
 31
0.0
  0
LINE
  5
2A6
330
1F
100
AcDbEntity
  8
0
  6
Continuous
 62
     7
100
AcDbLine
 10
176.5019202432
 20
65.1796690727
 30
0.0
 11
176.8019202432
 21
65.1796690727
 31
0.0
  0
LINE
  5
2A7
330
1F
100
AcDbEntity
  8
0
  6
Continuous
 62
     7
100
AcDbLine
 10
176.5019202432
 20
35.1796690727
 30
0.0
 11
176.8019202432
 21
35.1796690727
 31
0.0
  0
LINE
  5
2A8
330
1F
100
AcDbEntity
  8
0
  6
Continuous
 62
     7
100
AcDbLine
 10
178.4519202432
 20
137.0276465419
 30
0.0
 11
178.3019202432
 21
137.0276465419
 31
0.0
  0
LINE
  5
2A9
330
1F
100
AcDbEntity
  8
0
  6
Continuous
 62
     7
100
AcDbLine
 10
187.1106464464
 20
70.9296690727
 30
0.0
 11
186.3019202432
 21
70.9296690727
 31
0.0
  0
LINE
  5
2AA
330
1F
100
AcDbEntity
  8
0
  6
Continuous
 62
     7
100
AcDbLine
 10
187.1106464464
 20
105.9296690727
 30
0.0
 11
186.3019202432
 21
105.9296690727
 31
0.0
  0
LINE
  5
2AB
330
1F
100
AcDbEntity
  8
0
  6
Continuous
 62
     7
100
AcDbLine
 10
187.1106464464
 20
103.4437854411
 30
0.0
 11
186.3019202432
 21
103.4296690727
 31
0.0
  0
LINE
  5
2AC
330
1F
100
AcDbEntity
  8
0
  6
Continuous
 62
     7
100
AcDbLine
 10
186.3019202432
 20
73.4296690727
 30
0.0
 11
187.1106464464
 21
73.4155527043
 31
0.0
  0
LINE
  5
2AD
330
1F
100
AcDbEntity
  8
0
  6
Continuous
 62
     7
100
AcDbLine
 10
187.6019202432
 20
105.9296690727
 30
0.0
 11
187.6019202432
 21
103.9437092887
 31
0.0
  0
LINE
  5
2AE
330
1F
100
AcDbEntity
  8
0
  6
Continuous
 62
     7
100
AcDbLine
 10
187.1106464464
 20
105.9296690727
 30
0.0
 11
187.6019202432
 21
105.9296690727
 31
0.0
  0
LINE
  5
2AF
330
1F
100
AcDbEntity
  8
0
  6
Continuous
 62
     7
100
AcDbLine
 10
187.6019202432
 20
72.9156288567
 30
0.0
 11
187.6019202432
 21
70.9296690727
 31
0.0
  0
LINE
  5
2B0
330
1F
100
AcDbEntity
  8
0
  6
Continuous
 62
     7
100
AcDbLine
 10
187.6019202432
 20
70.9296690727
 30
0.0
 11
187.1106464464
 21
70.9296690727
 31
0.0
  0
ARC
  5
2B1
330
1F
100
AcDbEntity
  8
0
  6
Continuous
 62
     7
100
AcDbCircle
 10
187.1019202432
 20
72.9156288567
 30
0.0
 40
0.5000000000000063
100
AcDbArc
 50
0.0
 51
89.0
  0
ARC
  5
2B2
330
1F
100
AcDbEntity
  8
0
  6
Continuous
 62
     7
100
AcDbCircle
 10
187.1019202432
 20
103.9437092887
 30
0.0
 40
0.5000000000000063
100
AcDbArc
 50
271.0
 51
0.0
  0
LINE
  5
2B3
330
1F
100
AcDbEntity
  8
0
  6
Continuous
 62
     7
100
AcDbLine
 10
178.4519202432
 20
132.8558516701
 30
0.0
 11
178.3019202432
 21
132.8558516701
 31
0.0
  0
LINE
  5
2B4
330
1F
100
AcDbEntity
  8
0
  6
Continuous
 62
     7
100
AcDbLine
 10
178.4519202432
 20
132.8558516701
 30
0.0
 11
178.4519202432
 21
131.5058516701
 31
0.0
  0
LINE
  5
2B5
330
1F
100
AcDbEntity
  8
0
  6
Continuous
 62
     7
100
AcDbLine
 10
178.4519202432
 20
127.2558516701
 30
0.0
 11
178.3019202432
 21
127.2558516701
 31
0.0
  0
LINE
  5
2B6
330
1F
100
AcDbEntity
  8
0
  6
Continuous
 62
     7
100
AcDbLine
 10
178.4519202432
 20
128.6058516701
 30
0.0
 11
178.4519202432
 21
127.2558516701
 31
0.0
  0
LINE
  5
2B7
330
1F
100
AcDbEntity
  8
0
  6
Continuous
 62
     7
100
AcDbLine
 10
195.8019202432
 20
20.9987311278
 30
0.0
 11
195.8019202432
 21
20.8779672697
 31
0.0
  0
SPLINE
  5
2B8
330
1F
100
AcDbEntity
  8
0
  6
Continuous
 62
     7
100
AcDbSpline
210
0.0
220
0.0
230
1.0
 70
    24
 71
     3
 72
    11
 73
     7
 74
     0
 42
0.00000001
 43
0.00000001
 40
0.0
 40
0.0
 40
0.0
 40
0.0
 40
0.1131383423133218
 40
0.4522879408986223
 40
0.7805436952739052
 40
1.0
 40
1.0
 40
1.0
 40
1.0
 10
195.8019202431639
 20
156.0944847523634
 30
0.0
 10
195.8019202431639
 20
156.0890385599003
 30
0.0
 10
195.8019202431639
 20
156.0672665670947
 30
0.0
 10
195.8019202431639
 20
155.9987162634032
 30
0.0
 10
195.8019202431639
 20
155.9113806474491
 30
0.0
 10
195.8019202431639
 20
155.8530027200009
 30
0.0
 10
195.8019202431639
 20
155.8296119546845
 30
0.0
  0
LINE
  5
2B9
330
1F
100
AcDbEntity
  8
0
  6
Continuous
 62
     7
100
AcDbLine
 10
195.8019202432
 20
23.7890589947
 30
0.0
 11
195.8019202432
 21
23.5483324339
 31
0.0
  0
LINE
  5
2BA
330
1F
100
AcDbEntity
  8
0
  6
Continuous
 62
     7
100
AcDbLine
 10
195.8019202432
 20
23.846567715
 30
0.0
 11
195.8019202432
 21
23.7890589947
 31
0.0
  0
LINE
  5
2BB
330
1F
100
AcDbEntity
  8
0
  6
Continuous
 62
     7
100
AcDbLine
 10
176.8019202432
 20
110.9296690727
 30
0.0
 11
176.8019202432
 21
99.178116736
 31
0.0
  0
LINE
  5
2BC
330
1F
100
AcDbEntity
  8
0
  6
Continuous
 62
     7
100
AcDbLine
 10
176.8019202432
 20
77.6812214094
 30
0.0
 11
176.8019202432
 21
65.9296690727
 31
0.0
  0
LINE
  5
2BD
330
1F
100
AcDbEntity
  8
ОСНОВНОЙ
370
    35
100
AcDbLine
 10
195.8019202432
 20
141.8465006005
 30
0.0
 11
195.8019202432
 21
154.2244491613
 31
0.0
  0
HATCH
  5
2BE
330
1F
100
AcDbEntity
  8
ОСНОВНОЙ
  6
Continuous
370
    18
100
AcDbHatch
 10
0.0
 20
0.0
 30
0.0
210
0.0
220
0.0
230
1.0
  2
ANSI37
 70
     0
 71
     0
 91
        1
 92
        0
 93
       17
 72
     1
 10
193.8019202431639
 20
157.0296690726981
 11
193.8019202431639
 21
157.9296690726981
 72
     1
 10
193.8019202431639
 20
157.9296690726981
 11
177.2975569754148
 21
157.7856376764898
 72
     2
 10
177.3019202431639
 20
157.2856567149577
 40
0.5
 50
90.50000000000132
 51
180.0
 73
     1
 72
     1
 10
176.8019202431639
 20
157.2856567149577
 11
176.8019202431639
 21
138.6796690726979
 72
     1
 10
176.8019202431639
 20
138.6796690726979
 11
176.5019202431639
 21
138.6796690726979
 72
     1
 10
176.5019202431639
 20
138.6796690726979
 11
176.5019202431639
 21
135.1796690726979
 72
     1
 10
176.5019202431639
 20
135.1796690726979
 11
176.8019202431639
 21
135.1796690726979
 72
     1
 10
176.8019202431639
 20
135.1796690726979
 11
176.8019202431639
 21
133.9296690726979
 72
     1
 10
176.8019202431639
 20
133.9296690726979
 11
176.5019202431639
 21
133.9296690726979
 72
     1
 10
176.5019202431639
 20
133.9296690726979
 11
176.5019202431639
 21
133.4296690726979
 72
     1
 10
176.5019202431639
 20
133.4296690726979
 11
176.8019202431639
 21
133.4296690726979
 72
     1
 10
176.8019202431639
 20
133.4296690726979
 11
176.8019202431639
 21
128.4034864753058
 72
     1
 10
176.8019202431639
 20
128.4034864753058
 11
178.3019202431639
 21
128.4296690726981
 72
     1
 10
178.3019202431639
 20
128.4296690726981
 11
178.3019202431639
 21
155.994334080847
 72
     1
 10
178.3019202431639
 20
155.994334080847
 11
195.8019202431639
 21
156.1470542671853
 72
     1
 10
195.8019202431639
 20
156.1470542671853
 11
195.8019202431639
 21
157.0122153371166
 72
     1
 10
195.8019202431639
 20
157.0122153371166
 11
193.8019202431639
 21
157.0296690726981
 97
        0
 75
     0
 76
     1
 52
0.0
 41
1.0
 77
     0
 78
     2
 53
45.0
 43
0.0
 44
0.0
 45
-2.245064030267288
 46
2.245064030267288
 79
     0
 53
135.0
 43
0.0
 44
0.0
 45
-2.245064030267288
 46
-2.245064030267288
 79
     0
 98
        1
 10
0.0
 20
0.0
  0
HATCH
  5
2BF
330
1F
100
AcDbEntity
  8
ОСНОВНОЙ
  6
Continuous
370
    18
100
AcDbHatch
 10
0.0
 20
0.0
 30
0.0
210
0.0
220
0.0
230
1.0
  2
ANSI37
 70
     0
 71
     0
 91
        1
 92
        0
 93
       13
 72
     1
 10
195.8019202431639
 20
19.8471228082796
 11
195.8019202431639
 21
20.7122838782109
 72
     1
 10
195.8019202431639
 20
20.7122838782109
 11
178.3019202431639
 21
20.86500406454918
 72
     1
 10
178.3019202431639
 20
20.86500406454918
 11
178.3019202431639
 21
48.42966907269809
 72
     1
 10
178.3019202431639
 20
48.42966907269809
 11
176.8019202431639
 21
48.45585167009042
 72
     1
 10
176.8019202431639
 20
48.45585167009042
 11
176.8019202431639
 21
27.4296690726983
 72
     1
 10
176.8019202431639
 20
27.4296690726983
 11
176.5019202431639
 21
27.4296690726983
 72
     1
 10
176.5019202431639
 20
27.4296690726983
 11
176.5019202431639
 21
26.9296690726983
 72
     1
 10
176.5019202431639
 20
26.9296690726983
 11
176.8019202431639
 21
26.9296690726983
 72
     1
 10
176.8019202431639
 20
26.9296690726983
 11
176.8019202431639
 21
19.57368143043849
 72
     2
 10
177.3019202431639
 20
19.57368143043849
 40
0.5
 50
180.0
 51
269.4999999999995
 73
     1
 72
     1
 10
177.2975569754148
 20
19.0737004689064
 11
193.8019202431639
 21
18.92966907269809
 72
     1
 10
193.8019202431639
 20
18.92966907269809
 11
193.8019202431639
 21
19.82966907269811
 72
     1
 10
193.8019202431639
 20
19.82966907269811
 11
195.8019202431639
 21
19.8471228082796
 97
        0
 75
     0
 76
     1
 52
0.0
 41
1.0
 77
     0
 78
     2
 53
45.0
 43
0.0
 44
0.0
 45
-2.245064030267288
 46
2.245064030267288
 79
     0
 53
135.0
 43
0.0
 44
0.0
 45
-2.245064030267288
 46
-2.245064030267288
 79
     0
 98
        1
 10
0.0
 20
0.0
  0
HATCH
  5
2C0
330
1F
100
AcDbEntity
  8
ОСНОВНОЙ
  6
Continuous
370
    18
100
AcDbHatch
 10
0.0
 20
0.0
 30
0.0
210
0.0
220
0.0
230
1.0
  2
ANSI37
 70
     0
 71
     0
 91
        1
 92
        0
 93
        4
 72
     1
 10
176.8019202431639
 20
65.92966907269809
 11
176.8019202431639
 21
58.40348647530577
 72
     1
 10
176.8019202431639
 20
58.40348647530577
 11
178.3019202431639
 21
58.4296690726981
 72
     1
 10
178.3019202431639
 20
58.4296690726981
 11
178.3019202431639
 21
65.95585167009044
 72
     1
 10
178.3019202431639
 20
65.95585167009044
 11
176.8019202431639
 21
65.92966907269809
 97
        0
 75
     0
 76
     1
 52
0.0
 41
1.0
 77
     0
 78
     2
 53
45.0
 43
0.0
 44
0.0
 45
-2.245064030267288
 46
2.245064030267288
 79
     0
 53
135.0
 43
0.0
 44
0.0
 45
-2.245064030267288
 46
-2.245064030267288
 79
     0
 98
        1
 10
0.0
 20
0.0
  0
HATCH
  5
2C1
330
1F
100
AcDbEntity
  8
ОСНОВНОЙ
  6
Continuous
370
    18
100
AcDbHatch
 10
0.0
 20
0.0
 30
0.0
210
0.0
220
0.0
230
1.0
  2
ANSI37
 70
     0
 71
     0
 91
        1
 92
        0
 93
        4
 72
     1
 10
178.3019202431639
 20
110.9034864753058
 11
178.3019202431639
 21
118.4296690726981
 72
     1
 10
178.3019202431639
 20
118.4296690726981
 11
176.8019202431639
 21
118.4558516700904
 72
     1
 10
176.8019202431639
 20
118.4558516700904
 11
176.8019202431639
 21
110.9296690726981
 72
     1
 10
176.8019202431639
 20
110.9296690726981
 11
178.3019202431639
 21
110.9034864753058
 97
        0
 75
     0
 76
     1
 52
0.0
 41
1.0
 77
     0
 78
     2
 53
45.0
 43
0.0
 44
0.0
 45
-2.245064030267288
 46
2.245064030267288
 79
     0
 53
135.0
 43
0.0
 44
0.0
 45
-2.245064030267288
 46
-2.245064030267288
 79
     0
 98
        1
 10
0.0
 20
0.0
  0
HATCH
  5
2C2
330
1F
100
AcDbEntity
  8
ОСНОВНОЙ
  6
Continuous
370
    18
100
AcDbHatch
 10
0.0
 20
0.0
 30
0.0
210
0.0
220
0.0
230
1.0
  2
ANSI37
 70
     0
 71
     0
 91
        1
 92
        0
 93
       12
 72
     2
 10
183.5019202431639
 20
73.81256780963515
 40
2.8
 50
26.76550057675728
 51
89.00000000000044
 73
     1
 72
     1
 10
183.5507869811883
 20
76.61214135607305
 11
179.0879583180141
 21
76.69004032015225
 72
     2
 10
179.1019202431639
 20
77.48991847627737
 40
0.8
 50
91.00000000000014
 51
180.0
 73
     0
 72
     1
 10
178.3019202431639
 20
77.48991847627737
 11
178.3019202431639
 21
83.42966907269809
 72
     1
 10
178.3019202431639
 20
83.42966907269809
 11
176.8019202431639
 21
83.45585167009042
 72
     1
 10
176.8019202431639
 20
83.45585167009042
 11
176.8019202431639
 21
77.68122140942205
 72
     2
 10
179.6019202431639
 20
77.68122140942205
 40
2.8
 50
180.0
 51
269.0000000000013
 73
     1
 72
     1
 10
179.5530535051396
 20
74.88164786298415
 11
183.96130821257
 21
74.80470149084586
 72
     2
 10
183.9473462874201
 20
74.00482333472074
 40
0.8
 50
271.000000000001
 51
350.0000000000023
 73
     0
 72
     1
 10
184.7351924898299
 20
74.14374187685426
 11
185.3019202431639
 21
70.9296690726981
 72
     1
 10
185.3019202431639
 20
70.9296690726981
 11
186.0019202431639
 21
70.9296690726981
 72
     1
 10
186.0019202431639
 20
70.9296690726981
 11
186.0019202431639
 21
75.07351983092705
 97
        0
 75
     0
 76
     1
 52
0.0
 41
1.0
 77
     0
 78
     2
 53
45.0
 43
0.0
 44
0.0
 45
-2.245064030267288
 46
2.245064030267288
 79
     0
 53
135.0
 43
0.0
 44
0.0
 45
-2.245064030267288
 46
-2.245064030267288
 79
     0
 98
        1
 10
0.0
 20
0.0
  0
HATCH
  5
2C3
330
1F
100
AcDbEntity
  8
ОСНОВНОЙ
  6
Continuous
370
    18
100
AcDbHatch
 10
0.0
 20
0.0
 30
0.0
210
0.0
220
0.0
230
1.0
  2
ANSI37
 70
     0
 71
     0
 91
        1
 92
        0
 93
       12
 72
     1
 10
185.3019202431639
 20
105.9296690726981
 11
184.7351924898299
 21
102.7155962685419
 72
     2
 10
183.9473462874201
 20
102.8545148106755
 40
0.8
 50
9.999999999999398
 51
89.00000000000189
 73
     0
 72
     1
 10
183.9613082125699
 20
102.0546366545504
 11
179.5530535051396
 21
101.977690282412
 72
     2
 10
179.6019202431639
 20
99.17811673597416
 40
2.8
 50
90.99999999999957
 51
180.0
 73
     1
 72
     1
 10
176.8019202431639
 20
99.17811673597416
 11
176.8019202431639
 21
93.40348647530577
 72
     1
 10
176.8019202431639
 20
93.40348647530577
 11
178.3019202431639
 21
93.4296690726981
 72
     1
 10
178.3019202431639
 20
93.4296690726981
 11
178.3019202431639
 21
99.36941966911883
 72
     2
 10
179.1019202431639
 20
99.36941966911883
 40
0.8
 50
180.0
 51
269.0000000000007
 73
     0
 72
     1
 10
179.0879583180141
 20
100.1692978252439
 11
183.5507869811883
 21
100.2471967893231
 72
     2
 10
183.5019202431639
 20
103.046770335761
 40
2.8
 50
271.0000000000003
 51
333.2344994232435
 73
     1
 72
     1
 10
186.0019202431639
 20
101.7858183144691
 11
186.0019202431639
 21
105.9296690726981
 72
     1
 10
186.0019202431639
 20
105.9296690726981
 11
185.3019202431639
 21
105.9296690726981
 97
        0
 75
     0
 76
     1
 52
0.0
 41
1.0
 77
     0
 78
     2
 53
45.0
 43
0.0
 44
0.0
 45
-2.245064030267288
 46
2.245064030267288
 79
     0
 53
135.0
 43
0.0
 44
0.0
 45
-2.245064030267288
 46
-2.245064030267288
 79
     0
 98
        1
 10
0.0
 20
0.0
  0
HATCH
  5
2C4
330
1F
100
AcDbEntity
  8
ОСНОВНОЙ
  6
Continuous
370
    18
100
AcDbHatch
 10
0.0
 20
0.0
 30
0.0
210
0.0
220
0.0
230
1.0
  2
ANSI37
 70
     0
 71
     0
 91
        1
 92
        0
 93
       14
 72
     2
 10
231.8019202431639
 20
147.2648533249867
 40
10.0
 50
0.0
 51
88.99999999999986
 73
     1
 72
     1
 10
231.9764443075368
 20
157.2633302765506
 11
193.8019202431639
 21
157.9296690726981
 72
     1
 10
193.8019202431639
 20
157.9296690726981
 11
193.8019202431639
 21
157.0296690726981
 72
     1
 10
193.8019202431639
 20
157.0296690726981
 11
195.8019202431639
 21
157.0296690726981
 72
     1
 10
195.8019202431639
 20
157.0296690726981
 11
195.8019202431639
 21
156.0944847523634
 72
     1
 10
195.8019202431639
 20
156.0944847523634
 11
231.9450299759496
 21
155.4636044252692
 72
     2
 10
231.8019202431639
 20
147.2648533249867
 40
8.200000000000001
 50
271.0000000000007
 51
360.0000000000008
 73
     0
 72
     1
 10
240.0019202431639
 20
147.2648533249867
 11
240.0019202431639
 21
139.0293914348548
 72
     1
 10
240.0019202431639
 20
139.0293914348548
 11
232.8019202431639
 21
138.9037149673716
 72
     1
 10
232.8019202431639
 20
138.9037149673716
 11
232.8019202431639
 21
111.9296690726981
 72
     1
 10
232.8019202431639
 20
111.9296690726981
 11
234.3019202431639
 21
111.9296690726981
 72
     1
 10
234.3019202431639
 20
111.9296690726981
 11
234.3019202431639
 21
137.4296690726981
 72
     1
 10
234.3019202431639
 20
137.4296690726981
 11
241.8019202431639
 21
137.5605820596597
 72
     1
 10
241.8019202431639
 20
137.5605820596597
 11
241.8019202431639
 21
147.2648533249867
 97
        0
 75
     0
 76
     1
 52
0.0
 41
1.0
 77
     0
 78
     2
 53
45.0
 43
0.0
 44
0.0
 45
-2.245064030267288
 46
2.245064030267288
 79
     0
 53
135.0
 43
0.0
 44
0.0
 45
-2.245064030267288
 46
-2.245064030267288
 79
     0
 98
        1
 10
0.0
 20
0.0
  0
HATCH
  5
2C5
330
1F
100
AcDbEntity
  8
ОСНОВНОЙ
  6
Continuous
370
    18
100
AcDbHatch
 10
0.0
 20
0.0
 30
0.0
210
0.0
220
0.0
230
1.0
  2
ANSI37
 70
     0
 71
     0
 91
        1
 92
        0
 93
       14
 72
     1
 10
241.8019202431639
 20
39.29875608573646
 11
234.3019202431639
 21
39.42966907269809
 72
     1
 10
234.3019202431639
 20
39.42966907269809
 11
234.3019202431639
 21
64.92966907269809
 72
     1
 10
234.3019202431639
 20
64.92966907269809
 11
232.8019202431639
 21
64.92966907269809
 72
     1
 10
232.8019202431639
 20
64.92966907269809
 11
232.8019202431639
 21
37.95562317802455
 72
     1
 10
232.8019202431639
 20
37.95562317802455
 11
240.0019202431639
 21
37.82994671054139
 72
     1
 10
240.0019202431639
 20
37.82994671054139
 11
240.0019202431639
 21
29.59448482040944
 72
     2
 10
231.8019202431639
 20
29.59448482040944
 40
8.200000000000001
 50
0.0
 51
89.00000000000006
 73
     0
 72
     1
 10
231.9450299759496
 20
21.39573372012701
 11
195.8019202431639
 21
20.76485339303355
 72
     1
 10
195.8019202431639
 20
20.76485339303355
 11
195.8019202431639
 21
19.82966907269806
 72
     1
 10
195.8019202431639
 20
19.82966907269806
 11
193.8019202431639
 21
19.82966907269808
 72
     1
 10
193.8019202431639
 20
19.82966907269808
 11
193.8019202431639
 21
18.92966907269808
 72
     1
 10
193.8019202431639
 20
18.92966907269808
 11
231.9764443075368
 21
19.59600786884551
 72
     2
 10
231.8019202431639
 20
29.59448482040944
 40
10.0
 50
271.000000000001
 51
360.0000000000008
 73
     1
 72
     1
 10
241.8019202431639
 20
29.59448482040944
 11
241.8019202431639
 21
39.29875608573646
 97
        0
 75
     0
 76
     1
 52
0.0
 41
1.0
 77
     0
 78
     2
 53
45.0
 43
0.0
 44
0.0
 45
-2.245064030267288
 46
2.245064030267288
 79
     0
 53
135.0
 43
0.0
 44
0.0
 45
-2.245064030267288
 46
-2.245064030267288
 79
     0
 98
        1
 10
0.0
 20
0.0
  0
HATCH
  5
2C6
330
1F
100
AcDbEntity
  8
ОСНОВНОЙ
  6
Continuous
370
    18
100
AcDbHatch
 10
0.0
 20
0.0
 30
0.0
210
0.0
220
0.0
230
1.0
  2
ANSI37
 70
     0
 71
     0
 91
        1
 92
        0
 93
       27
 72
     1
 10
251.9415394946622
 20
42.37573044761094
 11
251.9415394946622
 21
41.03756977204203
 72
     2
 10
251.8019202431639
 20
49.03635133329315
 40
8.0
 50
271.0000000000006
 51
282.6412487024685
 73
     1
 72
     2
 10
253.443263535667
 20
41.71815536733575
 40
0.5
 50
282.6412487024655
 51
357.2526916780205
 73
     1
 72
     2
 10
254.9415394946622
 20
41.64625856144705
 40
1.0
 50
182.7473083219804
 51
269.4999999999995
 73
     0
 72
     1
 10
254.9328129591638
 20
42.64622048451122
 11
255.5078059328997
 21
42.65123837217362
 72
     2
 10
255.4816263264045
 20
45.65112414136613
 40
3.0
 50
270.5000000000016
 51
317.3868076240161
 73
     1
 72
     2
 10
251.8019202431639
 20
49.03635133329315
 40
8.0
 50
317.3868076240157
 51
360.0000000000008
 73
     1
 72
     1
 10
259.8019202431639
 20
49.03635133329315
 11
259.8019202431639
 21
118.922986812103
 72
     2
 10
251.8019202431639
 20
118.922986812103
 40
8.0
 50
0.0
 51
89.00000000000027
 73
     1
 72
     1
 10
251.9415394946622
 20
126.9217683733541
 11
241.8019202431639
 21
127.0987560857365
 72
     1
 10
241.8019202431639
 20
127.0987560857365
 11
241.8019202431639
 21
133.1506642963894
 72
     2
 10
238.8019202431639
 20
133.1506642963894
 40
3.0
 50
0.0
 51
86.5986455482281
 73
     1
 72
     2
 10
239.0095751437378
 20
136.6444987862111
 40
0.5
 50
93.40135445177307
 51
122.6366790768775
 73
     0
 72
     1
 10
238.7399201497996
 20
136.2234451266329
 11
238.0519202431639
 21
136.6640602511734
 72
     2
 10
238.0519202431639
 20
135.1640602511734
 40
1.499999999999996
 50
90.0
 51
125.3648224091357
 73
     1
 72
     2
 10
239.4988717517456
 20
133.1253520003897
 40
4.000000000000007
 50
125.364822409135
 51
140.0733986726671
 73
     1
 72
     2
 10
236.9229997008617
 20
135.7838570293644
 40
0.5
 50
190.5191482141903
 51
268.9999999999991
 73
     1
 72
     1
 10
236.914273497643
 20
135.2839331817862
 11
239.0193726496012
 21
135.2471885394084
 72
     2
 10
239.0019202431639
 20
134.247340844252
 40
0.9999999999999989
 50
271.0000000000026
 51
360.0000000000008
 73
     0
 72
     1
 10
240.0019202431639
 20
134.247340844252
 11
240.0019202431639
 21
125.3299010121282
 72
     1
 10
240.0019202431639
 20
125.3299010121282
 11
251.9101251630751
 21
125.1220425220726
 72
     2
 10
251.8019202431639
 20
118.922986812103
 40
6.200000000000001
 50
271.0000000000007
 51
360.0000000000008
 73
     0
 72
     1
 10
258.0019202431639
 20
118.922986812103
 11
258.0019202431639
 21
49.03635133329315
 72
     2
 10
251.8019202431639
 20
49.03635133329315
 40
6.200000000000001
 50
0.0
 51
49.88743529792293
 73
     0
 72
     1
 10
255.7965266629649
 20
44.29471453247374
 11
234.3019202431639
 21
44.10713394403374
 72
     1
 10
234.3019202431639
 20
44.10713394403374
 11
234.3019202431639
 21
42.52966907269808
 72
     1
 10
234.3019202431639
 20
42.52966907269808
 11
251.9415394946622
 21
42.37573044761094
 97
        0
 75
     0
 76
     1
 52
0.0
 41
1.0
 77
     0
 78
     2
 53
45.0
 43
0.0
 44
0.0
 45
-2.245064030267288
 46
2.245064030267288
 79
     0
 53
135.0
 43
0.0
 44
0.0
 45
-2.245064030267288
 46
-2.245064030267288
 79
     0
 98
        1
 10
0.0
 20
0.0
  0
DIMENSION
  5
2C7
330
1F
100
AcDbEntity
  8
ОСНОВНОЙ
100
AcDbDimension
  2
_D_2
 10
186.3019202432
 20
61.4285983107
 30
0.0
 11
182.3019202432
 21
61.4285983107
 31
0.0
 70
   160
  1
<>
 71
     2
 42
-1.0
  3
SLDDIMSTYLE1
100
AcDbAlignedDimension
 13
178.3019202432
 23
58.4296690727
 33
0.0
 14
186.3019202432
 24
70.9296690727
 34
0.0
100
AcDbRotatedDimension
  0
DIMENSION
  5
2D3
330
1F
100
AcDbEntity
  8
ОСНОВНОЙ
100
AcDbDimension
  2
_D_3
 10
232.8019202432
 20
61.4285983107
 30
0.0
 11
209.5519202432
 21
61.4285983107
 31
0.0
 70
   160
  1
<>
 71
     2
 42
-1.0
  3
SLDDIMSTYLE0
100
AcDbAlignedDimension
 13
186.3019202432
 23
70.9296690727
 33
0.0
 14
232.8019202432
 24
37.955623178
 34
0.0
100
AcDbRotatedDimension
  0
DIMENSION
  5
2DC
330
1F
100
AcDbEntity
  8
ОСНОВНОЙ
100
AcDbDimension
  2
_D_4
 10
258.0019202432
 20
94.9434104598
 30
0.0
 11
222.1519202432
 21
94.9434104598
 31
0.0
 70
   160
  1
<>
 71
     2
 42
-1.0
  3
SLDDIMSTYLE0
100
AcDbAlignedDimension
 13
186.3019202432
 23
103.0467703358
 33
0.0
 14
258.0019202432
 24
118.9229868121
 34
0.0
100
AcDbRotatedDimension
  0
LINE
  5
2E5
330
1F
100
AcDbEntity
  8
0
  6
Continuous
 62
     7
100
AcDbLine
 10
130.940210691
 20
192.145
 30
0.0
 11
131.4911257323
 21
191.3582117818
 31
0.0
  0
LINE
  5
2E6
330
1F
100
AcDbEntity
  8
0
  6
Continuous
 62
     7
100
AcDbLine
 10
144.7897107261
 20
191.3582117818
 30
0.0
 11
145.3406257674
 21
192.145
 31
0.0
  0
ARC
  5
2E7
330
1F
100
AcDbEntity
  8
0
  6
Continuous
 62
     7
100
AcDbCircle
 10
144.3801347039
 20
191.645
 30
0.0
 40
0.5
100
AcDbArc
 50
270.0
 51
325.0
  0
ARC
  5
2E8
330
1F
100
AcDbEntity
  8
0
  6
Continuous
 62
     7
100
AcDbCircle
 10
131.9007017545
 20
191.645
 30
0.0
 40
0.5
100
AcDbArc
 50
215.0
 51
270.0
  0
LINE
  5
2E9
330
1F
100
AcDbEntity
  8
0
  6
Continuous
 62
     7
100
AcDbLine
 10
21.6404182292
 20
192.145
 30
0.0
 11
21.6448197408
 21
191.6406367323
 31
0.0
  0
ARC
  5
2EA
330
1F
100
AcDbEntity
  8
0
  6
Continuous
 62
     7
100
AcDbCircle
 10
22.1448007023
 20
191.645
 30
0.0
 40
0.5
100
AcDbArc
 50
180.5
 51
270.0
  0
LINE
  5
2EB
330
1F
100
AcDbEntity
  8
0
  6
Continuous
 62
     7
100
AcDbLine
 10
20.440210691
 20
192.145
 30
0.0
 11
20.9911257323
 21
191.3582117818
 31
0.0
  0
ARC
  5
2EC
330
1F
100
AcDbEntity
  8
0
  6
Continuous
 62
     7
100
AcDbCircle
 10
21.4007017545
 20
191.645
 30
0.0
 40
0.5000000000000011
100
AcDbArc
 50
215.0
 51
270.0
  0
LINE
  5
2ED
330
1F
100
AcDbEntity
  8
0
  6
Continuous
 62
     7
100
AcDbLine
 10
142.5825175299
 20
267.2846192515
 30
0.0
 11
142.7595052423
 21
257.145
 31
0.0
  0
LINE
  5
2EE
330
1F
100
AcDbEntity
  8
0
  6
Continuous
 62
     7
100
AcDbLine
 10
23.0213312162
 20
257.145
 30
0.0
 11
23.1983189286
 21
267.2846192515
 31
0.0
  0
ELLIPSE
  5
2EF
330
1F
100
AcDbEntity
  8
0
  6
Continuous
 62
     7
100
AcDbEllipse
 10
82.8904182292
 20
-1125.2058823707
 30
0.0
 11
0.0
 21
1443.600581612615
 31
0.0
210
0.0
220
0.0
230
1.0
 40
0.0151169134
 41
0.2668913433922912
 42
0.2923419070461047
  0
ELLIPSE
  5
2F0
330
1F
100
AcDbEntity
  8
0
  6
Continuous
 62
     7
100
AcDbEllipse
 10
82.8904182292
 20
-1125.2058823707
 30
0.0
 11
0.0
 21
1443.600581612615
 31
0.0
210
0.0
220
0.0
230
1.0
 40
0.0151169134
 41
5.990843400134311
 42
6.016293963788131
  0
LINE
  5
2F1
330
1F
100
AcDbEntity
  8
0
  6
Continuous
 62
     7
100
AcDbLine
 10
88.6458312129
 20
267.2846192515
 30
0.0
 11
77.1350052456
 21
267.2846192515
 31
0.0
  0
LINE
  5
2F2
330
1F
100
AcDbEntity
  8
0
  6
Continuous
 62
     7
100
AcDbLine
 10
23.8268710164
 20
275.145
 30
0.0
 11
141.953965442
 21
275.145
 31
0.0
  0
LINE
  5
2F3
330
1F
100
AcDbEntity
  8
0
  6
Continuous
 62
     7
100
AcDbLine
 10
142.4538892896
 20
274.6537262032
 30
0.0
 11
142.5825175299
 21
267.2846192515
 31
0.0
  0
ARC
  5
2F4
330
1F
100
AcDbEntity
  8
0
  6
Continuous
 62
     7
100
AcDbCircle
 10
141.953965442
 20
274.645
 30
0.0
 40
0.5000000000000342
100
AcDbArc
 50
1.0
 51
90.0
  0
LINE
  5
2F5
330
1F
100
AcDbEntity
  8
0
  6
Continuous
 62
     7
100
AcDbLine
 10
23.1983189286
 20
267.2846192515
 30
0.0
 11
23.3269471689
 21
274.6537262032
 31
0.0
  0
ARC
  5
2F6
330
1F
100
AcDbEntity
  8
0
  6
Continuous
 62
     7
100
AcDbCircle
 10
23.8268710164
 20
274.645
 30
0.0
 40
0.5
100
AcDbArc
 50
90.0
 51
179.0
  0
LINE
  5
2F7
330
1F
100
AcDbEntity
  8
0
  6
Continuous
 62
     7
100
AcDbLine
 10
146.3904182292
 20
209.145
 30
0.0
 11
145.8904943816
 21
209.145
 31
0.0
  0
LINE
  5
2F8
330
1F
100
AcDbEntity
  8
0
  6
Continuous
 62
     7
100
AcDbLine
 10
146.3642356318
 20
210.645
 30
0.0
 11
145.8643117842
 21
210.645
 31
0.0
  0
LINE
  5
2F9
330
1F
100
AcDbEntity
  8
0
  6
Continuous
 62
     7
100
AcDbLine
 10
146.3642356318
 20
210.645
 30
0.0
 11
146.3904182292
 21
209.145
 31
0.0
  0
LINE
  5
2FA
330
1F
100
AcDbEntity
  8
0
  6
Continuous
 62
     7
100
AcDbLine
 10
19.3904182292
 20
209.145
 30
0.0
 11
20.0567570254
 21
247.3195240644
 31
0.0
  0
LINE
  5
2FB
330
1F
100
AcDbEntity
  8
0
  6
Continuous
 62
     7
100
AcDbLine
 10
19.8903420768
 20
209.145
 30
0.0
 11
19.3904182292
 21
209.145
 31
0.0
  0
LINE
  5
2FC
330
1F
100
AcDbEntity
  8
0
  6
Continuous
 62
     7
100
AcDbLine
 10
143.2904639207
 20
210.645
 30
0.0
 11
145.8643117842
 21
210.645
 31
0.0
  0
LINE
  5
2FD
330
1F
100
AcDbEntity
  8
0
  6
Continuous
 62
     7
100
AcDbLine
 10
19.8903420768
 20
209.145
 30
0.0
 11
145.8904943816
 21
209.145
 31
0.0
  0
LINE
  5
2FE
330
1F
100
AcDbEntity
  8
0
  6
Continuous
 62
     7
100
AcDbLine
 10
142.9502620305
 20
247.3195240644
 30
0.0
 11
143.5904182292
 21
210.645
 31
0.0
  0
LINE
  5
2FF
330
1F
100
AcDbEntity
  8
0
  6
Continuous
 62
     7
100
AcDbLine
 10
142.8844851345
 20
251.0878799109
 30
0.0
 11
142.9502620305
 21
247.3195240644
 31
0.0
  0
LINE
  5
300
330
1F
100
AcDbEntity
  8
0
  6
Continuous
 62
     7
100
AcDbLine
 10
20.7196099773
 20
257.145
 30
0.0
 11
25.7904182292
 21
257.145
 31
0.0
  0
LINE
  5
301
330
1F
100
AcDbEntity
  8
0
  6
Continuous
 62
     7
100
AcDbLine
 10
25.7904182292
 20
257.1420758586
 30
0.0
 11
25.7904182292
 21
257.145
 31
0.0
  0
LINE
  5
302
330
1F
100
AcDbEntity
  8
0
  6
Continuous
 62
     7
100
AcDbLine
 10
25.7836330528
 20
257.1420758586
 30
0.0
 11
25.7904182292
 21
257.1420758586
 31
0.0
  0
SPLINE
  5
303
330
1F
100
AcDbEntity
  8
0
  6
Continuous
 62
     7
100
AcDbSpline
210
0.0
220
0.0
230
1.0
 70
     8
 71
     3
 72
    11
 73
     7
 74
     0
 42
0.00000001
 43
0.00000001
 40
0.0
 40
0.0
 40
0.0
 40
0.0
 40
0.274733171204615
 40
0.5509888175402045
 40
0.7896628800749876
 40
1.0
 40
1.0
 40
1.0
 40
1.0
 10
25.49705073260092
 20
255.3449999999999
 30
0.0
 10
25.23020004548004
 20
255.6226824514561
 30
0.0
 10
24.69501987807671
 20
256.179586173379
 30
0.0
 10
24.5522948362307
 20
256.7829092973982
 30
0.0
 10
24.92599671393724
 20
257.0867763876522
 30
0.0
 10
25.51004054215444
 20
257.1244349070468
 30
0.0
 10
25.78363305284471
 20
257.1420758585855
 30
0.0
  0
SPLINE
  5
304
330
1F
100
AcDbEntity
  8
0
  6
Continuous
 62
     7
100
AcDbSpline
210
0.0
220
0.0
230
1.0
 70
     8
 71
     3
 72
    14
 73
    10
 74
     0
 42
0.00000001
 43
0.00000001
 40
0.0
 40
0.0
 40
0.0
 40
0.0
 40
0.2073448671834481
 40
0.358548615666845
 40
0.4776971896694932
 40
0.597215424240947
 40
0.7378902318913411
 40
0.9330220044288281
 40
1.0
 40
1.0
 40
1.0
 40
1.0
 10
32.28378572583021
 20
255.3449999999999
 30
0.0
 10
31.93576884227619
 20
255.0529243161303
 30
0.0
 10
31.33396483563743
 20
254.5478559556544
 30
0.0
 10
30.17136579204411
 20
254.0054806542189
 30
0.0
 10
29.08420619108085
 20
253.797847001371
 30
0.0
 10
27.99247436861835
 20
253.8946994000312
 30
0.0
 10
26.82924466430443
 20
254.3333325838086
 30
0.0
 10
26.00628039926357
 20
254.8887865617704
 30
0.0
 10
25.60069233257126
 20
255.2521485937259
 30
0.0
 10
25.49705073260092
 20
255.3449999999999
 30
0.0
  0
SPLINE
  5
305
330
1F
100
AcDbEntity
  8
0
  6
Continuous
 62
     7
100
AcDbSpline
210
0.0
220
0.0
230
1.0
 70
     8
 71
     3
 72
    12
 73
     8
 74
     0
 42
0.00000001
 43
0.00000001
 40
0.0
 40
0.0
 40
0.0
 40
0.0
 40
0.2148519667571507
 40
0.4304516530037757
 40
0.6444827688672041
 40
0.8743306998723874
 40
1.0
 40
1.0
 40
1.0
 40
1.0
 10
31.99720340558642
 20
257.1420758585855
 30
0.0
 10
32.27638792741516
 20
257.1237999445959
 30
0.0
 10
32.83572857822749
 20
257.0871845134891
 30
0.0
 10
33.18557923756217
 20
256.82281370429
 30
0.0
 10
33.13998439202865
 20
256.3627829265502
 30
0.0
 10
32.78470820889175
 20
255.8326654895156
 30
0.0
 10
32.41460937482061
 20
255.4723613802183
 30
0.0
 10
32.28378572583021
 20
255.3449999999999
 30
0.0
  0
LINE
  5
306
330
1F
100
AcDbEntity
  8
0
  6
Continuous
 62
     7
100
AcDbLine
 10
31.9904182292
 20
257.1420758586
 30
0.0
 11
31.9972034056
 21
257.1420758586
 31
0.0
  0
LINE
  5
307
330
1F
100
AcDbEntity
  8
0
  6
Continuous
 62
     7
100
AcDbLine
 10
31.9904182292
 20
257.1420758586
 30
0.0
 11
31.9904182292
 21
257.145
 31
0.0
  0
LINE
  5
308
330
1F
100
AcDbEntity
  8
0
  6
Continuous
 62
     7
100
AcDbLine
 10
31.9904182292
 20
257.145
 30
0.0
 11
145.0612264811
 21
257.145
 31
0.0
  0
ARC
  5
309
330
1F
100
AcDbEntity
  8
0
  6
Continuous
 62
     7
100
AcDbCircle
 10
20.7196099773
 20
256.645
 30
0.0
 40
0.5000000000000058
100
AcDbArc
 50
90.0
 51
179.0
  0
LINE
  5
30A
330
1F
100
AcDbEntity
  8
0
  6
Continuous
 62
     7
100
AcDbLine
 10
20.0567570254
 20
247.3195240644
 30
0.0
 11
20.2196861297
 21
256.6537262032
 31
0.0
  0
LINE
  5
30B
330
1F
100
AcDbEntity
  8
0
  6
Continuous
 62
     7
100
AcDbLine
 10
145.6113918959
 20
253.7753887445
 30
0.0
 11
146.3642356318
 21
210.645
 31
0.0
  0
LINE
  5
30C
330
1F
100
AcDbEntity
  8
0
  6
Continuous
 62
     7
100
AcDbLine
 10
25.4970507326
 20
255.345
 30
0.0
 11
32.2837857258
 21
255.345
 31
0.0
  0
ARC
  5
30D
330
1F
100
AcDbEntity
  8
0
  6
Continuous
 62
     7
100
AcDbCircle
 10
145.0612264811
 20
256.645
 30
0.0
 40
0.5
100
AcDbArc
 50
1.0
 51
90.0
  0
LINE
  5
30E
330
1F
100
AcDbEntity
  8
0
  6
Continuous
 62
     7
100
AcDbLine
 10
145.5611503287
 20
256.6537262032
 30
0.0
 11
145.6113918959
 21
253.7753887445
 31
0.0
  0
LINE
  5
30F
330
1F
100
AcDbEntity
  8
0
  6
Continuous
 62
     7
100
AcDbLine
 10
25.7836330528
 20
257.1420758586
 30
0.0
 11
25.7904182292
 21
255.345
 31
0.0
  0
LINE
  5
310
330
1F
100
AcDbEntity
  8
0
  6
Continuous
 62
     7
100
AcDbLine
 10
31.9972034056
 20
257.1420758586
 30
0.0
 11
31.9904182292
 21
255.345
 31
0.0
  0
LINE
  5
311
330
1F
100
AcDbEntity
  8
0
  6
Continuous
 62
     7
100
AcDbLine
 10
31.9904182292
 20
257.1420758586
 30
0.0
 11
31.9904182292
 21
255.345
 31
0.0
  0
LINE
  5
312
330
1F
100
AcDbEntity
  8
0
  6
Continuous
 62
     7
100
AcDbLine
 10
25.7904182292
 20
257.1420758586
 30
0.0
 11
25.7904182292
 21
255.345
 31
0.0
  0
LINE
  5
313
330
1F
100
AcDbEntity
  8
0
  6
Continuous
 62
     7
100
AcDbLine
 10
25.7904182292
 20
257.145
 30
0.0
 11
26.7028005587
 21
257.145
 31
0.0
  0
LINE
  5
314
330
1F
100
AcDbEntity
  8
0
  6
Continuous
 62
     7
100
AcDbLine
 10
31.0780358997
 20
257.145
 30
0.0
 11
31.9904182292
 21
257.145
 31
0.0
  0
LINE
  5
315
330
1F
100
AcDbEntity
  8
0
  6
Continuous
 62
     7
100
AcDbLine
 10
26.7028005587
 20
257.145
 30
0.0
 11
31.0780358997
 21
257.145
 31
0.0
  0
LINE
  5
316
330
1F
100
AcDbEntity
  8
0
  6
Continuous
 62
     7
100
AcDbLine
 10
19.8903991907
 20
209.145
 30
0.0
 11
145.8904372677
 21
209.145
 31
0.0
  0
LINE
  5
317
330
1F
100
AcDbEntity
  8
0
  6
Continuous
 62
     7
100
AcDbLine
 10
143.2904182275
 20
207.645
 30
0.0
 11
145.877346966
 21
207.645
 31
0.0
  0
LINE
  5
318
330
1F
100
AcDbEntity
  8
0
  6
Continuous
 62
     7
100
AcDbLine
 10
19.3904182292
 20
209.145
 30
0.0
 11
19.8903991907
 21
209.145
 31
0.0
  0
LINE
  5
319
330
1F
100
AcDbEntity
  8
0
  6
Continuous
 62
     7
100
AcDbLine
 10
19.5344496254
 20
192.6406367323
 30
0.0
 11
19.3904182292
 21
209.145
 31
0.0
  0
LINE
  5
31A
330
1F
100
AcDbEntity
  8
0
  6
Continuous
 62
     7
100
AcDbLine
 10
145.8904372677
 20
209.145
 30
0.0
 11
146.3904182292
 21
209.145
 31
0.0
  0
LINE
  5
31B
330
1F
100
AcDbEntity
  8
0
  6
Continuous
 62
     7
100
AcDbLine
 10
146.3904182292
 20
209.145
 30
0.0
 11
146.3773279275
 21
207.645
 31
0.0
  0
LINE
  5
31C
330
1F
100
AcDbEntity
  8
0
  6
Continuous
 62
     7
100
AcDbLine
 10
146.3773279275
 20
207.645
 30
0.0
 11
145.877346966
 21
207.645
 31
0.0
  0
LINE
  5
31D
330
1F
100
AcDbEntity
  8
0
  6
Continuous
 62
     7
100
AcDbLine
 10
143.5904182292
 20
207.645
 30
0.0
 11
143.328470401
 21
192.638018971
 31
0.0
  0
ARC
  5
31E
330
1F
100
AcDbEntity
  8
0
  6
Continuous
 62
     7
100
AcDbCircle
 10
143.2535007579
 20
201.2340099963
 30
0.0
 40
8.596317941720162
100
AcDbArc
 50
268.5002713978
 51
270.4996905214
  0
LINE
  5
31F
330
1F
100
AcDbEntity
  8
0
  6
Continuous
 62
     7
100
AcDbLine
 10
142.8285160913
 20
192.145
 30
0.0
 11
20.034430587
 21
192.145
 31
0.0
  0
LINE
  5
320
330
1F
100
AcDbEntity
  8
0
  6
Continuous
 62
     7
100
AcDbLine
 10
143.328470401
 20
192.638018971
 30
0.0
 11
143.3284399377
 21
192.6362737303
 31
0.0
  0
ARC
  5
321
330
1F
100
AcDbEntity
  8
0
  6
Continuous
 62
     7
100
AcDbCircle
 10
143.1784637361
 20
196.9347919238
 30
0.0
 40
4.301133748231135
100
AcDbArc
 50
268.0017234297
 51
271.9982511898
  0
ARC
  5
322
330
1F
100
AcDbEntity
  8
0
  6
Continuous
 62
     7
100
AcDbCircle
 10
20.034430587
 20
192.645
 30
0.0
 40
0.5
100
AcDbArc
 50
180.5
 51
270.0
  0
ARC
  5
323
330
1F
100
AcDbEntity
  8
0
  6
Continuous
 62
     7
100
AcDbCircle
 10
142.8285160913
 20
192.645
 30
0.0
 40
0.5000000000000168
100
AcDbArc
 50
270.0
 51
358.9999923859
  0
LINE
  5
324
330
1F
100
AcDbEntity
  8
0
  6
Continuous
 62
     7
100
AcDbLine
 10
144.3801341616
 20
191.145
 30
0.0
 11
131.9007017545
 21
191.145
 31
0.0
  0
LINE
  5
325
330
1F
100
AcDbEntity
  8
0
  6
Continuous
 62
     7
100
AcDbLine
 10
144.5904182292
 20
192.145
 30
0.0
 11
142.8285160913
 21
192.145
 31
0.0
  0
LINE
  5
326
330
1F
100
AcDbEntity
  8
0
  6
Continuous
 62
     7
100
AcDbLine
 10
35.1904182292
 20
192.145
 30
0.0
 11
35.1904182292
 21
191.645
 31
0.0
  0
LINE
  5
327
330
1F
100
AcDbEntity
  8
0
  6
Continuous
 62
     7
100
AcDbLine
 10
34.6904182292
 20
191.145
 30
0.0
 11
33.3904182292
 21
191.145
 31
0.0
  0
ARC
  5
328
330
1F
100
AcDbEntity
  8
0
  6
Continuous
 62
     7
100
AcDbCircle
 10
34.6904182292
 20
191.645
 30
0.0
 40
0.5
100
AcDbArc
 50
270.0
 51
0.0
  0
LINE
  5
329
330
1F
100
AcDbEntity
  8
0
  6
Continuous
 62
     7
100
AcDbLine
 10
24.3904182292
 20
191.145
 30
0.0
 11
23.0904182292
 21
191.145
 31
0.0
  0
ARC
  5
32A
330
1F
100
AcDbEntity
  8
0
  6
Continuous
 62
     7
100
AcDbCircle
 10
23.0904182292
 20
191.645
 30
0.0
 40
0.5
100
AcDbArc
 50
180.0
 51
270.0
  0
LINE
  5
32B
330
1F
100
AcDbEntity
  8
0
  6
Continuous
 62
     7
100
AcDbLine
 10
22.5904182292
 20
191.645
 30
0.0
 11
22.5904182292
 21
192.145
 31
0.0
  0
LINE
  5
32C
330
1F
100
AcDbEntity
  8
0
  6
Continuous
 62
     7
100
AcDbLine
 10
33.3904182292
 20
191.145
 30
0.0
 11
24.3904182292
 21
191.145
 31
0.0
  0
LINE
  5
32D
330
1F
100
AcDbEntity
  8
0
  6
Continuous
 62
     7
100
AcDbLine
 10
146.3773279275
 20
207.645
 30
0.0
 11
146.246386833
 21
192.6406367323
 31
0.0
  0
ARC
  5
32E
330
1F
100
AcDbEntity
  8
0
  6
Continuous
 62
     7
100
AcDbCircle
 10
145.7464058715
 20
192.645
 30
0.0
 40
0.5000000000000352
100
AcDbArc
 50
359.0
 51
359.5
  0
ARC
  5
32F
330
1F
100
AcDbEntity
  8
0
  6
Continuous
 62
     7
100
AcDbCircle
 10
146.0963563726
 20
196.9344990189
 30
0.0
 40
4.300840855515926
100
AcDbArc
 50
268.0016507316
 51
271.9983492684
  0
LINE
  5
330
330
1F
100
AcDbEntity
  8
0
  6
Continuous
 62
     7
100
AcDbLine
 10
145.7464058715
 20
192.145
 30
0.0
 11
144.5904182292
 21
192.145
 31
0.0
  0
ARC
  5
331
330
1F
100
AcDbEntity
  8
0
  6
Continuous
 62
     7
100
AcDbCircle
 10
145.7464058715
 20
192.645
 30
0.0
 40
0.5000000000000352
100
AcDbArc
 50
270.0
 51
359.0
  0
LINE
  5
332
330
1F
100
AcDbEntity
  8
0
  6
Continuous
 62
     7
100
AcDbLine
 10
130.1404182292
 20
191.845
 30
0.0
 11
39.6404182292
 21
191.845
 31
0.0
  0
LINE
  5
333
330
1F
100
AcDbEntity
  8
0
  6
Continuous
 62
     7
100
AcDbLine
 10
39.6404182292
 20
191.845
 30
0.0
 11
39.6404182292
 21
192.145
 31
0.0
  0
LINE
  5
334
330
1F
100
AcDbEntity
  8
0
  6
Continuous
 62
     7
100
AcDbLine
 10
130.1404182292
 20
191.845
 30
0.0
 11
130.1404182292
 21
192.145
 31
0.0
  0
LINE
  5
335
330
1F
100
AcDbEntity
  8
0
  6
Continuous
 62
     7
100
AcDbLine
 10
23.0904182292
 20
191.145
 30
0.0
 11
22.1448007023
 21
191.145
 31
0.0
  0
LINE
  5
336
330
1F
100
AcDbEntity
  8
0
  6
Continuous
 62
     7
100
AcDbLine
 10
131.1502729525
 20
191.845
 30
0.0
 11
130.1404182292
 21
191.845
 31
0.0
  0
LINE
  5
337
330
1F
100
AcDbEntity
  8
0
  6
Continuous
 62
     7
100
AcDbLine
 10
39.6404182292
 20
191.845
 30
0.0
 11
35.1904182292
 21
191.845
 31
0.0
  0
LINE
  5
338
330
1F
100
AcDbEntity
  8
0
  6
Continuous
 62
     7
100
AcDbLine
 10
131.9007017545
 20
191.145
 30
0.0
 11
131.0904182292
 21
191.145
 31
0.0
  0
ARC
  5
339
330
1F
100
AcDbEntity
  8
0
  6
Continuous
 62
     7
100
AcDbCircle
 10
131.0904182292
 20
191.645
 30
0.0
 40
0.5
100
AcDbArc
 50
180.0
 51
270.0
  0
LINE
  5
33A
330
1F
100
AcDbEntity
  8
0
  6
Continuous
 62
     7
100
AcDbLine
 10
130.5904182292
 20
191.645
 30
0.0
 11
130.5904182292
 21
191.845
 31
0.0
  0
LINE
  5
33B
330
1F
100
AcDbEntity
  8
0
  6
Continuous
 62
     7
100
AcDbLine
 10
22.1448007023
 20
191.145
 30
0.0
 11
21.4007017545
 21
191.145
 31
0.0
  0
SPLINE
  5
33C
330
1F
100
AcDbEntity
  8
0
  6
Continuous
 62
     7
100
AcDbSpline
210
0.0
220
0.0
230
1.0
 70
     8
 71
     3
 72
    13
 73
     9
 74
     0
 42
0.00000001
 43
0.00000001
 40
0.0
 40
0.0
 40
0.0
 40
0.0
 40
0.0946860606418566
 40
0.2047581873768396
 40
0.3733527601744175
 40
0.5462239501724527
 40
0.9205767849393055
 40
1.0
 40
1.0
 40
1.0
 40
1.0
 10
144.5904182292156
 20
254.0606795991819
 30
0.0
 10
144.4555621179931
 20
254.049797641614
 30
0.0
 10
144.163936373893
 20
254.0262654565005
 30
0.0
 10
143.7014142568033
 20
253.8047027883119
 30
0.0
 10
143.3066986408624
 20
253.393776427862
 30
0.0
 10
142.9517628060018
 20
252.5947082866078
 30
0.0
 10
142.8783559933451
 20
251.7918621918996
 30
0.0
 10
142.8835721623068
 20
251.1927422762419
 30
0.0
 10
142.8844851344863
 20
251.0878799109265
 30
0.0
  0
LINE
  5
33D
330
1F
100
AcDbEntity
  8
0
  6
Continuous
 62
     7
100
AcDbLine
 10
145.108914408
 20
254.0606795992
 30
0.0
 11
144.5904182292
 21
254.0606795992
 31
0.0
  0
SPLINE
  5
33E
330
1F
100
AcDbEntity
  8
0
  6
Continuous
 62
     7
100
AcDbSpline
210
0.0
220
0.0
230
1.0
 70
     8
 71
     3
 72
    12
 73
     8
 74
     0
 42
0.00000001
 43
0.00000001
 40
0.0
 40
0.0
 40
0.0
 40
0.0
 40
0.2473974769327522
 40
0.5257765741234237
 40
0.723053826650774
 40
0.8611798617273937
 40
1.0
 40
1.0
 40
1.0
 40
1.0
 10
145.3114375873618
 20
253.7753887445
 30
0.0
 10
145.3088582152012
 20
253.8070033955873
 30
0.0
 10
145.3033764557474
 20
253.8741918048907
 30
0.0
 10
145.2668012930226
 20
253.9615296295952
 30
0.0
 10
145.2151494946619
 20
254.0217013359793
 30
0.0
 10
145.1623034896531
 20
254.054588150053
 30
0.0
 10
145.1267404787704
 20
254.0586457263386
 30
0.0
 10
145.1089144079913
 20
254.0606795991819
 30
0.0
  0
ARC
  5
33F
330
1F
100
AcDbEntity
  8
0
  6
Continuous
 62
     7
100
AcDbCircle
 10
145.4614147416
 20
249.4771261837
 30
0.0
 40
4.300878304262254
100
AcDbArc
 50
88.0016173803
 51
91.9983826197
  0
DIMENSION
  5
340
330
1F
100
AcDbEntity
  8
ОСНОВНОЙ
100
AcDbDimension
  2
_D_5
 10
9.3904182292
 20
275.145
 30
0.0
 11
9.3904182292
 21
233.145
 31
0.0
 70
   160
  1
<>
 71
     2
 42
-1.0
  3
SLDDIMSTYLE0
100
AcDbAlignedDimension
 13
24.3904182292
 23
191.145
 33
0.0
 14
23.8268710164
 24
275.145
 34
0.0
 50
90.0
100
AcDbRotatedDimension
  0
LINE
  5
34A
330
1F
100
AcDbEntity
  8
0
  6
Continuous
 62
     7
100
AcDbLine
 10
318.5656911899
 20
31.3972742795
 30
0.0
 11
318.5656911899
 21
36.6620638659
 31
0.0
  0
LINE
  5
34B
330
1F
100
AcDbEntity
  8
0
  6
Continuous
 62
     7
100
AcDbLine
 10
326.6876705303
 20
36.6620638659
 30
0.0
 11
326.6876705303
 21
31.3972742795
 31
0.0
  0
LINE
  5
34C
330
1F
100
AcDbEntity
  8
0
  6
Continuous
 62
     7
100
AcDbLine
 10
368.5656911899
 20
140.1972742795
 30
0.0
 11
368.5656911899
 21
145.4620638659
 31
0.0
  0
LINE
  5
34D
330
1F
100
AcDbEntity
  8
0
  6
Continuous
 62
     7
100
AcDbLine
 10
376.6876705303
 20
145.4620638659
 30
0.0
 11
376.6876705303
 21
140.1972742795
 31
0.0
  0
LINE
  5
34E
330
1F
100
AcDbEntity
  8
0
  6
Continuous
 62
     7
100
AcDbLine
 10
284.1266808601
 20
19.4295929203
 30
0.0
 11
284.1266808601
 21
157.4297452251
 31
0.0
  0
ELLIPSE
  5
34F
330
1F
100
AcDbEntity
  8
0
  6
Continuous
 62
     7
100
AcDbEllipse
 10
284.6267570241
 20
157.4295929087
 30
0.0
 11
-0.3536610945847656
 21
0.353661094584794
 31
0.0
210
0.0
220
0.0
230
0.9999999999999998
 40
0.9996954599
 41
5.497939437029727
 42
7.068431177329483
  0
LINE
  5
350
330
1F
100
AcDbEntity
  8
0
  6
Continuous
 62
     7
100
AcDbLine
 10
284.6266047077
 20
157.9296690727
 30
0.0
 11
410.6267570125
 21
157.9296690727
 31
0.0
  0
ELLIPSE
  5
351
330
1F
100
AcDbEntity
  8
0
  6
Continuous
 62
     7
100
AcDbEllipse
 10
410.6266046961
 20
157.4295929087
 30
0.0
 11
0.3536610945848224
 21
0.353661094584794
 31
0.0
210
0.0
220
0.0
230
0.9999999999999998
 40
0.9996954599
 41
5.497939437029707
 42
7.06843117732956
  0
LINE
  5
352
330
1F
100
AcDbEntity
  8
0
  6
Continuous
 62
     7
100
AcDbLine
 10
411.1266808601
 20
157.4297452251
 30
0.0
 11
411.1266808601
 21
19.4295929203
 31
0.0
  0
ELLIPSE
  5
353
330
1F
100
AcDbEntity
  8
0
  6
Continuous
 62
     7
100
AcDbEllipse
 10
410.6266046961
 20
19.4297452367
 30
0.0
 11
0.3536610945848225
 21
-0.3536610945847905
 31
0.0
210
0.0
220
0.0
230
1.0
 40
0.9996954599
 41
5.497939437029602
 42
7.06843117732946
  0
LINE
  5
354
330
1F
100
AcDbEntity
  8
0
  6
Continuous
 62
     7
100
AcDbLine
 10
410.6267570125
 20
18.9296690727
 30
0.0
 11
284.6266047077
 21
18.9296690727
 31
0.0
  0
ELLIPSE
  5
355
330
1F
100
AcDbEntity
  8
0
  6
Continuous
 62
     7
100
AcDbEllipse
 10
284.6267570241
 20
19.4297452367
 30
0.0
 11
-0.3536610945847656
 21
-0.3536610945847905
 31
0.0
210
0.0
220
0.0
230
1.0
 40
0.9996954599
 41
5.497939437029728
 42
7.068431177329311
  0
LINE
  5
356
330
1F
100
AcDbEntity
  8
0
  6
Continuous
 62
     7
100
AcDbLine
 10
286.6077025828
 20
110.9034864753
 30
0.0
 11
286.6077025828
 21
105.9296690727
 31
0.0
  0
LINE
  5
357
330
1F
100
AcDbEntity
  8
0
  6
Continuous
 62
     7
100
AcDbLine
 10
286.6077025828
 20
70.9296690727
 30
0.0
 11
286.6077025828
 21
65.9558516701
 31
0.0
  0
LINE
  5
358
330
1F
100
AcDbEntity
  8
0
  6
Continuous
 62
     7
100
AcDbLine
 10
408.6456591374
 20
110.9034864753
 30
0.0
 11
408.6456591374
 21
105.9296690727
 31
0.0
  0
LINE
  5
359
330
1F
100
AcDbEntity
  8
0
  6
Continuous
 62
     7
100
AcDbLine
 10
408.6456591374
 20
70.9296690727
 30
0.0
 11
408.6456591374
 21
65.9558516701
 31
0.0
  0
ARC
  5
35A
330
1F
100
AcDbEntity
  8
0
  6
Continuous
 62
     7
100
AcDbCircle
 10
290.8766808601
 20
27.1796690727
 30
0.0
 40
2.500000000000004
100
AcDbArc
 50
90.0
 51
270.0
  0
LINE
  5
35B
330
1F
100
AcDbEntity
  8
0
  6
Continuous
 62
     7
100
AcDbLine
 10
293.8766808601
 20
24.6796690727
 30
0.0
 11
290.8766808601
 21
24.6796690727
 31
0.0
  0
ARC
  5
35C
330
1F
100
AcDbEntity
  8
0
  6
Continuous
 62
     7
100
AcDbCircle
 10
293.8766808601
 20
27.1796690727
 30
0.0
 40
2.500000000000004
100
AcDbArc
 50
270.0
 51
90.0
  0
LINE
  5
35D
330
1F
100
AcDbEntity
  8
0
  6
Continuous
 62
     7
100
AcDbLine
 10
290.8766808601
 20
29.6796690727
 30
0.0
 11
293.8766808601
 21
29.6796690727
 31
0.0
  0
ARC
  5
35E
330
1F
100
AcDbEntity
  8
0
  6
Continuous
 62
     7
100
AcDbCircle
 10
289.1266808601
 20
139.9296690727
 30
0.0
 40
1.80000000000004
100
AcDbArc
 50
180.0
 51
270.0
  0
LINE
  5
35F
330
1F
100
AcDbEntity
  8
0
  6
Continuous
 62
     7
100
AcDbLine
 10
287.3266808601
 20
139.9296690727
 30
0.0
 11
287.3266808601
 21
153.6299127976
 31
0.0
  0
ARC
  5
360
330
1F
100
AcDbEntity
  8
0
  6
Continuous
 62
     7
100
AcDbCircle
 10
289.1266808601
 20
153.6299127976
 30
0.0
 40
1.800000000000011
100
AcDbArc
 50
90.0
 51
180.0
  0
ARC
  5
361
330
1F
100
AcDbEntity
  8
0
  6
Continuous
 62
     7
100
AcDbCircle
 10
292.3766808601
 20
89.4296690727
 30
0.0
 40
3.404401511556159
100
AcDbArc
 50
0.0
 51
180.0
  0
ARC
  5
362
330
1F
100
AcDbEntity
  8
0
  6
Continuous
 62
     7
100
AcDbCircle
 10
292.3766808601
 20
87.4296690727
 30
0.0
 40
3.404401511556159
100
AcDbArc
 50
180.0
 51
0.0
  0
LINE
  5
363
330
1F
100
AcDbEntity
  8
0
  6
Continuous
 62
     7
100
AcDbLine
 10
298.1266808601
 20
138.1296690727
 30
0.0
 11
289.1266808601
 21
138.1296690727
 31
0.0
  0
LINE
  5
364
330
1F
100
AcDbEntity
  8
0
  6
Continuous
 62
     7
100
AcDbLine
 10
289.1266808601
 20
155.4299127976
 30
0.0
 11
298.1266808601
 21
155.4299127976
 31
0.0
  0
ARC
  5
365
330
1F
100
AcDbEntity
  8
0
  6
Continuous
 62
     7
100
AcDbCircle
 10
298.1266808601
 20
139.9296690727
 30
0.0
 40
1.80000000000004
100
AcDbArc
 50
270.0
 51
0.0
  0
ARC
  5
366
330
1F
100
AcDbEntity
  8
0
  6
Continuous
 62
     7
100
AcDbCircle
 10
298.1266808601
 20
153.6299127976
 30
0.0
 40
1.800000000000011
100
AcDbArc
 50
0.0
 51
90.0
  0
LINE
  5
367
330
1F
100
AcDbEntity
  8
0
  6
Continuous
 62
     7
100
AcDbLine
 10
299.9266808601
 20
153.6299127976
 30
0.0
 11
299.9266808601
 21
139.9296690727
 31
0.0
  0
ARC
  5
368
330
1F
100
AcDbEntity
  8
0
  6
Continuous
 62
     7
100
AcDbCircle
 10
397.1266808601
 20
36.9296690727
 30
0.0
 40
1.800000000000011
100
AcDbArc
 50
90.0
 51
180.0
  0
ARC
  5
369
330
1F
100
AcDbEntity
  8
0
  6
Continuous
 62
     7
100
AcDbCircle
 10
397.1266808601
 20
23.2294253478
 30
0.0
 40
1.800000000000011
100
AcDbArc
 50
180.0
 51
270.0
  0
LINE
  5
36A
330
1F
100
AcDbEntity
  8
0
  6
Continuous
 62
     7
100
AcDbLine
 10
395.3266808601
 20
23.2294253478
 30
0.0
 11
395.3266808601
 21
36.9296690727
 31
0.0
  0
ARC
  5
36B
330
1F
100
AcDbEntity
  8
0
  6
Continuous
 62
     7
100
AcDbCircle
 10
402.8766808601
 20
148.6796690727
 30
0.0
 40
2.5
100
AcDbArc
 50
180.0
 51
0.0
  0
LINE
  5
36C
330
1F
100
AcDbEntity
  8
0
  6
Continuous
 62
     7
100
AcDbLine
 10
405.3766808601
 20
150.6796690727
 30
0.0
 11
405.3766808601
 21
148.6796690727
 31
0.0
  0
ARC
  5
36D
330
1F
100
AcDbEntity
  8
0
  6
Continuous
 62
     7
100
AcDbCircle
 10
402.8766808601
 20
150.6796690727
 30
0.0
 40
2.5
100
AcDbArc
 50
0.0
 51
180.0
  0
LINE
  5
36E
330
1F
100
AcDbEntity
  8
0
  6
Continuous
 62
     7
100
AcDbLine
 10
400.3766808601
 20
148.6796690727
 30
0.0
 11
400.3766808601
 21
150.6796690727
 31
0.0
  0
LINE
  5
36F
330
1F
100
AcDbEntity
  8
0
  6
Continuous
 62
     7
100
AcDbLine
 10
397.1266808601
 20
38.7296690727
 30
0.0
 11
406.1266808601
 21
38.7296690727
 31
0.0
  0
LINE
  5
370
330
1F
100
AcDbEntity
  8
0
  6
Continuous
 62
     7
100
AcDbLine
 10
406.1266808601
 20
21.4294253478
 30
0.0
 11
397.1266808601
 21
21.4294253478
 31
0.0
  0
ARC
  5
371
330
1F
100
AcDbEntity
  8
0
  6
Continuous
 62
     7
100
AcDbCircle
 10
403.8766808601
 20
88.4296690727
 30
0.0
 40
3.404401511553928
100
AcDbArc
 50
270.0
 51
90.0
  0
ARC
  5
372
330
1F
100
AcDbEntity
  8
0
  6
Continuous
 62
     7
100
AcDbCircle
 10
406.1266808601
 20
23.2294253478
 30
0.0
 40
1.800000000000011
100
AcDbArc
 50
270.0
 51
0.0
  0
ARC
  5
373
330
1F
100
AcDbEntity
  8
0
  6
Continuous
 62
     7
100
AcDbCircle
 10
406.1266808601
 20
36.9296690727
 30
0.0
 40
1.800000000000011
100
AcDbArc
 50
0.0
 51
90.0
  0
LINE
  5
374
330
1F
100
AcDbEntity
  8
0
  6
Continuous
 62
     7
100
AcDbLine
 10
407.9266808601
 20
36.9296690727
 30
0.0
 11
407.9266808601
 21
23.2294253478
 31
0.0
  0
CIRCLE
  5
375
330
1F
100
AcDbEntity
  8
0
  6
Continuous
 62
     7
100
AcDbCircle
 10
292.3766808601
 20
27.1796690727
 30
0.0
 40
7.200207538209668
  0
CIRCLE
  5
376
330
1F
100
AcDbEntity
  8
0
  6
Continuous
 62
     7
100
AcDbCircle
 10
402.8766808601
 20
149.6796690727
 30
0.0
 40
7.200207538209781
  0
ARC
  5
377
330
1F
100
AcDbEntity
  8
0
  6
Continuous
 62
     7
100
AcDbCircle
 10
292.3766808601
 20
89.4296690727
 30
0.0
 40
5.0
100
AcDbArc
 50
0.0
 51
180.0
  0
LINE
  5
378
330
1F
100
AcDbEntity
  8
0
  6
Continuous
 62
     7
100
AcDbLine
 10
287.3766808601
 20
89.4296690727
 30
0.0
 11
287.3766808601
 21
87.4296690727
 31
0.0
  0
ARC
  5
379
330
1F
100
AcDbEntity
  8
0
  6
Continuous
 62
     7
100
AcDbCircle
 10
292.3766808601
 20
87.4296690727
 30
0.0
 40
5.0
100
AcDbArc
 50
180.0
 51
0.0
  0
LINE
  5
37A
330
1F
100
AcDbEntity
  8
0
  6
Continuous
 62
     7
100
AcDbLine
 10
288.9766808601
 20
89.4296690727
 30
0.0
 11
288.9766808601
 21
87.4296690727
 31
0.0
  0
ARC
  5
37B
330
1F
100
AcDbEntity
  8
0
  6
Continuous
 62
     7
100
AcDbCircle
 10
292.3766808601
 20
89.4296690727
 30
0.0
 40
3.399999999999977
100
AcDbArc
 50
0.0
 51
180.0
  0
ARC
  5
37C
330
1F
100
AcDbEntity
  8
0
  6
Continuous
 62
     7
100
AcDbCircle
 10
292.3766808601
 20
87.4296690727
 30
0.0
 40
3.399999999999977
100
AcDbArc
 50
180.0
 51
0.0
  0
LINE
  5
37D
330
1F
100
AcDbEntity
  8
0
  6
Continuous
 62
     7
100
AcDbLine
 10
295.7766808601
 20
87.4296690727
 30
0.0
 11
295.7766808601
 21
89.4296690727
 31
0.0
  0
LINE
  5
37E
330
1F
100
AcDbEntity
  8
0
  6
Continuous
 62
     7
100
AcDbLine
 10
297.3766808601
 20
87.4296690727
 30
0.0
 11
297.3766808601
 21
89.4296690727
 31
0.0
  0
ARC
  5
37F
330
1F
100
AcDbEntity
  8
0
  6
Continuous
 62
     7
100
AcDbCircle
 10
401.8766808601
 20
88.4296690727
 30
0.0
 40
4.999999999997755
100
AcDbArc
 50
90.0
 51
270.0
  0
ARC
  5
380
330
1F
100
AcDbEntity
  8
0
  6
Continuous
 62
     7
100
AcDbCircle
 10
401.8766808601
 20
88.4296690727
 30
0.0
 40
3.39999999999776
100
AcDbArc
 50
90.0
 51
270.0
  0
LINE
  5
381
330
1F
100
AcDbEntity
  8
0
  6
Continuous
 62
     7
100
AcDbLine
 10
401.8766808601
 20
85.0296690727
 30
0.0
 11
403.8766808601
 21
85.0296690727
 31
0.0
  0
LINE
  5
382
330
1F
100
AcDbEntity
  8
0
  6
Continuous
 62
     7
100
AcDbLine
 10
403.8766808601
 20
93.4296690727
 30
0.0
 11
401.8766808601
 21
93.4296690727
 31
0.0
  0
LINE
  5
383
330
1F
100
AcDbEntity
  8
0
  6
Continuous
 62
     7
100
AcDbLine
 10
403.8766808601
 20
91.8296690727
 30
0.0
 11
401.8766808601
 21
91.8296690727
 31
0.0
  0
LINE
  5
384
330
1F
100
AcDbEntity
  8
0
  6
Continuous
 62
     7
100
AcDbLine
 10
401.8766808601
 20
83.4296690727
 30
0.0
 11
403.8766808601
 21
83.4296690727
 31
0.0
  0
ARC
  5
385
330
1F
100
AcDbEntity
  8
0
  6
Continuous
 62
     7
100
AcDbCircle
 10
403.8766808601
 20
88.4296690727
 30
0.0
 40
4.999999999997755
100
AcDbArc
 50
270.0
 51
90.0
  0
ARC
  5
386
330
1F
100
AcDbEntity
  8
0
  6
Continuous
 62
     7
100
AcDbCircle
 10
403.8766808601
 20
88.4296690727
 30
0.0
 40
3.39999999999776
100
AcDbArc
 50
270.0
 51
90.0
  0
LINE
  5
387
330
1F
100
AcDbEntity
  8
0
  6
Continuous
 62
     7
100
AcDbLine
 10
292.6266808601
 20
136.6796690727
 30
0.0
 11
292.1266808601
 21
136.6796690727
 31
0.0
  0
LINE
  5
388
330
1F
100
AcDbEntity
  8
0
  6
Continuous
 62
     7
100
AcDbLine
 10
292.6266808601
 20
111.6796690727
 30
0.0
 11
292.6266808601
 21
136.6796690727
 31
0.0
  0
LINE
  5
389
330
1F
100
AcDbEntity
  8
0
  6
Continuous
 62
     7
100
AcDbLine
 10
292.1266808601
 20
111.6796690727
 30
0.0
 11
292.6266808601
 21
111.6796690727
 31
0.0
  0
LINE
  5
38A
330
1F
100
AcDbEntity
  8
0
  6
Continuous
 62
     7
100
AcDbLine
 10
292.1266808601
 20
136.6796690727
 30
0.0
 11
292.1266808601
 21
111.6796690727
 31
0.0
  0
LINE
  5
38B
330
1F
100
AcDbEntity
  8
0
  6
Continuous
 62
     7
100
AcDbLine
 10
292.6266808601
 20
98.4296690727
 30
0.0
 11
292.1266808601
 21
98.4296690727
 31
0.0
  0
LINE
  5
38C
330
1F
100
AcDbEntity
  8
0
  6
Continuous
 62
     7
100
AcDbLine
 10
292.6266808601
 20
95.4296690727
 30
0.0
 11
292.6266808601
 21
98.4296690727
 31
0.0
  0
LINE
  5
38D
330
1F
100
AcDbEntity
  8
0
  6
Continuous
 62
     7
100
AcDbLine
 10
292.1266808601
 20
98.4296690727
 30
0.0
 11
292.1266808601
 21
95.4296690727
 31
0.0
  0
LINE
  5
38E
330
1F
100
AcDbEntity
  8
0
  6
Continuous
 62
     7
100
AcDbLine
 10
292.1266808601
 20
95.4296690727
 30
0.0
 11
292.6266808601
 21
95.4296690727
 31
0.0
  0
LINE
  5
38F
330
1F
100
AcDbEntity
  8
0
  6
Continuous
 62
     7
100
AcDbLine
 10
292.6266808601
 20
65.1796690727
 30
0.0
 11
292.1266808601
 21
65.1796690727
 31
0.0
  0
LINE
  5
390
330
1F
100
AcDbEntity
  8
0
  6
Continuous
 62
     7
100
AcDbLine
 10
292.6266808601
 20
35.1796690727
 30
0.0
 11
292.6266808601
 21
65.1796690727
 31
0.0
  0
LINE
  5
391
330
1F
100
AcDbEntity
  8
0
  6
Continuous
 62
     7
100
AcDbLine
 10
292.1266808601
 20
65.1796690727
 30
0.0
 11
292.1266808601
 21
35.1796690727
 31
0.0
  0
LINE
  5
392
330
1F
100
AcDbEntity
  8
0
  6
Continuous
 62
     7
100
AcDbLine
 10
292.1266808601
 20
35.1796690727
 30
0.0
 11
292.6266808601
 21
35.1796690727
 31
0.0
  0
LINE
  5
393
330
1F
100
AcDbEntity
  8
0
  6
Continuous
 62
     7
100
AcDbLine
 10
292.6266808601
 20
78.4296690727
 30
0.0
 11
292.6266808601
 21
81.4296690727
 31
0.0
  0
LINE
  5
394
330
1F
100
AcDbEntity
  8
0
  6
Continuous
 62
     7
100
AcDbLine
 10
292.1266808601
 20
78.4296690727
 30
0.0
 11
292.6266808601
 21
78.4296690727
 31
0.0
  0
LINE
  5
395
330
1F
100
AcDbEntity
  8
0
  6
Continuous
 62
     7
100
AcDbLine
 10
292.6266808601
 20
81.4296690727
 30
0.0
 11
292.1266808601
 21
81.4296690727
 31
0.0
  0
LINE
  5
396
330
1F
100
AcDbEntity
  8
0
  6
Continuous
 62
     7
100
AcDbLine
 10
292.1266808601
 20
81.4296690727
 30
0.0
 11
292.1266808601
 21
78.4296690727
 31
0.0
  0
LINE
  5
397
330
1F
100
AcDbEntity
  8
0
  6
Continuous
 62
     7
100
AcDbLine
 10
398.6266808601
 20
133.4296690727
 30
0.0
 11
398.6266808601
 21
132.6796690727
 31
0.0
  0
LINE
  5
398
330
1F
100
AcDbEntity
  8
0
  6
Continuous
 62
     7
100
AcDbLine
 10
296.6266808601
 20
133.4296690727
 30
0.0
 11
398.6266808601
 21
133.4296690727
 31
0.0
  0
LINE
  5
399
330
1F
100
AcDbEntity
  8
0
  6
Continuous
 62
     7
100
AcDbLine
 10
296.6266808601
 20
132.6796690727
 30
0.0
 11
296.6266808601
 21
133.4296690727
 31
0.0
  0
LINE
  5
39A
330
1F
100
AcDbEntity
  8
0
  6
Continuous
 62
     7
100
AcDbLine
 10
293.6266808601
 20
133.6796690727
 30
0.0
 11
296.6266808601
 21
132.6796690727
 31
0.0
  0
LINE
  5
39B
330
1F
100
AcDbEntity
  8
0
  6
Continuous
 62
     7
100
AcDbLine
 10
296.6266808601
 20
133.9296690727
 30
0.0
 11
296.6266808601
 21
134.6796690727
 31
0.0
  0
LINE
  5
39C
330
1F
100
AcDbEntity
  8
0
  6
Continuous
 62
     7
100
AcDbLine
 10
398.6266808601
 20
133.9296690727
 30
0.0
 11
296.6266808601
 21
133.9296690727
 31
0.0
  0
LINE
  5
39D
330
1F
100
AcDbEntity
  8
0
  6
Continuous
 62
     7
100
AcDbLine
 10
398.6266808601
 20
134.6796690727
 30
0.0
 11
398.6266808601
 21
133.9296690727
 31
0.0
  0
LINE
  5
39E
330
1F
100
AcDbEntity
  8
0
  6
Continuous
 62
     7
100
AcDbLine
 10
401.6266808601
 20
133.6796690727
 30
0.0
 11
398.6266808601
 21
134.6796690727
 31
0.0
  0
LINE
  5
39F
330
1F
100
AcDbEntity
  8
0
  6
Continuous
 62
     7
100
AcDbLine
 10
398.6266808601
 20
132.6796690727
 30
0.0
 11
401.6266808601
 21
133.6796690727
 31
0.0
  0
LINE
  5
3A0
330
1F
100
AcDbEntity
  8
0
  6
Continuous
 62
     7
100
AcDbLine
 10
296.6266808601
 20
134.6796690727
 30
0.0
 11
293.6266808601
 21
133.6796690727
 31
0.0
  0
LINE
  5
3A1
330
1F
100
AcDbEntity
  8
0
  6
Continuous
 62
     7
100
AcDbLine
 10
390.8766808601
 20
27.4296690727
 30
0.0
 11
300.3766808601
 21
27.4296690727
 31
0.0
  0
LINE
  5
3A2
330
1F
100
AcDbEntity
  8
0
  6
Continuous
 62
     7
100
AcDbLine
 10
390.8766808601
 20
26.9296690727
 30
0.0
 11
390.8766808601
 21
27.4296690727
 31
0.0
  0
LINE
  5
3A3
330
1F
100
AcDbEntity
  8
0
  6
Continuous
 62
     7
100
AcDbLine
 10
300.3766808601
 20
26.9296690727
 30
0.0
 11
390.8766808601
 21
26.9296690727
 31
0.0
  0
LINE
  5
3A4
330
1F
100
AcDbEntity
  8
0
  6
Continuous
 62
     7
100
AcDbLine
 10
300.3766808601
 20
27.4296690727
 30
0.0
 11
300.3766808601
 21
26.9296690727
 31
0.0
  0
LINE
  5
3A5
330
1F
100
AcDbEntity
  8
0
  6
Continuous
 62
     7
100
AcDbLine
 10
345.1497577832
 20
135.1796690727
 30
0.0
 11
344.4766808601
 21
135.1796690727
 31
0.0
  0
LINE
  5
3A6
330
1F
100
AcDbEntity
  8
0
  6
Continuous
 62
     7
100
AcDbLine
 10
344.4766808601
 20
135.1796690727
 30
0.0
 11
344.4766808601
 21
137.6714559317
 31
0.0
  0
SPLINE
  5
3A7
330
1F
100
AcDbEntity
  8
0
  6
Continuous
 62
     7
100
AcDbSpline
210
0.0
220
0.0
230
1.0
 70
     8
 71
     3
 72
    15
 73
    11
 74
     0
 42
0.00000001
 43
0.00000001
 40
0.0
 40
0.0
 40
0.0
 40
0.0
 40
0.1265709095624307
 40
0.2514247494891296
 40
0.376425049932792
 40
0.5000934709746307
 40
0.6241806899120442
 40
0.7481334495533761
 40
0.8738690196222154
 40
1.0
 40
1.0
 40
1.0
 40
1.0
 10
344.4766808601221
 20
137.6714559316722
 30
0.0
 10
344.4461733982504
 20
137.6404851668263
 30
0.0
 10
344.3855723408264
 20
137.5789637886533
 30
0.0
 10
344.2887829055516
 20
137.493149669667
 30
0.0
 10
344.1883007153057
 20
137.4133199131121
 30
0.0
 10
344.0831314065313
 20
137.3402327559893
 30
0.0
 10
343.9746498107799
 20
137.2728468347645
 30
0.0
 10
343.8617473075769
 20
137.2116938513255
 30
0.0
 10
343.745242253366
 20
137.1559276672814
 30
0.0
 10
343.6645341579089
 20
137.1247630325439
 30
0.0
 10
343.6241167575579
 20
137.1091562521851
 30
0.0
  0
LINE
  5
3A8
330
1F
100
AcDbEntity
  8
0
  6
Continuous
 62
     7
100
AcDbLine
 10
343.6241167576
 20
137.1091562522
 30
0.0
 11
343.6241167576
 21
137.7822331753
 31
0.0
  0
SPLINE
  5
3A9
330
1F
100
AcDbEntity
  8
0
  6
Continuous
 62
     7
100
AcDbSpline
210
0.0
220
0.0
230
1.0
 70
     8
 71
     3
 72
    19
 73
    15
 74
     0
 42
0.00000001
 43
0.00000001
 40
0.0
 40
0.0
 40
0.0
 40
0.0
 40
0.1044728014505077
 40
0.218653445574486
 40
0.3428558890245144
 40
0.4792694623690642
 40
0.5495409926991597
 40
0.6174241096395666
 40
0.6835351858950294
 40
0.7485971287880163
 40
0.8121759604466019
 40
0.8748692871861434
 40
0.9374294362357404
 40
1.0
 40
1.0
 40
1.0
 40
1.0
 10
343.6241167575579
 20
137.782233175262
 30
0.0
 10
343.6689416893534
 20
137.7990406011301
 30
0.0
 10
343.7627567842741
 20
137.8342172358741
 30
0.0
 10
343.9011963152831
 20
137.9090397211627
 30
0.0
 10
344.0456959192975
 20
138.0016775068672
 30
0.0
 10
344.1670838354199
 20
138.0925337213592
 30
0.0
 10
344.2634608506746
 20
138.1733121571061
 30
0.0
 10
344.3308210572512
 20
138.2382453443535
 30
0.0
 10
344.393234161775
 20
138.3047402962783
 30
0.0
 10
344.4483541796697
 20
138.3749432263321
 30
0.0
 10
344.4976280376179
 20
138.4474347860131
 30
0.0
 10
344.5412868238514
 20
138.5220965476963
 30
0.0
 10
344.5797165917726
 20
138.5991643633597
 30
0.0
 10
344.5998343065523
 20
138.6528326806349
 30
0.0
 10
344.6098940011477
 20
138.6796690726979
 30
0.0
  0
LINE
  5
3AA
330
1F
100
AcDbEntity
  8
0
  6
Continuous
 62
     7
100
AcDbLine
 10
344.6098940011
 20
138.6796690727
 30
0.0
 11
345.1497577832
 21
138.6796690727
 31
0.0
  0
LINE
  5
3AB
330
1F
100
AcDbEntity
  8
0
  6
Continuous
 62
     7
100
AcDbLine
 10
345.1497577832
 20
138.6796690727
 30
0.0
 11
345.1497577832
 21
135.1796690727
 31
0.0
  0
LINE
  5
3AC
330
1F
100
AcDbEntity
  8
0
  6
Continuous
 62
     7
100
AcDbLine
 10
348.1651423986
 20
135.1796690727
 30
0.0
 11
347.4920654755
 21
135.1796690727
 31
0.0
  0
LINE
  5
3AD
330
1F
100
AcDbEntity
  8
0
  6
Continuous
 62
     7
100
AcDbLine
 10
347.4920654755
 20
135.1796690727
 30
0.0
 11
347.4920654755
 21
137.6714559317
 31
0.0
  0
LINE
  5
3AE
330
1F
100
AcDbEntity
  8
0
  6
Continuous
 62
     7
100
AcDbLine
 10
346.6395013729
 20
137.1091562522
 30
0.0
 11
346.6395013729
 21
137.7822331753
 31
0.0
  0
SPLINE
  5
3AF
330
1F
100
AcDbEntity
  8
0
  6
Continuous
 62
     7
100
AcDbSpline
210
0.0
220
0.0
230
1.0
 70
     8
 71
     3
 72
    19
 73
    15
 74
     0
 42
0.00000001
 43
0.00000001
 40
0.0
 40
0.0
 40
0.0
 40
0.0
 40
0.1044728014505075
 40
0.2186534455744859
 40
0.3428558890245142
 40
0.4792694623690641
 40
0.5495409926991597
 40
0.6174241096395703
 40
0.6835351858950293
 40
0.7485971287880162
 40
0.8121759604466018
 40
0.8748692871861434
 40
0.9374294362357404
 40
1.0
 40
1.0
 40
1.0
 40
1.0
 10
346.6395013729426
 20
137.782233175262
 30
0.0
 10
346.684326304738
 20
137.7990406011301
 30
0.0
 10
346.7781413996588
 20
137.8342172358741
 30
0.0
 10
346.9165809306677
 20
137.9090397211628
 30
0.0
 10
347.0610805346821
 20
138.0016775068672
 30
0.0
 10
347.1824684508046
 20
138.0925337213592
 30
0.0
 10
347.2788454660592
 20
138.1733121571061
 30
0.0
 10
347.3462056726358
 20
138.2382453443535
 30
0.0
 10
347.4086187771596
 20
138.3047402962784
 30
0.0
 10
347.4637387950543
 20
138.3749432263321
 30
0.0
 10
347.5130126530025
 20
138.4474347860131
 30
0.0
 10
347.556671439236
 20
138.5220965476963
 30
0.0
 10
347.5951012071572
 20
138.5991643633597
 30
0.0
 10
347.6152189219368
 20
138.6528326806349
 30
0.0
 10
347.6252786165323
 20
138.6796690726979
 30
0.0
  0
LINE
  5
3B0
330
1F
100
AcDbEntity
  8
0
  6
Continuous
 62
     7
100
AcDbLine
 10
347.6252786165
 20
138.6796690727
 30
0.0
 11
348.1651423986
 21
138.6796690727
 31
0.0
  0
LINE
  5
3B1
330
1F
100
AcDbEntity
  8
0
  6
Continuous
 62
     7
100
AcDbLine
 10
348.1651423986
 20
138.6796690727
 30
0.0
 11
348.1651423986
 21
135.1796690727
 31
0.0
  0
SPLINE
  5
3B2
330
1F
100
AcDbEntity
  8
0
  6
Continuous
 62
     7
100
AcDbSpline
210
0.0
220
0.0
230
1.0
 70
     8
 71
     3
 72
    15
 73
    11
 74
     0
 42
0.00000001
 43
0.00000001
 40
0.0
 40
0.0
 40
0.0
 40
0.0
 40
0.1265709095624308
 40
0.2514247494891295
 40
0.376425049932792
 40
0.5000934709746307
 40
0.6241806899120445
 40
0.7481334495533767
 40
0.8738690196222155
 40
1.0
 40
1.0
 40
1.0
 40
1.0
 10
347.4920654755066
 20
137.6714559316723
 30
0.0
 10
347.4615580136351
 20
137.6404851668263
 30
0.0
 10
347.400956956211
 20
137.5789637886533
 30
0.0
 10
347.3041675209361
 20
137.493149669667
 30
0.0
 10
347.2036853306903
 20
137.4133199131121
 30
0.0
 10
347.0985160219159
 20
137.3402327559894
 30
0.0
 10
346.9900344261645
 20
137.2728468347646
 30
0.0
 10
346.8771319229616
 20
137.2116938513255
 30
0.0
 10
346.7606268687506
 20
137.1559276672815
 30
0.0
 10
346.6799187732936
 20
137.1247630325439
 30
0.0
 10
346.6395013729426
 20
137.1091562521851
 30
0.0
  0
SPLINE
  5
3B3
330
1F
100
AcDbEntity
  8
0
  6
Continuous
 62
     7
100
AcDbSpline
210
0.0
220
0.0
230
1.0
 70
     8
 71
     3
 72
    15
 73
    11
 74
     0
 42
0.00000001
 43
0.00000001
 40
0.0
 40
0.0
 40
0.0
 40
0.0
 40
0.0823733151293685
 40
0.1770420547701418
 40
0.2833367838970546
 40
0.4015760572897823
 40
0.5326993894125095
 40
0.6759370714854556
 40
0.8314130224219693
 40
1.0
 40
1.0
 40
1.0
 40
1.0
 10
350.2234957639682
 20
137.7527860598774
 30
0.0
 10
350.2173771027835
 20
137.730182220869
 30
0.0
 10
350.2042264805598
 20
137.681600588608
 30
0.0
 10
350.1893010706563
 20
137.6023923377571
 30
0.0
 10
350.1769923926654
 20
137.5124993583114
 30
0.0
 10
350.1665989578702
 20
137.4119425405775
 30
0.0
 10
350.1581408924492
 20
137.300668673227
 30
0.0
 10
350.1529321244562
 20
137.1786069532335
 30
0.0
 10
350.1493319185326
 20
137.045842908941
 30
0.0
 10
350.1487687227649
 20
136.953743649772
 30
0.0
 10
350.1484757319169
 20
136.9058309316723
 30
0.0
  0
SPLINE
  5
3B4
330
1F
100
AcDbEntity
  8
0
  6
Continuous
 62
     7
100
AcDbSpline
210
0.0
220
0.0
230
1.0
 70
     8
 71
     3
 72
    23
 73
    19
 74
     0
 42
0.00000001
 43
0.00000001
 40
0.0
 40
0.0
 40
0.0
 40
0.0
 40
0.1008346167264743
 40
0.1932830494691826
 40
0.2774008451362993
 40
0.3536777434432242
 40
0.4222362183041937
 40
0.4825627035114634
 40
0.5349079939997843
 40
0.5797418151953608
 40
0.6557138421667981
 40
0.7211454552772019
 40
0.7766660200784062
 40
0.8242181842260684
 40
0.8681270432663934
 40
0.9113574509853429
 40
0.9548891391678517
 40
1.0
 40
1.0
 40
1.0
 40
1.0
 10
350.1484757319169
 20
136.9058309316723
 30
0.0
 10
350.1488751723952
 20
136.8581552376035
 30
0.0
 10
350.1496408328024
 20
136.7667689276801
 30
0.0
 10
350.1518150547508
 20
136.6356015151197
 30
0.0
 10
350.1579866202396
 20
136.5162022053252
 30
0.0
 10
350.1641637611181
 20
136.4080951779864
 30
0.0
 10
350.1744520623167
 20
136.3116210676665
 30
0.0
 10
350.184799953278
 20
136.2265193636372
 30
0.0
 10
350.1990628191906
 20
136.1533712733278
 30
0.0
 10
350.2185236756899
 20
136.0738095774248
 30
0.0
 10
350.2479557254438
 20
135.9905356401163
 30
0.0
 10
350.2883356191796
 20
135.9065244576798
 30
0.0
 10
350.3316366773243
 20
135.8390674123863
 30
0.0
 10
350.3826375596712
 20
135.7907686189772
 30
0.0
 10
350.4378354577423
 20
135.7583686032265
 30
0.0
 10
350.4950867441984
 20
135.7345626091503
 30
0.0
 10
350.5563927483706
 20
135.7212042114304
 30
0.0
 10
350.5983017642428
 20
135.7191672408367
 30
0.0
 10
350.6196295780708
 20
135.7181306111594
 30
0.0
  0
SPLINE
  5
3B5
330
1F
100
AcDbEntity
  8
0
  6
Continuous
 62
     7
100
AcDbSpline
210
0.0
220
0.0
230
1.0
 70
     8
 71
     3
 72
    15
 73
    11
 74
     0
 42
0.00000001
 43
0.00000001
 40
0.0
 40
0.0
 40
0.0
 40
0.0
 40
0.1136384890722421
 40
0.2223861812653109
 40
0.3312523767958266
 40
0.4413103711807868
 40
0.5581281266397153
 40
0.6869862659608995
 40
0.8340526583991216
 40
1.0
 40
1.0
 40
1.0
 40
1.0
 10
350.6196295780708
 20
135.7181306111594
 30
0.0
 10
350.6412174597114
 20
135.7190590023831
 30
0.0
 10
350.6834641192621
 20
135.7208758285361
 30
0.0
 10
350.7449063957405
 20
135.7356908325063
 30
0.0
 10
350.8029401443658
 20
135.7586385612191
 30
0.0
 10
350.8573932845434
 20
135.7923398086816
 30
0.0
 10
350.9078232954862
 20
135.8379714868028
 30
0.0
 10
350.95055086709
 20
135.8996309475999
 30
0.0
 10
350.9874881309908
 20
135.9752118916813
 30
0.0
 10
351.005966762207
 20
136.0317212779615
 30
0.0
 10
351.0157633921733
 20
136.0616802906466
 30
0.0
  0
SPLINE
  5
3B6
330
1F
100
AcDbEntity
  8
0
  6
Continuous
 62
     7
100
AcDbSpline
210
0.0
220
0.0
230
1.0
 70
     8
 71
     3
 72
    15
 73
    11
 74
     0
 42
0.00000001
 43
0.00000001
 40
0.0
 40
0.0
 40
0.0
 40
0.0
 40
0.0826430287340924
 40
0.1768120489030462
 40
0.2826378891715778
 40
0.4012643114922846
 40
0.5319943041057198
 40
0.6757009869892121
 40
0.8316860103007769
 40
1.0
 40
1.0
 40
1.0
 40
1.0
 10
351.0157633921733
 20
136.0616802906466
 30
0.0
 10
351.0218732021814
 20
136.0842859231873
 30
0.0
 10
351.0349449402637
 20
136.1326499324389
 30
0.0
 10
351.0499767056193
 20
136.2113650909105
 30
0.0
 10
351.0623187071325
 20
136.3007922491782
 30
0.0
 10
351.0726133216299
 20
136.4008916329238
 30
0.0
 10
351.0811545825319
 20
136.5119251393451
 30
0.0
 10
351.086319134261
 20
136.6337566466655
 30
0.0
 10
351.0899227269289
 20
136.7662862781872
 30
0.0
 10
351.0904893447039
 20
136.858151886986
 30
0.0
 10
351.0907834242246
 20
136.9058309316723
 30
0.0
  0
SPLINE
  5
3B7
330
1F
100
AcDbEntity
  8
0
  6
Continuous
 62
     7
100
AcDbSpline
210
0.0
220
0.0
230
1.0
 70
     8
 71
     3
 72
    23
 73
    19
 74
     0
 42
0.00000001
 43
0.00000001
 40
0.0
 40
0.0
 40
0.0
 40
0.0
 40
0.1006966640060199
 40
0.1930338194557538
 40
0.2775109947262604
 40
0.3537198601440044
 40
0.4216475357476387
 40
0.4819603511219232
 40
0.5341449468329049
 40
0.5790413149141677
 40
0.6553779565299795
 40
0.7205076573654826
 40
0.7762325984060031
 40
0.8240613854650052
 40
0.8681693643483407
 40
0.9108854661679429
 40
0.9549492320554438
 40
1.0
 40
1.0
 40
1.0
 40
1.0
 10
351.0907834242246
 20
136.9058309316723
 30
0.0
 10
351.0908159403415
 20
136.9535116177592
 30
0.0
 10
351.0908782731935
 20
137.0449146949166
 30
0.0
 10
351.0867484829111
 20
137.1762485988462
 30
0.0
 10
351.0826954545317
 20
137.2959996159715
 30
0.0
 10
351.0744306385157
 20
137.4039331617226
 30
0.0
 10
351.0661526969987
 20
137.5004137551751
 30
0.0
 10
351.0538206193191
 20
137.584958351582
 30
0.0
 10
351.0413970221578
 20
137.6584987864332
 30
0.0
 10
351.0201650646175
 20
137.7378946858932
 30
0.0
 10
350.9913106616277
 20
137.821407936983
 30
0.0
 10
350.9518900897044
 20
137.9062920908296
 30
0.0
 10
350.9073292187556
 20
137.9731167949102
 30
0.0
 10
350.8566979926788
 20
138.0222363009794
 30
0.0
 10
350.8017717811683
 20
138.0553484745693
 30
0.0
 10
350.7443799915519
 20
138.0792267077099
 30
0.0
 10
350.6831787282915
 20
138.0933995376608
 30
0.0
 10
350.6409684636229
 20
138.0953498052979
 30
0.0
 10
350.6196295780708
 20
138.0963357393646
 30
0.0
  0
SPLINE
  5
3B8
330
1F
100
AcDbEntity
  8
0
  6
Continuous
 62
     7
100
AcDbSpline
210
0.0
220
0.0
230
1.0
 70
     8
 71
     3
 72
    15
 73
    11
 74
     0
 42
0.00000001
 43
0.00000001
 40
0.0
 40
0.0
 40
0.0
 40
0.0
 40
0.112423958070804
 40
0.2223848576202808
 40
0.3301224058542359
 40
0.4412431684841667
 40
0.5580749755162294
 40
0.6869486147035212
 40
0.8340326972108777
 40
1.0
 40
1.0
 40
1.0
 40
1.0
 10
350.6196295780708
 20
138.0963357393646
 30
0.0
 10
350.5982871443998
 20
138.0953577455678
 30
0.0
 10
350.5560698612277
 20
138.0934231845098
 30
0.0
 10
350.494707979294
 20
138.0790862069532
 30
0.0
 10
350.4367567428538
 20
138.0554270694683
 30
0.0
 10
350.3819367895292
 20
138.0223992202354
 30
0.0
 10
350.3314595007989
 20
137.9764529375505
 30
0.0
 10
350.2887007148252
 20
137.9148488359351
 30
0.0
 10
350.2517733218203
 20
137.8392503856628
 30
0.0
 10
350.2332931896698
 20
137.7827436613134
 30
0.0
 10
350.2234957639682
 20
137.7527860598774
 30
0.0
  0
SPLINE
  5
3B9
330
1F
100
AcDbEntity
  8
0
  6
Continuous
 62
     7
100
AcDbSpline
210
0.0
220
0.0
230
1.0
 70
     8
 71
     3
 72
    15
 73
    11
 74
     0
 42
0.00000001
 43
0.00000001
 40
0.0
 40
0.0
 40
0.0
 40
0.0
 40
0.1373230954754231
 40
0.2673523260794665
 40
0.3929646164629541
 40
0.5149204449870295
 40
0.6341998202965425
 40
0.7543524309255348
 40
0.8755754919798963
 40
1.0
 40
1.0
 40
1.0
 40
1.0
 10
350.6196295780708
 20
138.6796690726979
 30
0.0
 10
350.6612912391396
 20
138.6786642205045
 30
0.0
 10
350.7424017177268
 20
138.6767078884663
 30
0.0
 10
350.8605886162048
 20
138.6593783271288
 30
0.0
 10
350.9718674629915
 20
138.6315913419652
 30
0.0
 10
351.0762300920345
 20
138.5923124691494
 30
0.0
 10
351.1735787330516
 20
138.5413065831155
 30
0.0
 10
351.2632649457813
 20
138.4783557142286
 30
0.0
 10
351.3472484955185
 20
138.4053468800761
 30
0.0
 10
351.3957459264965
 20
138.3486908148292
 30
0.0
 10
351.4203106678144
 20
138.3199935919287
 30
0.0
  0
SPLINE
  5
3BA
330
1F
100
AcDbEntity
  8
0
  6
Continuous
 62
     7
100
AcDbSpline
210
0.0
220
0.0
230
1.0
 70
     8
 71
     3
 72
    23
 73
    19
 74
     0
 42
0.00000001
 43
0.00000001
 40
0.0
 40
0.0
 40
0.0
 40
0.0
 40
0.0466726066463392
 40
0.095250611460621
 40
0.1448623308943137
 40
0.1963098397204846
 40
0.2497630016680561
 40
0.3057747701480941
 40
0.3632670724145953
 40
0.4235484122315188
 40
0.4860326738002546
 40
0.5514871797433034
 40
0.6194342221892262
 40
0.689950966793107
 40
0.7631477843701744
 40
0.839003832545215
 40
0.9181046258836106
 40
1.0
 40
1.0
 40
1.0
 40
1.0
 10
351.4203106678144
 20
138.3199935919287
 30
0.0
 10
351.43436209219
 20
138.3017172519234
 30
0.0
 10
351.46303858703
 20
138.264418444639
 30
0.0
 10
351.501659379532
 20
138.2041476922618
 30
0.0
 10
351.5387880170875
 20
138.1402137183952
 30
0.0
 10
351.5711976935261
 20
138.0710776091229
 30
0.0
 10
351.602231363811
 20
137.997939105004
 30
0.0
 10
351.6309907514535
 20
137.9206315564377
 30
0.0
 10
351.655961631775
 20
137.838516220997
 30
0.0
 10
351.679457769759
 20
137.7526430854363
 30
0.0
 10
351.6986049668217
 20
137.661671018678
 30
0.0
 10
351.7162987482309
 20
137.5665821197826
 30
0.0
 10
351.7309676889929
 20
137.4669453074759
 30
0.0
 10
351.74253501435
 20
137.3630793634668
 30
0.0
 10
351.7528657814249
 20
137.2551423154121
 30
0.0
 10
351.758526541612
 20
137.1426190990042
 30
0.0
 10
351.7631614977862
 20
137.0257609683908
 30
0.0
 10
351.7636247172662
 20
136.946267560965
 30
0.0
 10
351.7638603473015
 20
136.9058309316723
 30
0.0
  0
SPLINE
  5
3BB
330
1F
100
AcDbEntity
  8
0
  6
Continuous
 62
     7
100
AcDbSpline
210
0.0
220
0.0
230
1.0
 70
     8
 71
     3
 72
    23
 73
    19
 74
     0
 42
0.00000001
 43
0.00000001
 40
0.0
 40
0.0
 40
0.0
 40
0.0
 40
0.0817741976550099
 40
0.1602856044887725
 40
0.23602941228892
 40
0.3091179242207142
 40
0.3795303287483545
 40
0.4473768333769224
 40
0.5123574098506741
 40
0.574749216603855
 40
0.6349413611576111
 40
0.6929409366900136
 40
0.7487078215596631
 40
0.8027019362432207
 40
0.854279471166134
 40
0.9042287096499392
 40
0.9527348360365525
 40
1.0
 40
1.0
 40
1.0
 40
1.0
 10
351.7638603473015
 20
136.9058309316723
 30
0.0
 10
351.7636282666125
 20
136.8653942091586
 30
0.0
 10
351.7631733652549
 20
136.786134189525
 30
0.0
 10
351.7585092620711
 20
136.6695104992415
 30
0.0
 10
351.7528607353013
 20
136.557221889394
 30
0.0
 10
351.7425591146974
 20
136.4492790763753
 30
0.0
 10
351.7308810375767
 20
136.3454337802684
 30
0.0
 10
351.7166314898416
 20
136.2459086575863
 30
0.0
 10
351.6976062261122
 20
136.1512566947699
 30
0.0
 10
351.678760237378
 20
136.0604297226552
 30
0.0
 10
351.6554018485443
 20
135.9741909631042
 30
0.0
 10
351.6293088228437
 20
135.8922228862834
 30
0.0
 10
351.6017053496661
 20
135.8139516253616
 30
0.0
 10
351.5699501436712
 20
135.7407189672926
 30
0.0
 10
351.5363775986712
 20
135.6714973037488
 30
0.0
 10
351.4998015039775
 20
135.6069107475917
 30
0.0
 10
351.4607494775827
 20
135.5462664720299
 30
0.0
 10
351.4317955555384
 20
135.5087708921282
 30
0.0
 10
351.4175061806349
 20
135.4902660278261
 30
0.0
  0
SPLINE
  5
3BC
330
1F
100
AcDbEntity
  8
0
  6
Continuous
 62
     7
100
AcDbSpline
210
0.0
220
0.0
230
1.0
 70
     8
 71
     3
 72
    15
 73
    11
 74
     0
 42
0.00000001
 43
0.00000001
 40
0.0
 40
0.0
 40
0.0
 40
0.0
 40
0.1239539590100932
 40
0.244691097034325
 40
0.3639282123713515
 40
0.4834467610619785
 40
0.6060135407011153
 40
0.7313153882149157
 40
0.8627627448661782
 40
1.0
 40
1.0
 40
1.0
 40
1.0
 10
351.4175061806349
 20
135.4902660278261
 30
0.0
 10
351.3931661911199
 20
135.4618147811711
 30
0.0
 10
351.345117877183
 20
135.4056506472331
 30
0.0
 10
351.2620638280216
 20
135.3332472835352
 30
0.0
 10
351.1725262953237
 20
135.2715983216101
 30
0.0
 10
351.0753491185536
 20
135.2216060537765
 30
0.0
 10
350.971496441176
 20
135.1820561520423
 30
0.0
 10
350.8600354895647
 20
135.1551558509638
 30
0.0
 10
350.7421714650117
 20
135.1377910103291
 30
0.0
 10
350.6610595023326
 20
135.1358094224401
 30
0.0
 10
350.6196295780708
 20
135.1347972778261
 30
0.0
  0
SPLINE
  5
3BD
330
1F
100
AcDbEntity
  8
0
  6
Continuous
 62
     7
100
AcDbSpline
210
0.0
220
0.0
230
1.0
 70
     8
 71
     3
 72
    23
 73
    19
 74
     0
 42
0.00000001
 43
0.00000001
 40
0.0
 40
0.0
 40
0.0
 40
0.0
 40
0.0815293207370414
 40
0.1597869902075428
 40
0.2357429724720386
 40
0.3085642043478964
 40
0.3791738489489808
 40
0.4467415655470575
 40
0.5119041663922591
 40
0.5745729949863365
 40
0.6343540823433826
 40
0.6925161269835374
 40
0.7484392267210243
 40
0.8021492625368225
 40
0.8538712770701787
 40
0.9039604339608805
 40
0.9526024362914508
 40
1.0
 40
1.0
 40
1.0
 40
1.0
 10
349.47539880884
 20
136.912842149621
 30
0.0
 10
349.4756290363459
 20
136.953045323739
 30
0.0
 10
349.4760802526679
 20
137.0318383779559
 30
0.0
 10
349.4807783683565
 20
137.1479923975675
 30
0.0
 10
349.4863522491616
 20
137.2598199226617
 30
0.0
 10
349.4967659963303
 20
137.3675166834983
 30
0.0
 10
349.5082802806492
 20
137.4709185501258
 30
0.0
 10
349.5227938497278
 20
137.5701618489171
 30
0.0
 10
349.5413460872048
 20
137.6647331125932
 30
0.0
 10
349.5615454577754
 20
137.7550097926922
 30
0.0
 10
349.5837027865108
 20
137.8413116013178
 30
0.0
 10
349.6100383798683
 20
137.9229171511647
 30
0.0
 10
349.6373659607253
 20
138.0010606841077
 30
0.0
 10
349.6694923189711
 20
138.073902718572
 30
0.0
 10
349.7028587483416
 20
138.1429786918824
 30
0.0
 10
349.7394634636482
 20
138.2075531454782
 30
0.0
 10
349.7785082862761
 20
138.2682004672372
 30
0.0
 10
349.8074631405353
 20
138.3056956529409
 30
0.0
 10
349.8217529755067
 20
138.3242003226979
 30
0.0
  0
SPLINE
  5
3BE
330
1F
100
AcDbEntity
  8
0
  6
Continuous
 62
     7
100
AcDbSpline
210
0.0
220
0.0
230
1.0
 70
     8
 71
     3
 72
    15
 73
    11
 74
     0
 42
0.00000001
 43
0.00000001
 40
0.0
 40
0.0
 40
0.0
 40
0.0
 40
0.1239584095619954
 40
0.2446998826385557
 40
0.3639412791697778
 40
0.4841523681817075
 40
0.6059993946649751
 40
0.7313057411264476
 40
0.8627578173791413
 40
0.9999999999999999
 40
0.9999999999999999
 40
0.9999999999999999
 40
0.9999999999999999
 10
349.8217529755067
 20
138.3242003226979
 30
0.0
 10
349.846091626446
 20
138.3526543063605
 30
0.0
 10
349.8941372979697
 20
138.4088238432837
 30
0.0
 10
349.9772106914145
 20
138.4811876534093
 30
0.0
 10
350.0668472162793
 20
138.5431027190558
 30
0.0
 10
350.1643087885245
 20
138.5924966028924
 30
0.0
 10
350.2679233921774
 20
138.6325887158798
 30
0.0
 10
350.3792384759153
 20
138.6592743574757
 30
0.0
 10
350.4970837209452
 20
138.6766850294021
 30
0.0
 10
350.5781983115377
 20
138.6786602038872
 30
0.0
 10
350.6196295780708
 20
138.6796690726979
 30
0.0
  0
SPLINE
  5
3BF
330
1F
100
AcDbEntity
  8
0
  6
Continuous
 62
     7
100
AcDbSpline
210
0.0
220
0.0
230
1.0
 70
     8
 71
     3
 72
    31
 73
    27
 74
     0
 42
0.00000001
 43
0.00000001
 40
0.0
 40
0.0
 40
0.0
 40
0.0
 40
0.0524090873855963
 40
0.102698322153286
 40
0.1514279672376019
 40
0.1995928164806957
 40
0.247224780243761
 40
0.2954960320817208
 40
0.3447701203765942
 40
0.3959133262698073
 40
0.4224655340784647
 40
0.4502083595166754
 40
0.4790082724968151
 40
0.508969430342138
 40
0.540573668102645
 40
0.5736803336909921
 40
0.6083846692608424
 40
0.6445548787253526
 40
0.682462328374953
 40
0.7222194592881596
 40
0.7638231652842276
 40
0.8073533175626676
 40
0.8525223229992451
 40
0.8996752531256802
 40
0.9488233660788434
 40
1.0
 40
1.0
 40
1.0
 40
1.0
 10
350.6196295780708
 20
135.1347972778261
 30
0.0
 10
350.5777261239431
 20
135.1360030350502
 30
0.0
 10
350.4956141344769
 20
135.1383657788035
 30
0.0
 10
350.3757270704553
 20
135.1570959222678
 30
0.0
 10
350.2617689136724
 20
135.1871014959116
 30
0.0
 10
350.1541487715609
 20
135.2299414550833
 30
0.0
 10
350.0530206294378
 20
135.285458899089
 30
0.0
 10
349.9575944346499
 20
135.3520090040429
 30
0.0
 10
349.8699462731257
 20
135.4326051774142
 30
0.0
 10
349.801327326887
 20
135.507635768434
 30
0.0
 10
349.7511254989222
 20
135.5754314249831
 30
0.0
 10
349.7157184632209
 20
135.631650009052
 30
0.0
 10
349.681501336691
 20
135.6918061380542
 30
0.0
 10
349.6519678434652
 20
135.7577805940549
 30
0.0
 10
349.6228304283088
 20
135.8276220509803
 30
0.0
 10
349.5970238348293
 20
135.9028356878463
 30
0.0
 10
349.5742557340679
 20
135.9827747408203
 30
0.0
 10
349.5528779359545
 20
136.0670741844173
 30
0.0
 10
349.5350520020562
 20
136.1563146782624
 30
0.0
 10
349.5186547593942
 20
136.2502328695816
 30
0.0
 10
349.5057328478347
 20
136.3492281684866
 30
0.0
 10
349.4942762419376
 20
136.4527491845223
 30
0.0
 10
349.4862101356413
 20
136.5610402900246
 30
0.0
 10
349.4796594281655
 20
136.6739242724601
 30
0.0
 10
349.4763746999556
 20
136.7917624691299
 30
0.0
 10
349.4757284614287
 20
136.8719418591336
 30
0.0
 10
349.47539880884
 20
136.912842149621
 30
0.0
  0
LINE
  5
3C0
330
1F
100
AcDbEntity
  8
0
  6
Continuous
 62
     7
100
AcDbLine
 10
387.3766808601
 20
85.9527459958
 30
0.0
 11
387.3766808601
 21
85.2796690727
 31
0.0
  0
LINE
  5
3C1
330
1F
100
AcDbEntity
  8
0
  6
Continuous
 62
     7
100
AcDbLine
 10
387.3766808601
 20
85.2796690727
 30
0.0
 11
384.8848940011
 21
85.2796690727
 31
0.0
  0
SPLINE
  5
3C2
330
1F
100
AcDbEntity
  8
0
  6
Continuous
 62
     7
100
AcDbSpline
210
0.0
220
0.0
230
1.0
 70
     8
 71
     3
 72
    15
 73
    11
 74
     0
 42
0.00000001
 43
0.00000001
 40
0.0
 40
0.0
 40
0.0
 40
0.0
 40
0.1265666333059109
 40
0.2514162549880789
 40
0.3764123322389745
 40
0.5004673594429205
 40
0.624193387140662
 40
0.7481419589808758
 40
0.873873281015525
 40
1.0
 40
1.0
 40
1.0
 40
1.0
 10
384.8848940011477
 20
85.2796690726981
 30
0.0
 10
384.9158596210409
 20
85.2491580992695
 30
0.0
 10
384.9773707791051
 20
85.18855006636937
 30
0.0
 10
385.0632607814502
 20
85.09181242335659
 30
0.0
 10
385.142886919728
 20
84.99102912355926
 30
0.0
 10
385.2170350035363
 20
84.88656923568674
 30
0.0
 10
385.2833321096888
 20
84.77738491402731
 30
0.0
 10
385.3447182783571
 20
84.66477490743385
 30
0.0
 10
385.4004065665419
 20
84.54822052427038
 30
0.0
 10
385.4315816618031
 20
84.46751905312789
 30
0.0
 10
385.4471936806349
 20
84.427104970134
 30
0.0
  0
LINE
  5
3C3
330
1F
100
AcDbEntity
  8
0
  6
Continuous
 62
     7
100
AcDbLine
 10
385.4471936806
 20
84.4271049701
 30
0.0
 11
384.7741167576
 21
84.4271049701
 31
0.0
  0
SPLINE
  5
3C4
330
1F
100
AcDbEntity
  8
0
  6
Continuous
 62
     7
100
AcDbSpline
210
0.0
220
0.0
230
1.0
 70
     8
 71
     3
 72
    19
 73
    15
 74
     0
 42
0.00000001
 43
0.00000001
 40
0.0
 40
0.0
 40
0.0
 40
0.0
 40
0.1044728014505077
 40
0.218653445574486
 40
0.3428558890245144
 40
0.4792694623690642
 40
0.5495409926991597
 40
0.6174241096395666
 40
0.6835351858950294
 40
0.7485971287880163
 40
0.8121759604466019
 40
0.8748692871861434
 40
0.9374294362357404
 40
1.0
 40
1.0
 40
1.0
 40
1.0
 10
384.774116757558
 20
84.427104970134
 30
0.0
 10
384.7573093316898
 20
84.47192990192943
 30
0.0
 10
384.7221326969458
 20
84.56574499685014
 30
0.0
 10
384.6473102116572
 20
84.70418452785913
 30
0.0
 10
384.5546724259528
 20
84.84868413187353
 30
0.0
 10
384.4638162114608
 20
84.970072047996
 30
0.0
 10
384.3830377757139
 20
85.06644906325063
 30
0.0
 10
384.3181045884665
 20
85.13380926982727
 30
0.0
 10
384.2516096365416
 20
85.19622237435101
 30
0.0
 10
384.1814067064878
 20
85.25134239224569
 30
0.0
 10
384.1089151468069
 20
85.30061625019395
 30
0.0
 10
384.0342533851236
 20
85.34427503642748
 30
0.0
 10
383.9571855694603
 20
85.38270480434859
 30
0.0
 10
383.903517252185
 20
85.4028225191283
 30
0.0
 10
383.8766808601221
 20
85.41288221372375
 30
0.0
  0
LINE
  5
3C5
330
1F
100
AcDbEntity
  8
0
  6
Continuous
 62
     7
100
AcDbLine
 10
383.8766808601
 20
85.4128822137
 30
0.0
 11
383.8766808601
 21
85.9527459958
 31
0.0
  0
LINE
  5
3C6
330
1F
100
AcDbEntity
  8
0
  6
Continuous
 62
     7
100
AcDbLine
 10
383.8766808601
 20
85.9527459958
 30
0.0
 11
387.3766808601
 21
85.9527459958
 31
0.0
  0
LINE
  5
3C7
330
1F
100
AcDbEntity
  8
0
  6
Continuous
 62
     7
100
AcDbLine
 10
386.703603937
 20
89.5514639445
 30
0.0
 11
387.3766808601
 21
89.5514639445
 31
0.0
  0
LINE
  5
3C8
330
1F
100
AcDbEntity
  8
0
  6
Continuous
 62
     7
100
AcDbLine
 10
387.3766808601
 20
89.5514639445
 30
0.0
 11
387.3766808601
 21
87.263002406
 31
0.0
  0
SPLINE
  5
3C9
330
1F
100
AcDbEntity
  8
0
  6
Continuous
 62
     7
100
AcDbSpline
210
0.0
220
0.0
230
1.0
 70
     8
 71
     3
 72
    19
 73
    15
 74
     0
 42
0.00000001
 43
0.00000001
 40
0.0
 40
0.0
 40
0.0
 40
0.0
 40
0.0963580426684066
 40
0.192662056078407
 40
0.2894567021899964
 40
0.3884816749512072
 40
0.4419241177646079
 40
0.5015241676347502
 40
0.5678862459121963
 40
0.6406005200831536
 40
0.7203689501142869
 40
0.8066357347208948
 40
0.9000153268180245
 40
0.9999999999999999
 40
0.9999999999999999
 40
0.9999999999999999
 40
0.9999999999999999
 10
387.3766808601221
 20
87.26300240603143
 30
0.0
 10
387.3191566489238
 20
87.2707505806568
 30
0.0
 10
387.2041404811308
 20
87.28624258540118
 30
0.0
 10
387.0361312112191
 20
87.33413887494967
 30
0.0
 10
386.8721812467613
 20
87.39806199806614
 30
0.0
 10
386.7387710082536
 20
87.46744487415076
 30
0.0
 10
386.6313676094339
 20
87.53643815840057
 30
0.0
 10
386.5434024217972
 20
87.59908531553513
 30
0.0
 10
386.4497628379892
 20
87.67348850838157
 30
0.0
 10
386.350396007648
 20
87.75991453202572
 30
0.0
 10
386.2429911795674
 20
87.85533436561212
 30
0.0
 10
386.1300667427297
 20
87.96314093048586
 30
0.0
 10
386.0112375002784
 20
88.08227558805935
 30
0.0
 10
385.9305976267181
 20
88.16614808890327
 30
0.0
 10
385.8889004114041
 20
88.20951682910835
 30
0.0
  0
SPLINE
  5
3CA
330
1F
100
AcDbEntity
  8
0
  6
Continuous
 62
     7
100
AcDbSpline
210
0.0
220
0.0
230
1.0
 70
     8
 71
     3
 72
    15
 73
    11
 74
     0
 42
0.00000001
 43
0.00000001
 40
0.0
 40
0.0
 40
0.0
 40
0.0
 40
0.1850866921030305
 40
0.352350549351381
 40
0.5030703526652793
 40
0.6366244131366033
 40
0.7524777767860172
 40
0.8518884843638648
 40
0.9343406303412675
 40
0.9999999999999999
 40
0.9999999999999999
 40
0.9999999999999999
 40
0.9999999999999999
 10
385.8889004114041
 20
88.20951682910835
 30
0.0
 10
385.8554915032667
 20
88.24411520861769
 30
0.0
 10
385.7918907818874
 20
88.30998033316158
 30
0.0
 10
385.7009101824453
 20
88.4038689722451
 30
0.0
 10
385.6170731916682
 20
88.48596115182687
 30
0.0
 10
385.5436560362155
 20
88.55962012615926
 30
0.0
 10
385.4764025986102
 20
88.62043145965667
 30
0.0
 10
385.4185376594356
 20
88.67176424929215
 30
0.0
 10
385.3690644705962
 20
88.71294982323164
 30
0.0
 10
385.3377003045506
 20
88.73527631516316
 30
0.0
 10
385.3237962447374
 20
88.74517388039041
 30
0.0
  0
SPLINE
  5
3CB
330
1F
100
AcDbEntity
  8
0
  6
Continuous
 62
     7
100
AcDbSpline
210
0.0
220
0.0
230
1.0
 70
     8
 71
     3
 72
    11
 73
     7
 74
     0
 42
0.00000001
 43
0.00000001
 40
0.0
 40
0.0
 40
0.0
 40
0.0
 40
0.2727955500866091
 40
0.5261910092278153
 40
0.7669044194616206
 40
0.9999999999999999
 40
0.9999999999999999
 40
0.9999999999999999
 40
0.9999999999999999
 10
385.3237962447374
 20
88.74517388039041
 30
0.0
 10
385.2901342006268
 20
88.7654387083555
 30
0.0
 10
385.2252040177202
 20
88.80452721355802
 30
0.0
 10
385.1231001308702
 20
88.84739100236635
 30
0.0
 10
385.0210173350582
 20
88.87311944614642
 30
0.0
 10
384.9528061949329
 20
88.87665008468466
 30
0.0
 10
384.9192489690965
 20
88.87838702141605
 30
0.0
  0
SPLINE
  5
3CC
330
1F
100
AcDbEntity
  8
0
  6
Continuous
 62
     7
100
AcDbSpline
210
0.0
220
0.0
230
1.0
 70
     8
 71
     3
 72
    15
 73
    11
 74
     0
 42
0.00000001
 43
0.00000001
 40
0.0
 40
0.0
 40
0.0
 40
0.0
 40
0.1490739315748816
 40
0.2820362516314176
 40
0.4053878649764532
 40
0.521790037310222
 40
0.6350463849444394
 40
0.748908221570802
 40
0.8687689701686576
 40
1.0
 40
1.0
 40
1.0
 40
1.0
 10
384.9192489690964
 20
88.87838702141605
 30
0.0
 10
384.8843224707912
 20
88.87713863240688
 30
0.0
 10
384.8182442600636
 20
88.8747767777687
 30
0.0
 10
384.7248730065201
 20
88.85457861570912
 30
0.0
 10
384.6443040407837
 20
88.81949182922553
 30
0.0
 10
384.5769360166861
 20
88.7704048082634
 30
0.0
 10
384.5240029020663
 20
88.70891016349808
 30
0.0
 10
384.4860470030795
 20
88.63631984298931
 30
0.0
 10
384.464271237509
 20
88.55289727786511
 30
0.0
 10
384.4614754096401
 20
88.49406901907355
 30
0.0
 10
384.4600141934554
 20
88.46332291885194
 30
0.0
  0
SPLINE
  5
3CD
330
1F
100
AcDbEntity
  8
0
  6
Continuous
 62
     7
100
AcDbSpline
210
0.0
220
0.0
230
1.0
 70
     8
 71
     3
 72
    19
 73
    15
 74
     0
 42
0.00000001
 43
0.00000001
 40
0.0
 40
0.0
 40
0.0
 40
0.0
 40
0.1168789425891921
 40
0.2257848828927954
 40
0.3300293635824534
 40
0.4347845767396021
 40
0.4896303961209828
 40
0.5483216779436231
 40
0.6108337112499016
 40
0.6777304768539386
 40
0.749231697197938
 40
0.8268884690772798
 40
0.9101270386610898
 40
1.0
 40
1.0
 40
1.0
 40
1.0
 10
384.4600141934554
 20
88.46332291885194
 30
0.0
 10
384.4614008802419
 20
88.43279806175256
 30
0.0
 10
384.4640796597273
 20
88.37383062815996
 30
0.0
 10
384.4873720249033
 20
88.28997669352852
 30
0.0
 10
384.5278770234315
 20
88.21693616049971
 30
0.0
 10
384.5732385430839
 20
88.16432325347381
 30
0.0
 10
384.6180500472535
 20
88.12892725903855
 30
0.0
 10
384.657551771363
 20
88.10529329054108
 30
0.0
 10
384.7019742762413
 20
88.0843151411082
 30
0.0
 10
384.7511607506436
 20
88.06599425365731
 30
0.0
 10
384.8056927490924
 20
88.0514704195026
 30
0.0
 10
384.8652030461108
 20
88.0397896595123
 30
0.0
 10
384.9299975277311
 20
88.0303719293071
 30
0.0
 10
384.9750738235214
 20
88.02737750877188
 30
0.0
 10
384.9984757319169
 20
88.02582291885194
 30
0.0
  0
LINE
  5
3CE
330
1F
100
AcDbEntity
  8
0
  6
Continuous
 62
     7
100
AcDbLine
 10
384.9984757319
 20
88.0258229189
 30
0.0
 11
384.9325702832
 21
87.3527459958
 31
0.0
  0
SPLINE
  5
3CF
330
1F
100
AcDbEntity
  8
0
  6
Continuous
 62
     7
100
AcDbSpline
210
0.0
220
0.0
230
1.0
 70
     8
 71
     3
 72
    23
 73
    19
 74
     0
 42
0.00000001
 43
0.00000001
 40
0.0
 40
0.0
 40
0.0
 40
0.0
 40
0.0794277383747645
 40
0.1539976939993291
 40
0.2241189499674183
 40
0.2899050271283511
 40
0.3526968565844614
 40
0.4126842950548505
 40
0.4705649759878925
 40
0.5274252800728543
 40
0.5837531208169108
 40
0.6399844070010045
 40
0.6966154639853035
 40
0.7537516678721115
 40
0.812725863065822
 40
0.8729762494242105
 40
0.9350413902325087
 40
1.0
 40
1.0
 40
1.0
 40
1.0
 10
384.932570283199
 20
87.35274599577502
 30
0.0
 10
384.8871290280489
 20
87.35815733796508
 30
0.0
 10
384.7990256947711
 20
87.3686490658647
 30
0.0
 10
384.6724802268726
 20
87.39483304471311
 30
0.0
 10
384.5557316038715
 20
87.42798816969608
 30
0.0
 10
384.4490177359011
 20
87.4697199734715
 30
0.0
 10
384.3515866008501
 20
87.51821896662051
 30
0.0
 10
384.2650064474643
 20
87.57635796513901
 30
0.0
 10
384.1875961575581
 20
87.64100845397387
 30
0.0
 10
384.1208063545083
 20
87.7138223179259
 30
0.0
 10
384.0634092322896
 20
87.79291525234324
 30
0.0
 10
384.0133222956205
 20
87.87665055288237
 30
0.0
 10
383.9712557359662
 20
87.96523005094585
 30
0.0
 10
383.9368063141438
 20
88.05866792068159
 30
0.0
 10
383.9092044036172
 20
88.15657754994976
 30
0.0
 10
383.890971416251
 20
88.25947649622533
 30
0.0
 10
383.8781413354159
 20
88.36671175480527
 30
0.0
 10
383.8771750224217
 20
88.439911682025
 30
0.0
 10
383.8766808601221
 20
88.47734535474939
 30
0.0
  0
SPLINE
  5
3D0
330
1F
100
AcDbEntity
  8
0
  6
Continuous
 62
     7
100
AcDbSpline
210
0.0
220
0.0
230
1.0
 70
     8
 71
     3
 72
    15
 73
    11
 74
     0
 42
0.00000001
 43
0.00000001
 40
0.0
 40
0.0
 40
0.0
 40
0.0
 40
0.1191762436674494
 40
0.2364273787594476
 40
0.3526638478564011
 40
0.4690860844274166
 40
0.5894629077907652
 40
0.7176014692905088
 40
0.8541894668533108
 40
1.0
 40
1.0
 40
1.0
 40
1.0
 10
384.8288042575579
 20
89.55146394449297
 30
0.0
 10
384.8669558638517
 20
89.55060763086341
 30
0.0
 10
384.9426427960279
 20
89.54890883603144
 30
0.0
 10
385.0545306933856
 20
89.53264413588406
 30
0.0
 10
385.163838470089
 20
89.50779484051674
 30
0.0
 10
385.2708332639898
 20
89.47106953866117
 30
0.0
 10
385.3780816320765
 20
89.42451736766279
 30
0.0
 10
385.4858243029864
 20
89.36451050287651
 30
0.0
 10
385.5973106045179
 20
89.29483799468514
 30
0.0
 10
385.6693913632233
 20
89.24028716676348
 30
0.0
 10
385.7066087447374
 20
89.21212099577502
 30
0.0
  0
SPLINE
  5
3D1
330
1F
100
AcDbEntity
  8
0
  6
Continuous
 62
     7
100
AcDbSpline
210
0.0
220
0.0
230
1.0
 70
     8
 71
     3
 72
    25
 73
    21
 74
     0
 42
0.00000001
 43
0.00000001
 40
0.0
 40
0.0
 40
0.0
 40
0.0
 40
0.0369764070058792
 40
0.0791948934303632
 40
0.1267046896577422
 40
0.179189375717464
 40
0.2373756600360388
 40
0.3005674250208777
 40
0.3691640488287355
 40
0.4431254775314267
 40
0.5160336440692213
 40
0.5824903983528175
 40
0.6421557911455162
 40
0.6946404772052348
 40
0.7407013291512952
 40
0.77961208091607
 40
0.8120977982148219
 40
0.8378388636946156
 40
0.9229866473460309
 40
1.0
 40
1.0
 40
1.0
 40
1.0
 10
385.7066087447374
 20
89.21212099577502
 30
0.0
 10
385.7200168792334
 20
89.20147541975942
 30
0.0
 10
385.7487339955919
 20
89.17867506336121
 30
0.0
 10
385.7927672524826
 20
89.1398856656506
 30
0.0
 10
385.8408654499958
 20
89.09493209002383
 30
0.0
 10
385.8939288753072
 20
89.0444492858912
 30
0.0
 10
385.9500784075014
 20
88.98676970736942
 30
0.0
 10
386.0116621760574
 20
88.92396866865501
 30
0.0
 10
386.0755299677804
 20
88.85328274238717
 30
0.0
 10
386.1432749694952
 20
88.78006924768312
 30
0.0
 10
386.2092102385248
 20
88.70653753216546
 30
0.0
 10
386.2718340879532
 20
88.63895123469881
 30
0.0
 10
386.3272428655446
 20
88.577560545615
 30
0.0
 10
386.3784948728353
 20
88.52522388561462
 30
0.0
 10
386.4220937494907
 20
88.47886488831948
 30
0.0
 10
386.4602704619999
 20
88.44014844489898
 30
0.0
 10
386.4921142166808
 20
88.40836765427844
 30
0.0
 10
386.5418397503853
 20
88.3643947237951
 30
0.0
 10
386.6094018308159
 20
88.30925472296175
 30
0.0
 10
386.6732711868453
 20
88.26967850172089
 30
0.0
 10
386.7036039370452
 20
88.2508830150058
 30
0.0
  0
LINE
  5
3D2
330
1F
100
AcDbEntity
  8
0
  6
Continuous
 62
     7
100
AcDbLine
 10
386.703603937
 20
88.250883015
 30
0.0
 11
386.703603937
 21
89.5514639445
 31
0.0
  0
SPLINE
  5
3D3
330
1F
100
AcDbEntity
  8
0
  6
Continuous
 62
     7
100
AcDbSpline
210
0.0
220
0.0
230
1.0
 70
     8
 71
     3
 72
    23
 73
    19
 74
     0
 42
0.00000001
 43
0.00000001
 40
0.0
 40
0.0
 40
0.0
 40
0.0
 40
0.0756649543381273
 40
0.1473669987359344
 40
0.2160636941106696
 40
0.2816706840027644
 40
0.3454263375445112
 40
0.4074460410080251
 40
0.468440097919626
 40
0.5294852276222551
 40
0.5897299452606303
 40
0.6485822482776834
 40
0.705982066519222
 40
0.7631246478545245
 40
0.8203068794187185
 40
0.8784910631301129
 40
0.9382320535526102
 40
1.0
 40
1.0
 40
1.0
 40
1.0
 10
383.8766808601221
 20
88.47734535474939
 30
0.0
 10
383.8774628989631
 20
88.5180405982039
 30
0.0
 10
383.8789860177954
 20
88.59729969434927
 30
0.0
 10
383.8915669738188
 20
88.71300273394893
 30
0.0
 10
383.9134962796247
 20
88.8217017851195
 30
0.0
 10
383.9425687931117
 20
88.92432717548137
 30
0.0
 10
383.9812971986364
 20
89.01989565143732
 30
0.0
 10
384.0283554358915
 20
89.10883267377827
 30
0.0
 10
384.084223620232
 20
89.19079209910076
 30
0.0
 10
384.1479665633403
 20
89.26547770302307
 30
0.0
 10
384.2178251122346
 20
89.33283317925512
 30
0.0
 10
384.2930133847429
 20
89.39105920667946
 30
0.0
 10
384.3722186688721
 20
89.44050723586054
 30
0.0
 10
384.4550724558469
 20
89.48174100397738
 30
0.0
 10
384.5428596270207
 20
89.5124001695523
 30
0.0
 10
384.6344206972568
 20
89.53472822206695
 30
0.0
 10
384.7301680649659
 20
89.54953557283686
 30
0.0
 10
384.7955619034132
 20
89.55081404498011
 30
0.0
 10
384.8288042575579
 20
89.55146394449297
 30
0.0
  0
LINE
  5
3D4
330
1F
100
AcDbEntity
  8
0
  6
Continuous
 62
     7
100
AcDbLine
 10
386.703603937
 20
92.5668485599
 30
0.0
 11
387.3766808601
 21
92.5668485599
 31
0.0
  0
LINE
  5
3D5
330
1F
100
AcDbEntity
  8
0
  6
Continuous
 62
     7
100
AcDbLine
 10
387.3766808601
 20
92.5668485599
 30
0.0
 11
387.3766808601
 21
90.2783870214
 31
0.0
  0
SPLINE
  5
3D6
330
1F
100
AcDbEntity
  8
0
  6
Continuous
 62
     7
100
AcDbSpline
210
0.0
220
0.0
230
1.0
 70
     8
 71
     3
 72
    19
 73
    15
 74
     0
 42
0.00000001
 43
0.00000001
 40
0.0
 40
0.0
 40
0.0
 40
0.0
 40
0.0963580426684066
 40
0.192662056078407
 40
0.2894567021899965
 40
0.3884816749512072
 40
0.4419241177646079
 40
0.5015241676347502
 40
0.5678862459121962
 40
0.6406005200831535
 40
0.7203689501142868
 40
0.8066357347208948
 40
0.9000153268180247
 40
1.0
 40
1.0
 40
1.0
 40
1.0
 10
387.3766808601221
 20
90.27838702141605
 30
0.0
 10
387.3191566489238
 20
90.28613519604143
 30
0.0
 10
387.2041404811308
 20
90.3016272007858
 30
0.0
 10
387.0361312112191
 20
90.3495234903343
 30
0.0
 10
386.8721812467613
 20
90.41344661345076
 30
0.0
 10
386.7387710082536
 20
90.48282948953539
 30
0.0
 10
386.6313676094339
 20
90.55182277378518
 30
0.0
 10
386.5434024217972
 20
90.61446993091975
 30
0.0
 10
386.4497628379892
 20
90.68887312376619
 30
0.0
 10
386.350396007648
 20
90.77529914741034
 30
0.0
 10
386.2429911795674
 20
90.87071898099673
 30
0.0
 10
386.1300667427297
 20
90.97852554587048
 30
0.0
 10
386.0112375002784
 20
91.09766020344397
 30
0.0
 10
385.9305976267181
 20
91.1815327042879
 30
0.0
 10
385.8889004114041
 20
91.22490144449297
 30
0.0
  0
SPLINE
  5
3D7
330
1F
100
AcDbEntity
  8
0
  6
Continuous
 62
     7
100
AcDbSpline
210
0.0
220
0.0
230
1.0
 70
     8
 71
     3
 72
    15
 73
    11
 74
     0
 42
0.00000001
 43
0.00000001
 40
0.0
 40
0.0
 40
0.0
 40
0.0
 40
0.1850866921030304
 40
0.352350549351381
 40
0.5030703526652794
 40
0.6366244131366039
 40
0.7524777767860175
 40
0.8518884843638652
 40
0.9343406303412679
 40
1.0
 40
1.0
 40
1.0
 40
1.0
 10
385.8889004114041
 20
91.22490144449297
 30
0.0
 10
385.8554915032667
 20
91.2594998240023
 30
0.0
 10
385.7918907818874
 20
91.3253649485462
 30
0.0
 10
385.7009101824453
 20
91.41925358762973
 30
0.0
 10
385.6170731916682
 20
91.50134576721149
 30
0.0
 10
385.5436560362155
 20
91.57500474154386
 30
0.0
 10
385.4764025986102
 20
91.63581607504129
 30
0.0
 10
385.4185376594356
 20
91.68714886467677
 30
0.0
 10
385.3690644705962
 20
91.72833443861626
 30
0.0
 10
385.3377003045506
 20
91.75066093054778
 30
0.0
 10
385.3237962447374
 20
91.76055849577503
 30
0.0
  0
SPLINE
  5
3D8
330
1F
100
AcDbEntity
  8
0
  6
Continuous
 62
     7
100
AcDbSpline
210
0.0
220
0.0
230
1.0
 70
     8
 71
     3
 72
    11
 73
     7
 74
     0
 42
0.00000001
 43
0.00000001
 40
0.0
 40
0.0
 40
0.0
 40
0.0
 40
0.2727955500866093
 40
0.5261910092278154
 40
0.7669044194616207
 40
1.0
 40
1.0
 40
1.0
 40
1.0
 10
385.3237962447374
 20
91.76055849577503
 30
0.0
 10
385.2901342006269
 20
91.78082332374012
 30
0.0
 10
385.2252040177202
 20
91.81991182894264
 30
0.0
 10
385.1231001308702
 20
91.86277561775097
 30
0.0
 10
385.0210173350582
 20
91.88850406153102
 30
0.0
 10
384.9528061949329
 20
91.89203470006926
 30
0.0
 10
384.9192489690965
 20
91.89377163680066
 30
0.0
  0
SPLINE
  5
3D9
330
1F
100
AcDbEntity
  8
0
  6
Continuous
 62
     7
100
AcDbSpline
210
0.0
220
0.0
230
1.0
 70
     8
 71
     3
 72
    15
 73
    11
 74
     0
 42
0.00000001
 43
0.00000001
 40
0.0
 40
0.0
 40
0.0
 40
0.0
 40
0.1490739315748816
 40
0.2820362516314176
 40
0.4053878649764531
 40
0.521790037310222
 40
0.6350463849444395
 40
0.748908221570802
 40
0.8687689701686576
 40
1.0
 40
1.0
 40
1.0
 40
1.0
 10
384.9192489690964
 20
91.89377163680066
 30
0.0
 10
384.8843224707912
 20
91.8925232477915
 30
0.0
 10
384.8182442600636
 20
91.89016139315332
 30
0.0
 10
384.7248730065201
 20
91.86996323109373
 30
0.0
 10
384.6443040407837
 20
91.83487644461013
 30
0.0
 10
384.5769360166861
 20
91.78578942364801
 30
0.0
 10
384.5240029020663
 20
91.7242947788827
 30
0.0
 10
384.4860470030795
 20
91.65170445837393
 30
0.0
 10
384.464271237509
 20
91.56828189324972
 30
0.0
 10
384.4614754096401
 20
91.50945363445815
 30
0.0
 10
384.4600141934554
 20
91.47870753423656
 30
0.0
  0
SPLINE
  5
3DA
330
1F
100
AcDbEntity
  8
0
  6
Continuous
 62
     7
100
AcDbSpline
210
0.0
220
0.0
230
1.0
 70
     8
 71
     3
 72
    19
 73
    15
 74
     0
 42
0.00000001
 43
0.00000001
 40
0.0
 40
0.0
 40
0.0
 40
0.0
 40
0.1168789425891921
 40
0.2257848828927954
 40
0.3300293635824531
 40
0.434784576739602
 40
0.489630396120983
 40
0.5483216779436231
 40
0.6108337112499015
 40
0.6777304768539386
 40
0.749231697197938
 40
0.8268884690772798
 40
0.9101270386610898
 40
1.0
 40
1.0
 40
1.0
 40
1.0
 10
384.4600141934554
 20
91.47870753423656
 30
0.0
 10
384.4614008802419
 20
91.44818267713718
 30
0.0
 10
384.4640796597273
 20
91.38921524354458
 30
0.0
 10
384.4873720249033
 20
91.30536130891313
 30
0.0
 10
384.5278770234315
 20
91.23232077588433
 30
0.0
 10
384.5732385430839
 20
91.17970786885843
 30
0.0
 10
384.6180500472535
 20
91.14431187442317
 30
0.0
 10
384.657551771363
 20
91.12067790592569
 30
0.0
 10
384.7019742762413
 20
91.09969975649284
 30
0.0
 10
384.7511607506436
 20
91.08137886904193
 30
0.0
 10
384.8056927490924
 20
91.06685503488723
 30
0.0
 10
384.8652030461108
 20
91.05517427489691
 30
0.0
 10
384.9299975277311
 20
91.04575654469171
 30
0.0
 10
384.9750738235214
 20
91.0427621241565
 30
0.0
 10
384.9984757319169
 20
91.04120753423656
 30
0.0
  0
LINE
  5
3DB
330
1F
100
AcDbEntity
  8
0
  6
Continuous
 62
     7
100
AcDbLine
 10
384.9984757319
 20
91.0412075342
 30
0.0
 11
384.9325702832
 21
90.3681306112
 31
0.0
  0
SPLINE
  5
3DC
330
1F
100
AcDbEntity
  8
0
  6
Continuous
 62
     7
100
AcDbSpline
210
0.0
220
0.0
230
1.0
 70
     8
 71
     3
 72
    23
 73
    19
 74
     0
 42
0.00000001
 43
0.00000001
 40
0.0
 40
0.0
 40
0.0
 40
0.0
 40
0.0756649543381274
 40
0.1473669987359344
 40
0.2160636941106694
 40
0.2816706840027643
 40
0.3454263375445112
 40
0.407446041008025
 40
0.4684400979196259
 40
0.529485227622255
 40
0.5897299452606303
 40
0.6485822482776834
 40
0.7059820665192218
 40
0.7631246478545244
 40
0.8203068794187184
 40
0.8784910631301128
 40
0.9382320535526101
 40
1.0
 40
1.0
 40
1.0
 40
1.0
 10
383.8766808601221
 20
91.492729970134
 30
0.0
 10
383.8774628989631
 20
91.53342521358853
 30
0.0
 10
383.8789860177954
 20
91.6126843097339
 30
0.0
 10
383.8915669738188
 20
91.72838734933354
 30
0.0
 10
383.9134962796247
 20
91.83708640050412
 30
0.0
 10
383.9425687931118
 20
91.93971179086597
 30
0.0
 10
383.9812971986364
 20
92.03528026682194
 30
0.0
 10
384.0283554358915
 20
92.12421728916289
 30
0.0
 10
384.084223620232
 20
92.20617671448538
 30
0.0
 10
384.1479665633403
 20
92.28086231840769
 30
0.0
 10
384.2178251122346
 20
92.34821779463972
 30
0.0
 10
384.2930133847429
 20
92.40644382206408
 30
0.0
 10
384.3722186688721
 20
92.45589185124517
 30
0.0
 10
384.4550724558468
 20
92.497125619362
 30
0.0
 10
384.5428596270207
 20
92.52778478493691
 30
0.0
 10
384.6344206972568
 20
92.55011283745156
 30
0.0
 10
384.7301680649659
 20
92.56492018822148
 30
0.0
 10
384.7955619034132
 20
92.56619866036473
 30
0.0
 10
384.8288042575579
 20
92.5668485598776
 30
0.0
  0
SPLINE
  5
3DD
330
1F
100
AcDbEntity
  8
0
  6
Continuous
 62
     7
100
AcDbSpline
210
0.0
220
0.0
230
1.0
 70
     8
 71
     3
 72
    15
 73
    11
 74
     0
 42
0.00000001
 43
0.00000001
 40
0.0
 40
0.0
 40
0.0
 40
0.0
 40
0.1191762436674494
 40
0.2364273787594476
 40
0.3526638478564011
 40
0.4690860844274164
 40
0.5894629077907649
 40
0.7176014692905088
 40
0.8541894668533108
 40
1.0
 40
1.0
 40
1.0
 40
1.0
 10
384.8288042575579
 20
92.5668485598776
 30
0.0
 10
384.8669558638517
 20
92.56599224624802
 30
0.0
 10
384.9426427960279
 20
92.56429345141606
 30
0.0
 10
385.0545306933856
 20
92.54802875126867
 30
0.0
 10
385.163838470089
 20
92.52317945590136
 30
0.0
 10
385.2708332639898
 20
92.48645415404579
 30
0.0
 10
385.3780816320765
 20
92.43990198304739
 30
0.0
 10
385.4858243029864
 20
92.37989511826115
 30
0.0
 10
385.5973106045179
 20
92.31022261006977
 30
0.0
 10
385.6693913632233
 20
92.2556717821481
 30
0.0
 10
385.7066087447374
 20
92.22750561115964
 30
0.0
  0
SPLINE
  5
3DE
330
1F
100
AcDbEntity
  8
0
  6
Continuous
 62
     7
100
AcDbSpline
210
0.0
220
0.0
230
1.0
 70
     8
 71
     3
 72
    25
 73
    21
 74
     0
 42
0.00000001
 43
0.00000001
 40
0.0
 40
0.0
 40
0.0
 40
0.0
 40
0.0369764070058792
 40
0.0791948934303632
 40
0.1267046896577422
 40
0.179189375717464
 40
0.2373756600360388
 40
0.3005674250208776
 40
0.3691640488287355
 40
0.4431254775314266
 40
0.5160336440692213
 40
0.5824903983528174
 40
0.6421557911455162
 40
0.6946404772052349
 40
0.7407013291512952
 40
0.7796120809160699
 40
0.812097798214822
 40
0.8378388636946156
 40
0.9229866473460309
 40
1.0
 40
1.0
 40
1.0
 40
1.0
 10
385.7066087447374
 20
92.22750561115964
 30
0.0
 10
385.7200168792334
 20
92.21686003514405
 30
0.0
 10
385.7487339955919
 20
92.19405967874583
 30
0.0
 10
385.7927672524826
 20
92.1552702810352
 30
0.0
 10
385.8408654499958
 20
92.11031670540845
 30
0.0
 10
385.8939288753072
 20
92.05983390127581
 30
0.0
 10
385.9500784075014
 20
92.00215432275405
 30
0.0
 10
386.0116621760574
 20
91.93935328403963
 30
0.0
 10
386.0755299677805
 20
91.86866735777178
 30
0.0
 10
386.1432749694952
 20
91.79545386306772
 30
0.0
 10
386.2092102385248
 20
91.72192214755006
 30
0.0
 10
386.2718340879532
 20
91.65433585008343
 30
0.0
 10
386.3272428655446
 20
91.5929451609996
 30
0.0
 10
386.3784948728353
 20
91.54060850099924
 30
0.0
 10
386.4220937494907
 20
91.4942495037041
 30
0.0
 10
386.4602704619999
 20
91.45553306028359
 30
0.0
 10
386.4921142166807
 20
91.42375226966305
 30
0.0
 10
386.5418397503853
 20
91.37977933917972
 30
0.0
 10
386.6094018308159
 20
91.32463933834637
 30
0.0
 10
386.6732711868453
 20
91.28506311710551
 30
0.0
 10
386.7036039370452
 20
91.2662676303904
 30
0.0
  0
LINE
  5
3DF
330
1F
100
AcDbEntity
  8
0
  6
Continuous
 62
     7
100
AcDbLine
 10
386.703603937
 20
91.2662676304
 30
0.0
 11
386.703603937
 21
92.5668485599
 31
0.0
  0
SPLINE
  5
3E0
330
1F
100
AcDbEntity
  8
0
  6
Continuous
 62
     7
100
AcDbSpline
210
0.0
220
0.0
230
1.0
 70
     8
 71
     3
 72
    23
 73
    19
 74
     0
 42
0.00000001
 43
0.00000001
 40
0.0
 40
0.0
 40
0.0
 40
0.0
 40
0.0794277383747645
 40
0.1539976939993291
 40
0.2241189499674183
 40
0.2899050271283511
 40
0.3526968565844613
 40
0.4126842950548505
 40
0.4705649759878925
 40
0.5274252800728542
 40
0.5837531208169107
 40
0.6399844070010043
 40
0.6966154639853033
 40
0.7537516678721113
 40
0.8127258630658218
 40
0.8729762494242105
 40
0.9350413902325087
 40
1.0
 40
1.0
 40
1.0
 40
1.0
 10
384.932570283199
 20
90.36813061115964
 30
0.0
 10
384.8871290280489
 20
90.37354195334969
 30
0.0
 10
384.7990256947711
 20
90.3840336812493
 30
0.0
 10
384.6724802268726
 20
90.41021766009774
 30
0.0
 10
384.5557316038715
 20
90.44337278508068
 30
0.0
 10
384.4490177359011
 20
90.48510458885612
 30
0.0
 10
384.3515866008501
 20
90.53360358200513
 30
0.0
 10
384.2650064474643
 20
90.59174258052361
 30
0.0
 10
384.1875961575581
 20
90.65639306935847
 30
0.0
 10
384.1208063545083
 20
90.72920693331054
 30
0.0
 10
384.0634092322896
 20
90.80829986772784
 30
0.0
 10
384.0133222956205
 20
90.892035168267
 30
0.0
 10
383.9712557359662
 20
90.98061466633047
 30
0.0
 10
383.9368063141438
 20
91.0740525360662
 30
0.0
 10
383.9092044036172
 20
91.17196216533436
 30
0.0
 10
383.890971416251
 20
91.27486111160994
 30
0.0
 10
383.8781413354159
 20
91.38209637018987
 30
0.0
 10
383.8771750224217
 20
91.45529629740963
 30
0.0
 10
383.8766808601221
 20
91.492729970134
 30
0.0
  0
LINE
  5
3E1
330
1F
100
AcDbEntity
  8
0
  6
Continuous
 62
     7
100
AcDbLine
 10
394.8766808601
 20
149.9296690727
 30
0.0
 11
386.8766808601
 21
149.9296690727
 31
0.0
  0
LINE
  5
3E2
330
1F
100
AcDbEntity
  8
0
  6
Continuous
 62
     7
100
AcDbLine
 10
394.8766808601
 20
149.4296690727
 30
0.0
 11
394.8766808601
 21
149.9296690727
 31
0.0
  0
LINE
  5
3E3
330
1F
100
AcDbEntity
  8
0
  6
Continuous
 62
     7
100
AcDbLine
 10
386.8766808601
 20
149.9296690727
 30
0.0
 11
386.8766808601
 21
149.4296690727
 31
0.0
  0
LINE
  5
3E4
330
1F
100
AcDbEntity
  8
0
  6
Continuous
 62
     7
100
AcDbLine
 10
386.8766808601
 20
149.4296690727
 30
0.0
 11
394.8766808601
 21
149.4296690727
 31
0.0
  0
LINE
  5
3E5
330
1F
100
AcDbEntity
  8
0
  6
Continuous
 62
     7
100
AcDbLine
 10
389.1266808601
 20
31.4296690727
 30
0.0
 11
389.1266808601
 21
65.1796690727
 31
0.0
  0
LINE
  5
3E6
330
1F
100
AcDbEntity
  8
0
  6
Continuous
 62
     7
100
AcDbLine
 10
389.8766808601
 20
31.4296690727
 30
0.0
 11
389.1266808601
 21
31.4296690727
 31
0.0
  0
LINE
  5
3E7
330
1F
100
AcDbEntity
  8
0
  6
Continuous
 62
     7
100
AcDbLine
 10
388.8766808601
 20
28.4296690727
 30
0.0
 11
389.8766808601
 21
31.4296690727
 31
0.0
  0
LINE
  5
3E8
330
1F
100
AcDbEntity
  8
0
  6
Continuous
 62
     7
100
AcDbLine
 10
388.6266808601
 20
31.4296690727
 30
0.0
 11
387.8766808601
 21
31.4296690727
 31
0.0
  0
LINE
  5
3E9
330
1F
100
AcDbEntity
  8
0
  6
Continuous
 62
     7
100
AcDbLine
 10
388.6266808601
 20
65.1796690727
 30
0.0
 11
388.6266808601
 21
31.4296690727
 31
0.0
  0
LINE
  5
3EA
330
1F
100
AcDbEntity
  8
0
  6
Continuous
 62
     7
100
AcDbLine
 10
389.1266808601
 20
65.1796690727
 30
0.0
 11
388.6266808601
 21
65.1796690727
 31
0.0
  0
LINE
  5
3EB
330
1F
100
AcDbEntity
  8
0
  6
Continuous
 62
     7
100
AcDbLine
 10
387.8766808601
 20
31.4296690727
 30
0.0
 11
388.8766808601
 21
28.4296690727
 31
0.0
  0
LINE
  5
3EC
330
1F
100
AcDbEntity
  8
0
  6
Continuous
 62
     7
100
AcDbLine
 10
389.1266808601
 20
145.4296690727
 30
0.0
 11
389.8766808601
 21
145.4296690727
 31
0.0
  0
LINE
  5
3ED
330
1F
100
AcDbEntity
  8
0
  6
Continuous
 62
     7
100
AcDbLine
 10
389.1266808601
 20
134.6796690727
 30
0.0
 11
389.1266808601
 21
145.4296690727
 31
0.0
  0
LINE
  5
3EE
330
1F
100
AcDbEntity
  8
0
  6
Continuous
 62
     7
100
AcDbLine
 10
388.6266808601
 20
134.6796690727
 30
0.0
 11
389.1266808601
 21
134.6796690727
 31
0.0
  0
LINE
  5
3EF
330
1F
100
AcDbEntity
  8
0
  6
Continuous
 62
     7
100
AcDbLine
 10
388.6266808601
 20
145.4296690727
 30
0.0
 11
388.6266808601
 21
134.6796690727
 31
0.0
  0
LINE
  5
3F0
330
1F
100
AcDbEntity
  8
0
  6
Continuous
 62
     7
100
AcDbLine
 10
389.8766808601
 20
145.4296690727
 30
0.0
 11
388.8766808601
 21
148.4296690727
 31
0.0
  0
LINE
  5
3F1
330
1F
100
AcDbEntity
  8
0
  6
Continuous
 62
     7
100
AcDbLine
 10
387.8766808601
 20
145.4296690727
 30
0.0
 11
388.6266808601
 21
145.4296690727
 31
0.0
  0
LINE
  5
3F2
330
1F
100
AcDbEntity
  8
0
  6
Continuous
 62
     7
100
AcDbLine
 10
388.8766808601
 20
148.4296690727
 30
0.0
 11
387.8766808601
 21
145.4296690727
 31
0.0
  0
LINE
  5
3F3
330
1F
100
AcDbEntity
  8
0
  6
Continuous
 62
     7
100
AcDbLine
 10
389.1266808601
 20
132.6796690727
 30
0.0
 11
388.6266808601
 21
132.6796690727
 31
0.0
  0
LINE
  5
3F4
330
1F
100
AcDbEntity
  8
0
  6
Continuous
 62
     7
100
AcDbLine
 10
389.1266808601
 20
111.6796690727
 30
0.0
 11
389.1266808601
 21
132.6796690727
 31
0.0
  0
LINE
  5
3F5
330
1F
100
AcDbEntity
  8
0
  6
Continuous
 62
     7
100
AcDbLine
 10
388.6266808601
 20
111.6796690727
 30
0.0
 11
389.1266808601
 21
111.6796690727
 31
0.0
  0
LINE
  5
3F6
330
1F
100
AcDbEntity
  8
0
  6
Continuous
 62
     7
100
AcDbLine
 10
388.6266808601
 20
132.6796690727
 30
0.0
 11
388.6266808601
 21
111.6796690727
 31
0.0
  0
LINE
  5
3F7
330
1F
100
AcDbEntity
  8
0
  6
Continuous
 62
     7
100
AcDbLine
 10
389.1266808601
 20
78.4296690727
 30
0.0
 11
389.1266808601
 21
98.4296690727
 31
0.0
  0
LINE
  5
3F8
330
1F
100
AcDbEntity
  8
0
  6
Continuous
 62
     7
100
AcDbLine
 10
388.6266808601
 20
78.4296690727
 30
0.0
 11
389.1266808601
 21
78.4296690727
 31
0.0
  0
LINE
  5
3F9
330
1F
100
AcDbEntity
  8
0
  6
Continuous
 62
     7
100
AcDbLine
 10
388.6266808601
 20
98.4296690727
 30
0.0
 11
388.6266808601
 21
78.4296690727
 31
0.0
  0
LINE
  5
3FA
330
1F
100
AcDbEntity
  8
0
  6
Continuous
 62
     7
100
AcDbLine
 10
389.1266808601
 20
98.4296690727
 30
0.0
 11
388.6266808601
 21
98.4296690727
 31
0.0
  0
LINE
  5
3FB
330
1F
100
AcDbEntity
  8
0
  6
Continuous
 62
     7
100
AcDbLine
 10
403.1266808601
 20
131.6796690727
 30
0.0
 11
403.1266808601
 21
141.6796690727
 31
0.0
  0
LINE
  5
3FC
330
1F
100
AcDbEntity
  8
0
  6
Continuous
 62
     7
100
AcDbLine
 10
402.6266808601
 20
141.6796690727
 30
0.0
 11
402.6266808601
 21
131.6796690727
 31
0.0
  0
LINE
  5
3FD
330
1F
100
AcDbEntity
  8
0
  6
Continuous
 62
     7
100
AcDbLine
 10
402.6266808601
 20
131.6796690727
 30
0.0
 11
403.1266808601
 21
131.6796690727
 31
0.0
  0
LINE
  5
3FE
330
1F
100
AcDbEntity
  8
0
  6
Continuous
 62
     7
100
AcDbLine
 10
403.1266808601
 20
141.6796690727
 30
0.0
 11
402.6266808601
 21
141.6796690727
 31
0.0
  0
ARC
  5
3FF
330
1F
100
AcDbEntity
  8
0
  6
Continuous
 62
     7
100
AcDbCircle
 10
322.6266808601
 20
53.4296690727
 30
0.0
 40
4.973817402607679
100
AcDbArc
 50
90.0
 51
270.0
  0
LINE
  5
400
330
1F
100
AcDbEntity
  8
0
  6
Continuous
 62
     7
100
AcDbLine
 10
372.6266808601
 20
48.4558516701
 30
0.0
 11
322.6266808601
 21
48.4558516701
 31
0.0
  0
ARC
  5
401
330
1F
100
AcDbEntity
  8
0
  6
Continuous
 62
     7
100
AcDbCircle
 10
372.6266808601
 20
53.4296690727
 30
0.0
 40
4.973817402607672
100
AcDbArc
 50
270.0
 51
90.0
  0
LINE
  5
402
330
1F
100
AcDbEntity
  8
0
  6
Continuous
 62
     7
100
AcDbLine
 10
322.6266808601
 20
58.4034864753
 30
0.0
 11
372.6266808601
 21
58.4034864753
 31
0.0
  0
ARC
  5
403
330
1F
100
AcDbEntity
  8
0
  6
Continuous
 62
     7
100
AcDbCircle
 10
322.6266808601
 20
123.4296690727
 30
0.0
 40
4.973817402607679
100
AcDbArc
 50
90.0
 51
270.0
  0
LINE
  5
404
330
1F
100
AcDbEntity
  8
0
  6
Continuous
 62
     7
100
AcDbLine
 10
372.6266808601
 20
118.4558516701
 30
0.0
 11
322.6266808601
 21
118.4558516701
 31
0.0
  0
ARC
  5
405
330
1F
100
AcDbEntity
  8
0
  6
Continuous
 62
     7
100
AcDbCircle
 10
372.6266808601
 20
123.4296690727
 30
0.0
 40
4.973817402607679
100
AcDbArc
 50
270.0
 51
90.0
  0
LINE
  5
406
330
1F
100
AcDbEntity
  8
0
  6
Continuous
 62
     7
100
AcDbLine
 10
322.6266808601
 20
128.4034864753
 30
0.0
 11
372.6266808601
 21
128.4034864753
 31
0.0
  0
CIRCLE
  5
407
330
1F
100
AcDbEntity
  8
0
  6
Continuous
 62
     7
100
AcDbCircle
 10
347.6266808601
 20
88.4296690727
 30
0.0
 40
4.973817402607665
  0
LINE
  5
408
330
1F
100
AcDbEntity
  8
0
  6
Continuous
 62
     7
100
AcDbLine
 10
376.6266808601
 20
36.6296690727
 30
0.0
 11
368.6266808601
 21
36.6296690727
 31
0.0
  0
LINE
  5
409
330
1F
100
AcDbEntity
  8
0
  6
Continuous
 62
     7
100
AcDbLine
 10
368.6266808601
 20
36.6296690727
 30
0.0
 11
368.6266808601
 21
31.4296690727
 31
0.0
  0
LINE
  5
40A
330
1F
100
AcDbEntity
  8
0
  6
Continuous
 62
     7
100
AcDbLine
 10
368.6266808601
 20
31.4296690727
 30
0.0
 11
376.6266808601
 21
31.4296690727
 31
0.0
  0
LINE
  5
40B
330
1F
100
AcDbEntity
  8
0
  6
Continuous
 62
     7
100
AcDbLine
 10
376.6266808601
 20
31.4296690727
 30
0.0
 11
376.6266808601
 21
36.6296690727
 31
0.0
  0
LINE
  5
40C
330
1F
100
AcDbEntity
  8
0
  6
Continuous
 62
     7
100
AcDbLine
 10
326.705292529
 20
36.6680702155
 30
0.0
 11
326.705292529
 21
31.3912679299
 31
0.0
  0
LINE
  5
40D
330
1F
100
AcDbEntity
  8
0
  6
Continuous
 62
     7
100
AcDbLine
 10
318.5480691912
 20
36.6680702155
 30
0.0
 11
326.705292529
 21
36.6680702155
 31
0.0
  0
LINE
  5
40E
330
1F
100
AcDbEntity
  8
0
  6
Continuous
 62
     7
100
AcDbLine
 10
318.5480691912
 20
31.3912679299
 30
0.0
 11
318.5480691912
 21
36.6680702155
 31
0.0
  0
LINE
  5
40F
330
1F
100
AcDbEntity
  8
0
  6
Continuous
 62
     7
100
AcDbLine
 10
326.705292529
 20
31.3912679299
 30
0.0
 11
318.5480691912
 21
31.3912679299
 31
0.0
  0
LINE
  5
410
330
1F
100
AcDbEntity
  8
0
  6
Continuous
 62
     7
100
AcDbLine
 10
368.5480691912
 20
140.1912679299
 30
0.0
 11
368.5480691912
 21
145.4680702155
 31
0.0
  0
LINE
  5
411
330
1F
100
AcDbEntity
  8
0
  6
Continuous
 62
     7
100
AcDbLine
 10
376.705292529
 20
140.1912679299
 30
0.0
 11
368.5480691912
 21
140.1912679299
 31
0.0
  0
LINE
  5
412
330
1F
100
AcDbEntity
  8
0
  6
Continuous
 62
     7
100
AcDbLine
 10
376.705292529
 20
145.4680702155
 30
0.0
 11
376.705292529
 21
140.1912679299
 31
0.0
  0
LINE
  5
413
330
1F
100
AcDbEntity
  8
0
  6
Continuous
 62
     7
100
AcDbLine
 10
368.5480691912
 20
145.4680702155
 30
0.0
 11
376.705292529
 21
145.4680702155
 31
0.0
  0
LINE
  5
414
330
1F
100
AcDbEntity
  8
0
  6
Continuous
 62
     7
100
AcDbLine
 10
318.6266808601
 20
140.2296690727
 30
0.0
 11
326.6266808601
 21
140.2296690727
 31
0.0
  0
LINE
  5
415
330
1F
100
AcDbEntity
  8
0
  6
Continuous
 62
     7
100
AcDbLine
 10
326.6266808601
 20
140.2296690727
 30
0.0
 11
326.6266808601
 21
145.4296690727
 31
0.0
  0
LINE
  5
416
330
1F
100
AcDbEntity
  8
0
  6
Continuous
 62
     7
100
AcDbLine
 10
326.6266808601
 20
145.4296690727
 30
0.0
 11
318.6266808601
 21
145.4296690727
 31
0.0
  0
LINE
  5
417
330
1F
100
AcDbEntity
  8
0
  6
Continuous
 62
     7
100
AcDbLine
 10
318.6266808601
 20
145.4296690727
 30
0.0
 11
318.6266808601
 21
140.2296690727
 31
0.0
  0
LINE
  5
418
330
1F
100
AcDbEntity
  8
0
  6
Continuous
 62
     7
100
AcDbLine
 10
409.1782555666
 20
110.9296690727
 30
0.0
 11
409.1782555666
 21
99.178116736
 31
0.0
  0
LINE
  5
419
330
1F
100
AcDbEntity
  8
0
  6
Continuous
 62
     7
100
AcDbLine
 10
409.1782555666
 20
110.9296690727
 30
0.0
 11
286.0751061537
 21
110.9296690727
 31
0.0
  0
LINE
  5
41A
330
1F
100
AcDbEntity
  8
0
  6
Continuous
 62
     7
100
AcDbLine
 10
286.0751061537
 20
110.9296690727
 30
0.0
 11
286.0751061537
 21
99.178116736
 31
0.0
  0
LINE
  5
41B
330
1F
100
AcDbEntity
  8
0
  6
Continuous
 62
     7
100
AcDbLine
 10
409.1782555666
 20
77.6812214094
 30
0.0
 11
409.1782555666
 21
65.9296690727
 31
0.0
  0
LINE
  5
41C
330
1F
100
AcDbEntity
  8
0
  6
Continuous
 62
     7
100
AcDbLine
 10
286.0751061537
 20
77.6812214094
 30
0.0
 11
286.0751061537
 21
65.9296690727
 31
0.0
  0
LINE
  5
41D
330
1F
100
AcDbEntity
  8
0
  6
Continuous
 62
     7
100
AcDbLine
 10
409.1782555666
 20
65.9296690727
 30
0.0
 11
286.0751061537
 21
65.9296690727
 31
0.0
  0
ARC
  5
41E
330
1F
100
AcDbEntity
  8
0
  6
Continuous
 62
     7
100
AcDbCircle
 10
285.9266808601
 20
20.7296690727
 30
0.0
 40
1.261978290367018
100
AcDbArc
 50
0.0
 51
90.0
  0
LINE
  5
41F
330
1F
100
AcDbEntity
  8
0
  6
Continuous
 62
     7
100
AcDbLine
 10
409.1782555666
 20
110.9034864753
 30
0.0
 11
286.0751061537
 21
110.9034864753
 31
0.0
  0
LINE
  5
420
330
1F
100
AcDbEntity
  8
0
  6
Continuous
 62
     7
100
AcDbLine
 10
409.1782555666
 20
65.9558516701
 30
0.0
 11
286.0751061537
 21
65.9558516701
 31
0.0
  0
ARC
  5
421
330
1F
100
AcDbEntity
  8
0
  6
Continuous
 62
     7
100
AcDbCircle
 10
292.3766808601
 20
89.4296690727
 30
0.0
 40
2.513090301686191
100
AcDbArc
 50
0.0
 51
180.0
  0
LINE
  5
422
330
1F
100
AcDbEntity
  8
0
  6
Continuous
 62
     7
100
AcDbLine
 10
289.8635905584
 20
87.4296690727
 30
0.0
 11
289.8635905584
 21
89.4296690727
 31
0.0
  0
ARC
  5
423
330
1F
100
AcDbEntity
  8
0
  6
Continuous
 62
     7
100
AcDbCircle
 10
292.3766808601
 20
87.4296690727
 30
0.0
 40
2.513090301686191
100
AcDbArc
 50
180.0
 51
0.0
  0
LINE
  5
424
330
1F
100
AcDbEntity
  8
0
  6
Continuous
 62
     7
100
AcDbLine
 10
294.8897711618
 20
89.4296690727
 30
0.0
 11
294.8897711618
 21
87.4296690727
 31
0.0
  0
ARC
  5
425
330
1F
100
AcDbEntity
  8
0
  6
Continuous
 62
     7
100
AcDbCircle
 10
292.3766808601
 20
87.4296690727
 30
0.0
 40
2.500000000000057
100
AcDbArc
 50
180.0
 51
0.0
  0
ARC
  5
426
330
1F
100
AcDbEntity
  8
0
  6
Continuous
 62
     7
100
AcDbCircle
 10
292.3766808601
 20
89.4296690727
 30
0.0
 40
2.500000000000057
100
AcDbArc
 50
0.0
 51
180.0
  0
LINE
  5
427
330
1F
100
AcDbEntity
  8
0
  6
Continuous
 62
     7
100
AcDbLine
 10
289.8766808601
 20
87.4296690727
 30
0.0
 11
289.8766808601
 21
89.4296690727
 31
0.0
  0
LINE
  5
428
330
1F
100
AcDbEntity
  8
0
  6
Continuous
 62
     7
100
AcDbLine
 10
294.8766808601
 20
89.4296690727
 30
0.0
 11
294.8766808601
 21
87.4296690727
 31
0.0
  0
LINE
  5
429
330
1F
100
AcDbEntity
  8
0
  6
Continuous
 62
     7
100
AcDbLine
 10
326.6876705303
 20
31.4174505272
 30
0.0
 11
325.6266808601
 21
31.4174505272
 31
0.0
  0
LINE
  5
42A
330
1F
100
AcDbEntity
  8
0
  6
Continuous
 62
     7
100
AcDbLine
 10
326.705292529
 20
31.3912679299
 30
0.0
 11
326.6880816699
 21
31.3970002213
 31
0.0
  0
LINE
  5
42B
330
1F
100
AcDbEntity
  8
0
  6
Continuous
 62
     7
100
AcDbLine
 10
318.5480691912
 20
31.3912679299
 30
0.0
 11
318.5652800504
 21
31.3970002213
 31
0.0
  0
LINE
  5
42C
330
1F
100
AcDbEntity
  8
0
  6
Continuous
 62
     7
100
AcDbLine
 10
319.6266808601
 20
31.4174505272
 30
0.0
 11
318.5656911899
 21
31.4174505272
 31
0.0
  0
LINE
  5
42D
330
1F
100
AcDbEntity
  8
0
  6
Continuous
 62
     7
100
AcDbLine
 10
319.6266808601
 20
31.4174505272
 30
0.0
 11
319.6376197369
 21
31.4210938567
 31
0.0
  0
LINE
  5
42E
330
1F
100
AcDbEntity
  8
0
  6
Continuous
 62
     7
100
AcDbLine
 10
325.6157419833
 20
31.4210938567
 30
0.0
 11
325.6266808601
 21
31.4174505272
 31
0.0
  0
LINE
  5
42F
330
1F
100
AcDbEntity
  8
0
  6
Continuous
 62
     7
100
AcDbLine
 10
318.5656911899
 20
36.6418876181
 30
0.0
 11
319.6266808601
 21
36.6418876181
 31
0.0
  0
LINE
  5
430
330
1F
100
AcDbEntity
  8
0
  6
Continuous
 62
     7
100
AcDbLine
 10
318.5480691912
 20
36.6680702155
 30
0.0
 11
318.5652800504
 21
36.6623379241
 31
0.0
  0
LINE
  5
431
330
1F
100
AcDbEntity
  8
0
  6
Continuous
 62
     7
100
AcDbLine
 10
326.705292529
 20
36.6680702155
 30
0.0
 11
326.6880816699
 21
36.6623379241
 31
0.0
  0
LINE
  5
432
330
1F
100
AcDbEntity
  8
0
  6
Continuous
 62
     7
100
AcDbLine
 10
325.6266808601
 20
36.6418876181
 30
0.0
 11
326.6876705303
 21
36.6418876181
 31
0.0
  0
LINE
  5
433
330
1F
100
AcDbEntity
  8
0
  6
Continuous
 62
     7
100
AcDbLine
 10
325.6266808601
 20
36.6418876181
 30
0.0
 11
325.6157419833
 21
36.6382442887
 31
0.0
  0
LINE
  5
434
330
1F
100
AcDbEntity
  8
0
  6
Continuous
 62
     7
100
AcDbLine
 10
319.6376197369
 20
36.6382442887
 30
0.0
 11
319.6266808601
 21
36.6418876181
 31
0.0
  0
LINE
  5
435
330
1F
100
AcDbEntity
  8
0
  6
Continuous
 62
     7
100
AcDbLine
 10
368.5656911899
 20
145.4418876181
 30
0.0
 11
369.6266808601
 21
145.4418876181
 31
0.0
  0
LINE
  5
436
330
1F
100
AcDbEntity
  8
0
  6
Continuous
 62
     7
100
AcDbLine
 10
368.5480691912
 20
145.4680702155
 30
0.0
 11
368.5652800504
 21
145.4623379241
 31
0.0
  0
LINE
  5
437
330
1F
100
AcDbEntity
  8
0
  6
Continuous
 62
     7
100
AcDbLine
 10
376.705292529
 20
145.4680702155
 30
0.0
 11
376.6880816699
 21
145.4623379241
 31
0.0
  0
LINE
  5
438
330
1F
100
AcDbEntity
  8
0
  6
Continuous
 62
     7
100
AcDbLine
 10
375.6266808601
 20
145.4418876181
 30
0.0
 11
376.6876705303
 21
145.4418876181
 31
0.0
  0
LINE
  5
439
330
1F
100
AcDbEntity
  8
0
  6
Continuous
 62
     7
100
AcDbLine
 10
375.6266808601
 20
145.4418876181
 30
0.0
 11
375.6157419833
 21
145.4382442887
 31
0.0
  0
LINE
  5
43A
330
1F
100
AcDbEntity
  8
0
  6
Continuous
 62
     7
100
AcDbLine
 10
369.6376197369
 20
145.4382442887
 30
0.0
 11
369.6266808601
 21
145.4418876181
 31
0.0
  0
LINE
  5
43B
330
1F
100
AcDbEntity
  8
0
  6
Continuous
 62
     7
100
AcDbLine
 10
376.6876705303
 20
140.2174505272
 30
0.0
 11
375.6266808601
 21
140.2174505272
 31
0.0
  0
LINE
  5
43C
330
1F
100
AcDbEntity
  8
0
  6
Continuous
 62
     7
100
AcDbLine
 10
376.705292529
 20
140.1912679299
 30
0.0
 11
376.6880816699
 21
140.1970002213
 31
0.0
  0
LINE
  5
43D
330
1F
100
AcDbEntity
  8
0
  6
Continuous
 62
     7
100
AcDbLine
 10
368.5480691912
 20
140.1912679299
 30
0.0
 11
368.5652800504
 21
140.1970002213
 31
0.0
  0
LINE
  5
43E
330
1F
100
AcDbEntity
  8
0
  6
Continuous
 62
     7
100
AcDbLine
 10
369.6266808601
 20
140.2174505272
 30
0.0
 11
368.5656911899
 21
140.2174505272
 31
0.0
  0
LINE
  5
43F
330
1F
100
AcDbEntity
  8
0
  6
Continuous
 62
     7
100
AcDbLine
 10
369.6266808601
 20
140.2174505272
 30
0.0
 11
369.6376197369
 21
140.2210938567
 31
0.0
  0
LINE
  5
440
330
1F
100
AcDbEntity
  8
0
  6
Continuous
 62
     7
100
AcDbLine
 10
375.6157419833
 20
140.2210938567
 30
0.0
 11
375.6266808601
 21
140.2174505272
 31
0.0
  0
ARC
  5
441
330
1F
100
AcDbEntity
  8
0
  6
Continuous
 62
     7
100
AcDbCircle
 10
401.8766808601
 20
88.4296690727
 30
0.0
 40
2.513090301688379
100
AcDbArc
 50
90.0
 51
270.0
  0
LINE
  5
442
330
1F
100
AcDbEntity
  8
0
  6
Continuous
 62
     7
100
AcDbLine
 10
403.8766808601
 20
85.916578771
 30
0.0
 11
401.8766808601
 21
85.916578771
 31
0.0
  0
ARC
  5
443
330
1F
100
AcDbEntity
  8
0
  6
Continuous
 62
     7
100
AcDbCircle
 10
403.8766808601
 20
88.4296690727
 30
0.0
 40
2.513090301690625
100
AcDbArc
 50
270.0
 51
90.0
  0
LINE
  5
444
330
1F
100
AcDbEntity
  8
0
  6
Continuous
 62
     7
100
AcDbLine
 10
401.8766808601
 20
90.9427593744
 30
0.0
 11
403.8766808601
 21
90.9427593744
 31
0.0
  0
ARC
  5
445
330
1F
100
AcDbEntity
  8
0
  6
Continuous
 62
     7
100
AcDbCircle
 10
401.8766808601
 20
88.4296690727
 30
0.0
 40
2.500000000004476
100
AcDbArc
 50
90.0
 51
270.0
  0
LINE
  5
446
330
1F
100
AcDbEntity
  8
0
  6
Continuous
 62
     7
100
AcDbLine
 10
401.8766808601
 20
90.9296690727
 30
0.0
 11
403.8766808601
 21
90.9296690727
 31
0.0
  0
LINE
  5
447
330
1F
100
AcDbEntity
  8
0
  6
Continuous
 62
     7
100
AcDbLine
 10
403.8766808601
 20
85.9296690727
 30
0.0
 11
401.8766808601
 21
85.9296690727
 31
0.0
  0
ARC
  5
448
330
1F
100
AcDbEntity
  8
0
  6
Continuous
 62
     7
100
AcDbCircle
 10
403.8766808601
 20
88.4296690727
 30
0.0
 40
2.500000000004476
100
AcDbArc
 50
270.0
 51
90.0
  0
ARC
  5
449
330
1F
100
AcDbEntity
  8
0
  6
Continuous
 62
     7
100
AcDbCircle
 10
409.3266808601
 20
156.1296690727
 30
0.0
 40
1.261978290367097
100
AcDbArc
 50
180.0
 51
270.0
  0
LINE
  5
44A
330
1F
100
AcDbEntity
  8
0
  6
Continuous
 62
     7
100
AcDbLine
 10
286.9266808601
 20
20.7296690727
 30
0.0
 11
286.9266808601
 21
19.2427251064
 31
0.0
  0
LINE
  5
44B
330
1F
100
AcDbEntity
  8
0
  6
Continuous
 62
     7
100
AcDbLine
 10
284.4397368939
 20
21.7296690727
 30
0.0
 11
285.9266808601
 21
21.7296690727
 31
0.0
  0
ARC
  5
44C
330
1F
100
AcDbEntity
  8
0
  6
Continuous
 62
     7
100
AcDbCircle
 10
285.9266808601
 20
20.7296690727
 30
0.0
 40
1.0
100
AcDbArc
 50
0.0
 51
90.0
  0
LINE
  5
44D
330
1F
100
AcDbEntity
  8
0
  6
Continuous
 62
     7
100
AcDbLine
 10
408.3266808601
 20
156.1296690727
 30
0.0
 11
408.3266808601
 21
157.6166130389
 31
0.0
  0
ARC
  5
44E
330
1F
100
AcDbEntity
  8
0
  6
Continuous
 62
     7
100
AcDbCircle
 10
409.3266808601
 20
156.1296690727
 30
0.0
 40
1.0
100
AcDbArc
 50
180.0
 51
270.0
  0
LINE
  5
44F
330
1F
100
AcDbEntity
  8
0
  6
Continuous
 62
     7
100
AcDbLine
 10
410.8136248264
 20
155.1296690727
 30
0.0
 11
409.3266808601
 21
155.1296690727
 31
0.0
  0
ELLIPSE
  5
450
330
1F
100
AcDbEntity
  8
0
  6
Continuous
 62
     7
100
AcDbEllipse
 10
284.4397825853
 20
22.0297147711
 30
0.0
 11
-0.1341814476739387
 21
-0.2683833349452236
 31
0.0
210
0.0
220
0.0
230
1.0
 40
0.9998096356
 41
5.176082279505136
 42
6.746726307255238
  0
ELLIPSE
  5
451
330
1F
100
AcDbEntity
  8
0
  6
Continuous
 62
     7
100
AcDbEllipse
 10
287.2267265585
 20
19.2427707979
 30
0.0
 11
0.2683833349452129
 21
0.1341814476738818
 31
0.0
210
0.0
220
0.0
230
1.0
 40
0.9998096356
 41
2.678051653514402
 42
4.248695681264412
  0
ELLIPSE
  5
452
330
1F
100
AcDbEntity
  8
0
  6
Continuous
 62
     7
100
AcDbEllipse
 10
408.0266351617
 20
157.6165673475
 30
0.0
 11
-0.2683833349452129
 21
-0.1341814476738818
 31
0.0
210
0.0
220
0.0
230
1.0
 40
0.9998096356
 41
2.67805165351438
 42
4.248695681264385
  0
ELLIPSE
  5
453
330
1F
100
AcDbEntity
  8
0
  6
Continuous
 62
     7
100
AcDbEllipse
 10
410.8135791349
 20
154.8296233743
 30
0.0
 11
0.134181447673825
 21
0.2683833349452129
 31
0.0
210
0.0
220
0.0
230
1.0
 40
0.9998096356
 41
5.176082279504868
 42
6.746726307254812
  0
ELLIPSE
  5
454
330
1F
100
AcDbEntity
  8
0
  6
Continuous
 62
     7
100
AcDbEllipse
 10
284.6266998993
 20
157.4296500335
 30
0.0
 11
0.3535803155654094
 21
-0.3535803155654094
 31
0.0
210
0.0
220
0.0
230
0.9999999999999998
 40
0.9999238505
 41
2.35623256640338
 42
3.92695274077622
  0
ELLIPSE
  5
455
330
1F
100
AcDbEntity
  8
0
  6
Continuous
 62
     7
100
AcDbEllipse
 10
410.6266618209
 20
19.4296881119
 30
0.0
 11
-0.3535803155654094
 21
0.3535803155654413
 31
0.0
210
0.0
220
0.0
230
1.0
 40
0.9999238505
 41
2.356232566403287
 42
3.926952740776354
  0
LINE
  5
456
330
1F
100
AcDbEntity
  8
0
  6
Continuous
 62
     7
100
AcDbLine
 10
284.1397711618
 20
19.4427403359
 30
0.0
 11
284.1397711618
 21
22.0296690744
 31
0.0
  0
LINE
  5
457
330
1F
100
AcDbEntity
  8
0
  6
Continuous
 62
     7
100
AcDbLine
 10
284.1266808601
 20
19.4296500342
 30
0.0
 11
284.1266808601
 21
157.4296881112
 31
0.0
  0
LINE
  5
458
330
1F
100
AcDbEntity
  8
0
  6
Continuous
 62
     7
100
AcDbLine
 10
410.6266998986
 20
18.9296690727
 30
0.0
 11
284.6266618217
 21
18.9296690727
 31
0.0
  0
LINE
  5
459
330
1F
100
AcDbEntity
  8
0
  6
Continuous
 62
     7
100
AcDbLine
 10
287.2266808619
 20
18.9427593744
 30
0.0
 11
284.6397521233
 21
18.9427593744
 31
0.0
  0
LINE
  5
45A
330
1F
100
AcDbEntity
  8
0
  6
Continuous
 62
     7
100
AcDbLine
 10
284.6266618217
 20
157.9296690727
 30
0.0
 11
410.6266998986
 21
157.9296690727
 31
0.0
  0
LINE
  5
45B
330
1F
100
AcDbEntity
  8
0
  6
Continuous
 62
     7
100
AcDbLine
 10
408.0266808584
 20
157.916578771
 30
0.0
 11
410.6136095969
 21
157.916578771
 31
0.0
  0
LINE
  5
45C
330
1F
100
AcDbEntity
  8
0
  6
Continuous
 62
     7
100
AcDbLine
 10
411.1135905584
 20
157.4165978095
 30
0.0
 11
411.1135905584
 21
154.829669071
 31
0.0
  0
LINE
  5
45D
330
1F
100
AcDbEntity
  8
0
  6
Continuous
 62
     7
100
AcDbLine
 10
411.1266808601
 20
157.4296881112
 30
0.0
 11
411.1266808601
 21
19.4296500342
 31
0.0
  0
LINE
  5
45E
330
1F
100
AcDbEntity
  8
0
  6
Continuous
 62
     7
100
AcDbLine
 10
325.6266808601
 20
140.7296690727
 30
0.0
 11
325.6266808601
 21
140.2296690727
 31
0.0
  0
LINE
  5
45F
330
1F
100
AcDbEntity
  8
0
  6
Continuous
 62
     7
100
AcDbLine
 10
319.6266808601
 20
140.2296690727
 30
0.0
 11
319.6266808601
 21
140.7296690727
 31
0.0
  0
LINE
  5
460
330
1F
100
AcDbEntity
  8
0
  6
Continuous
 62
     7
100
AcDbLine
 10
325.6266808601
 20
145.4296690727
 30
0.0
 11
325.6266808601
 21
144.9296690727
 31
0.0
  0
LINE
  5
461
330
1F
100
AcDbEntity
  8
0
  6
Continuous
 62
     7
100
AcDbLine
 10
319.6266808601
 20
144.9296690727
 30
0.0
 11
319.6266808601
 21
145.4296690727
 31
0.0
  0
LINE
  5
462
330
1F
100
AcDbEntity
  8
0
  6
Continuous
 62
     7
100
AcDbLine
 10
375.6266808601
 20
36.6296690727
 30
0.0
 11
375.6266808601
 21
36.1296690727
 31
0.0
  0
LINE
  5
463
330
1F
100
AcDbEntity
  8
0
  6
Continuous
 62
     7
100
AcDbLine
 10
369.6266808601
 20
36.1296690727
 30
0.0
 11
369.6266808601
 21
36.6296690727
 31
0.0
  0
LINE
  5
464
330
1F
100
AcDbEntity
  8
0
  6
Continuous
 62
     7
100
AcDbLine
 10
375.6266808601
 20
31.9296690727
 30
0.0
 11
375.6266808601
 21
31.4296690727
 31
0.0
  0
LINE
  5
465
330
1F
100
AcDbEntity
  8
0
  6
Continuous
 62
     7
100
AcDbLine
 10
369.6266808601
 20
31.4296690727
 30
0.0
 11
369.6266808601
 21
31.9296690727
 31
0.0
  0
ELLIPSE
  5
466
330
1F
100
AcDbEntity
  8
0
  6
Continuous
 62
     7
100
AcDbEllipse
 10
325.6161993043
 20
31.9210177043
 30
0.0
 11
0.0
 21
0.5000000000000036
 31
0.0
210
0.0
220
0.0
230
1.0
 40
0.0524077793
 41
1.570796326794868
 42
3.124139361070612
  0
ELLIPSE
  5
467
330
1F
100
AcDbEntity
  8
0
  6
Continuous
 62
     7
100
AcDbEllipse
 10
319.637162416
 20
31.9210177043
 30
0.0
 11
0.0
 21
0.5000000000000036
 31
0.0
210
0.0
220
0.0
230
1.0
 40
0.0524077793
 41
3.159045946109241
 42
4.712388980384719
  0
ELLIPSE
  5
468
330
1F
100
AcDbEntity
  8
0
  6
Continuous
 62
     7
100
AcDbEllipse
 10
325.6161993043
 20
36.1383204411
 30
0.0
 11
0.0
 21
0.5
 31
0.0
210
0.0
220
0.0
230
1.0
 40
0.0524077793
 41
0.0174532925191815
 42
1.570796326794868
  0
ELLIPSE
  5
469
330
1F
100
AcDbEntity
  8
0
  6
Continuous
 62
     7
100
AcDbEllipse
 10
319.637162416
 20
36.1383204411
 30
0.0
 11
0.0
 21
0.5
 31
0.0
210
0.0
220
0.0
230
1.0
 40
0.0524077793
 41
4.712388980384719
 42
6.265732014660665
  0
ELLIPSE
  5
46A
330
1F
100
AcDbEntity
  8
0
  6
Continuous
 62
     7
100
AcDbEllipse
 10
375.6161993043
 20
144.9383204411
 30
0.0
 11
0.0
 21
0.5
 31
0.0
210
0.0
220
0.0
230
1.0
 40
0.0524077793
 41
0.0174532925192182
 42
1.570796326794897
  0
ELLIPSE
  5
46B
330
1F
100
AcDbEntity
  8
0
  6
Continuous
 62
     7
100
AcDbEllipse
 10
369.637162416
 20
144.9383204411
 30
0.0
 11
0.0
 21
0.5
 31
0.0
210
0.0
220
0.0
230
1.0
 40
0.0524077793
 41
4.712388980384691
 42
6.265732014658496
  0
ELLIPSE
  5
46C
330
1F
100
AcDbEntity
  8
0
  6
Continuous
 62
     7
100
AcDbEllipse
 10
375.6161993043
 20
140.7210177043
 30
0.0
 11
0.0
 21
0.5
 31
0.0
210
0.0
220
0.0
230
1.0
 40
0.0524077793
 41
1.570796326794897
 42
3.124139361070574
  0
ELLIPSE
  5
46D
330
1F
100
AcDbEntity
  8
0
  6
Continuous
 62
     7
100
AcDbEllipse
 10
369.637162416
 20
140.7210177043
 30
0.0
 11
0.0
 21
0.5
 31
0.0
210
0.0
220
0.0
230
1.0
 40
0.0524077793
 41
3.15904594611141
 42
4.712388980384691
  0
LINE
  5
46E
330
1F
100
AcDbEntity
  8
0
  6
Continuous
 62
     7
100
AcDbLine
 10
325.6266808601
 20
140.7296690727
 30
0.0
 11
325.6266808601
 21
144.9296690727
 31
0.0
  0
LINE
  5
46F
330
1F
100
AcDbEntity
  8
0
  6
Continuous
 62
     7
100
AcDbLine
 10
319.6266808601
 20
144.9296690727
 30
0.0
 11
319.6266808601
 21
140.7296690727
 31
0.0
  0
LINE
  5
470
330
1F
100
AcDbEntity
  8
0
  6
Continuous
 62
     7
100
AcDbLine
 10
325.5899954146
 20
36.1383204411
 30
0.0
 11
325.5899954146
 21
31.9210177043
 31
0.0
  0
LINE
  5
471
330
1F
100
AcDbEntity
  8
0
  6
Continuous
 62
     7
100
AcDbLine
 10
319.6633663056
 20
31.9210177043
 30
0.0
 11
319.6633663056
 21
36.1383204411
 31
0.0
  0
LINE
  5
472
330
1F
100
AcDbEntity
  8
0
  6
Continuous
 62
     7
100
AcDbLine
 10
375.6266808601
 20
31.9296690727
 30
0.0
 11
375.6266808601
 21
36.1296690727
 31
0.0
  0
LINE
  5
473
330
1F
100
AcDbEntity
  8
0
  6
Continuous
 62
     7
100
AcDbLine
 10
369.6266808601
 20
36.1296690727
 30
0.0
 11
369.6266808601
 21
31.9296690727
 31
0.0
  0
LINE
  5
474
330
1F
100
AcDbEntity
  8
0
  6
Continuous
 62
     7
100
AcDbLine
 10
375.5899954146
 20
144.9383204411
 30
0.0
 11
375.5899954146
 21
140.7210177043
 31
0.0
  0
LINE
  5
475
330
1F
100
AcDbEntity
  8
0
  6
Continuous
 62
     7
100
AcDbLine
 10
369.6633663056
 20
140.7210177043
 30
0.0
 11
369.6633663056
 21
144.9383204411
 31
0.0
  0
LINE
  5
476
330
1F
100
AcDbEntity
  8
0
  6
Continuous
 62
     7
100
AcDbLine
 10
286.0751061537
 20
105.9296690727
 30
0.0
 11
409.1782555666
 21
105.9296690727
 31
0.0
  0
LINE
  5
477
330
1F
100
AcDbEntity
  8
0
  6
Continuous
 62
     7
100
AcDbLine
 10
286.0751061537
 20
70.9296690727
 30
0.0
 11
409.1782555666
 21
70.9296690727
 31
0.0
  0
ELLIPSE
  5
478
330
1F
100
AcDbEntity
  8
0
  6
Continuous
 62
     7
100
AcDbEllipse
 10
284.6266998993
 20
19.4296881119
 30
0.0
 11
0.3535803155654094
 21
0.3535803155654413
 31
0.0
210
0.0
220
0.0
230
1.0
 40
0.9999238505
 41
2.356232566403203
 42
3.926952740776243
  0
ELLIPSE
  5
479
330
1F
100
AcDbEntity
  8
0
  6
Continuous
 62
     7
100
AcDbEllipse
 10
284.639790201
 20
19.4427784136
 30
0.0
 11
0.3535803155654094
 21
0.3535803155654413
 31
0.0
210
0.0
220
0.0
230
1.0
 40
0.9999238505
 41
2.356232566403279
 42
3.926952740776203
  0
CIRCLE
  5
47A
330
1F
100
AcDbEntity
  8
0
  6
Continuous
 62
     7
100
AcDbCircle
 10
285.5266808601
 20
20.3296690727
 30
0.0
 40
0.5999999999999659
  0
ELLIPSE
  5
47B
330
1F
100
AcDbEntity
  8
0
  6
Continuous
 62
     7
100
AcDbEllipse
 10
410.6135715192
 20
157.4165597318
 30
0.0
 11
-0.3535803155654662
 21
-0.3535803155654377
 31
0.0
210
0.0
220
0.0
230
0.9999999999999998
 40
0.9999238505
 41
2.35623256640334
 42
3.926952740776341
  0
CIRCLE
  5
47C
330
1F
100
AcDbEntity
  8
0
  6
Continuous
 62
     7
100
AcDbCircle
 10
409.7266808601
 20
156.5296690727
 30
0.0
 40
0.5999999999999659
  0
ELLIPSE
  5
47D
330
1F
100
AcDbEntity
  8
0
  6
Continuous
 62
     7
100
AcDbEllipse
 10
410.6266618209
 20
157.4296500335
 30
0.0
 11
-0.3535803155654662
 21
-0.3535803155654377
 31
0.0
210
0.0
220
0.0
230
0.9999999999999998
 40
0.9999238505
 41
2.356232566403303
 42
3.926952740776434
  0
LINE
  5
47E
330
1F
100
AcDbEntity
  8
0
  6
Continuous
 62
     7
100
AcDbLine
 10
286.0751061537
 20
102.7155962685
 30
0.0
 11
409.1782555666
 21
102.7155962685
 31
0.0
  0
LINE
  5
47F
330
1F
100
AcDbEntity
  8
0
  6
Continuous
 62
     7
100
AcDbLine
 10
409.1782555666
 20
74.1437418769
 30
0.0
 11
286.0751061537
 21
74.1437418769
 31
0.0
  0
ENDSEC
  0
SECTION
  2
OBJECTS
  0
DICTIONARY
  5
C
330
0
100
AcDbDictionary
281
     1
  3
ACAD_GROUP
350
D
  3
ACAD_LAYOUT
350
1A
  3
ACAD_MLINESTYLE
350
17
  3
ACAD_PLOTSETTINGS
350
19
  3
ACAD_PLOTSTYLENAME
350
E
  3
ACAD_SCALELIST
350
47
  3
DWGPROPS
350
480
  0
DICTIONARY
  5
D
102
{ACAD_REACTORS
330
C
102
}
330
C
100
AcDbDictionary
281
     1
  0
DICTIONARY
  5
1A
102
{ACAD_REACTORS
330
C
102
}
330
C
100
AcDbDictionary
281
     1
  3
Layout1
350
1E
  3
Layout2
350
26
  3
Model
350
22
  0
DICTIONARY
  5
17
102
{ACAD_REACTORS
330
C
102
}
330
C
100
AcDbDictionary
281
     1
  3
Standard
350
18
  0
DICTIONARY
  5
19
102
{ACAD_REACTORS
330
C
102
}
330
C
100
AcDbDictionary
281
     1
  0
ACDBDICTIONARYWDFLT
  5
E
102
{ACAD_REACTORS
330
C
102
}
330
C
100
AcDbDictionary
281
     1
  3
Normal
350
F
100
AcDbDictionaryWithDefault
340
F
  0
DICTIONARY
  5
47
102
{ACAD_REACTORS
330
C
102
}
330
C
100
AcDbDictionary
281
     1
  3
A0
350
48
  3
A1
350
49
  3
A2
350
4A
  3
A3
350
4B
  3
A4
350
4C
  3
A5
350
4D
  3
A6
350
4E
  3
A7
350
4F
  3
A8
350
50
  3
A9
350
51
  3
B0
350
52
  3
B1
350
53
  3
B2
350
54
  3
B3
350
55
  3
B4
350
56
  3
B5
350
57
  3
B6
350
58
  0
XRECORD
  5
480
102
{ACAD_REACTORS
330
C
102
}
330
C
100
AcDbXrecord
280
     1
  1
DWGPROPS COOKIE
  2

  3

  4

  6

  7

  8
grigorievsin
  9

300
=
301
=
302
=
303
=
304
=
305
=
306
=
307
=
308
=
309
=
 40
0.0
 41
2460398.410340359
 42
2460398.410341979
  1

 90
        0
  0
LAYOUT
  5
1E
102
{ACAD_REACTORS
330
1A
102
}
330
1A
100
AcDbPlotSettings
  1

  2
none_device
  4

  6

 40
0.0
 41
0.0
 42
0.0
 43
0.0
 44
0.0
 45
0.0
 46
0.0
 47
0.0
 48
0.0
 49
0.0
140
0.0
141
0.0
142
1.0
143
1.0
 70
   688
 72
     1
 73
     0
 74
     5
  7

 75
    16
147
1.0
148
0.0
149
0.0
100
AcDbLayout
  1
Layout1
 70
     1
 71
     1
 10
0.0
 20
0.0
 11
420.0
 21
297.0
 12
0.0
 22
0.0
 32
0.0
 14
1.0000000000E+20
 24
1.0000000000E+20
 34
1.0000000000E+20
 15
-1.0000000000E+20
 25
-1.0000000000E+20
 35
-1.0000000000E+20
146
0.0
 13
0.0
 23
0.0
 33
0.0
 16
1.0
 26
0.0
 36
0.0
 17
0.0
 27
1.0
 37
0.0
 76
     0
330
1B
  0
LAYOUT
  5
26
102
{ACAD_REACTORS
330
1A
102
}
330
1A
100
AcDbPlotSettings
  1

  2
none_device
  4

  6

 40
0.0
 41
0.0
 42
0.0
 43
0.0
 44
0.0
 45
0.0
 46
0.0
 47
0.0
 48
0.0
 49
0.0
140
0.0
141
0.0
142
1.0
143
1.0
 70
   688
 72
     1
 73
     0
 74
     5
  7

 75
    16
147
1.0
148
0.0
149
0.0
100
AcDbLayout
  1
Layout2
 70
     1
 71
     2
 10
0.0
 20
0.0
 11
0.0
 21
0.0
 12
0.0
 22
0.0
 32
0.0
 14
0.0
 24
0.0
 34
0.0
 15
0.0
 25
0.0
 35
0.0
146
0.0
 13
0.0
 23
0.0
 33
0.0
 16
1.0
 26
0.0
 36
0.0
 17
0.0
 27
1.0
 37
0.0
 76
     0
330
23
  0
LAYOUT
  5
22
102
{ACAD_REACTORS
330
1A
102
}
330
1A
100
AcDbPlotSettings
  1

  2
none_device
  4
Letter_(8.50_x_11.00_Inches)
  6

 40
6.35
 41
6.35
 42
6.35000508
 43
6.35000508
 44
215.9
 45
279.4
 46
0.0
 47
0.0
 48
0.0
 49
0.0
140
0.0
141
0.0
142
1.0
143
1.0
 70
  1712
 72
     1
 73
     0
 74
     0
  7

 75
     0
147
1.0
148
0.0
149
0.0
100
AcDbLayout
  1
Model
 70
     1
 71
     0
 10
0.0
 20
0.0
 11
420.0
 21
297.0
 12
0.0
 22
0.0
 32
0.0
 14
0.0
 24
0.0
 34
0.0
 15
420.0
 25
297.0
 35
0.0
146
0.0
 13
0.0
 23
0.0
 33
0.0
 16
1.0
 26
0.0
 36
0.0
 17
0.0
 27
1.0
 37
0.0
 76
     0
330
1F
331
29
  0
MLINESTYLE
  5
18
102
{ACAD_REACTORS
330
17
102
}
330
17
100
AcDbMlineStyle
  2
Standard
 70
     0
  3

 62
   256
 51
90.0
 52
90.0
 71
     2
 49
0.5
 62
   256
  6
BYLAYER
 49
-0.5
 62
   256
  6
BYLAYER
  0
ACDBPLACEHOLDER
  5
F
102
{ACAD_REACTORS
330
E
102
}
330
E
  0
SCALE
  5
48
102
{ACAD_REACTORS
330
47
102
}
330
47
100
AcDbScale
 70
     0
300
1:1
140
1.0
141
1.0
290
     1
  0
SCALE
  5
49
102
{ACAD_REACTORS
330
47
102
}
330
47
100
AcDbScale
 70
     0
300
1:2
140
1.0
141
2.0
290
     0
  0
SCALE
  5
4A
102
{ACAD_REACTORS
330
47
102
}
330
47
100
AcDbScale
 70
     0
300
1:4
140
1.0
141
4.0
290
     0
  0
SCALE
  5
4B
102
{ACAD_REACTORS
330
47
102
}
330
47
100
AcDbScale
 70
     0
300
1:5
140
1.0
141
5.0
290
     0
  0
SCALE
  5
4C
102
{ACAD_REACTORS
330
47
102
}
330
47
100
AcDbScale
 70
     0
300
1:8
140
1.0
141
8.0
290
     0
  0
SCALE
  5
4D
102
{ACAD_REACTORS
330
47
102
}
330
47
100
AcDbScale
 70
     0
300
1:10
140
1.0
141
10.0
290
     0
  0
SCALE
  5
4E
102
{ACAD_REACTORS
330
47
102
}
330
47
100
AcDbScale
 70
     0
300
1:16
140
1.0
141
16.0
290
     0
  0
SCALE
  5
4F
102
{ACAD_REACTORS
330
47
102
}
330
47
100
AcDbScale
 70
     0
300
1:20
140
1.0
141
20.0
290
     0
  0
SCALE
  5
50
102
{ACAD_REACTORS
330
47
102
}
330
47
100
AcDbScale
 70
     0
300
1:30
140
1.0
141
30.0
290
     0
  0
SCALE
  5
51
102
{ACAD_REACTORS
330
47
102
}
330
47
100
AcDbScale
 70
     0
300
1:40
140
1.0
141
40.0
290
     0
  0
SCALE
  5
52
102
{ACAD_REACTORS
330
47
102
}
330
47
100
AcDbScale
 70
     0
300
1:50
140
1.0
141
50.0
290
     0
  0
SCALE
  5
53
102
{ACAD_REACTORS
330
47
102
}
330
47
100
AcDbScale
 70
     0
300
1:100
140
1.0
141
100.0
290
     0
  0
SCALE
  5
54
102
{ACAD_REACTORS
330
47
102
}
330
47
100
AcDbScale
 70
     0
300
2:1
140
2.0
141
1.0
290
     0
  0
SCALE
  5
55
102
{ACAD_REACTORS
330
47
102
}
330
47
100
AcDbScale
 70
     0
300
4:1
140
4.0
141
1.0
290
     0
  0
SCALE
  5
56
102
{ACAD_REACTORS
330
47
102
}
330
47
100
AcDbScale
 70
     0
300
8:1
140
8.0
141
1.0
290
     0
  0
SCALE
  5
57
102
{ACAD_REACTORS
330
47
102
}
330
47
100
AcDbScale
 70
     0
300
10:1
140
10.0
141
1.0
290
     0
  0
SCALE
  5
58
102
{ACAD_REACTORS
330
47
102
}
330
47
100
AcDbScale
 70
     0
300
100:1
140
100.0
141
1.0
290
     0
  0
ENDSEC
  0
EOF
