  0
SECTION
  2
HEADER
  9
$ACADVER
  1
AC1015
  9
$ACADMAINTVER
 70
     6
  9
$DWGCODEPAGE
  3
ANSI_1251
  9
$INSBASE
 10
0.0
 20
0.0
 30
0.0
  9
$EXTMIN
 10
0.0
 20
0.0
 30
0.0
  9
$EXTMAX
 10
420.0
 20
297.0
 30
0.0
  9
$LIMMIN
 10
0.0
 20
0.0
  9
$LIMMAX
 10
420.0
 20
297.0
  9
$ORTHOMODE
 70
     0
  9
$REGENMODE
 70
     1
  9
$FILLMODE
 70
     1
  9
$QTEXTMODE
 70
     0
  9
$MIRRTEXT
 70
     1
  9
$LTSCALE
 40
1.0
  9
$ATTMODE
 70
     1
  9
$TEXTSIZE
 40
5.0
  9
$TRACEWID
 40
1.0
  9
$TEXTSTYLE
  7
Standard
  9
$CLAYER
  8
0
  9
$CELTYPE
  6
ByLayer
  9
$CECOLOR
 62
   256
  9
$CELTSCALE
 40
1.0
  9
$DISPSILH
 70
     0
  9
$DIMSCALE
 40
1.0
  9
$DIMASZ
 40
5.0
  9
$DIMEXO
 40
0.0
  9
$DIMDLI
 40
3.75
  9
$DIMRND
 40
0.0
  9
$DIMDLE
 40
0.0
  9
$DIMEXE
 40
1.0
  9
$DIMTP
 40
0.0
  9
$DIMTM
 40
0.0
  9
$DIMTXT
 40
3.5
  9
$DIMCEN
 40
2.5
  9
$DIMTSZ
 40
0.0
  9
$DIMTOL
 70
     0
  9
$DIMLIM
 70
     0
  9
$DIMTIH
 70
     1
  9
$DIMTOH
 70
     1
  9
$DIMSE1
 70
     0
  9
$DIMSE2
 70
     0
  9
$DIMTAD
 70
     1
  9
$DIMZIN
 70
     0
  9
$DIMBLK
  1

  9
$DIMASO
 70
     1
  9
$DIMSHO
 70
     1
  9
$DIMPOST
  1

  9
$DIMAPOST
  1

  9
$DIMALT
 70
     0
  9
$DIMALTD
 70
     3
  9
$DIMALTF
 40
0.0393700787
  9
$DIMLFAC
 40
1.0
  9
$DIMTOFL
 70
     1
  9
$DIMTVP
 40
0.0
  9
$DIMTIX
 70
     0
  9
$DIMSOXD
 70
     0
  9
$DIMSAH
 70
     0
  9
$DIMBLK1
  1

  9
$DIMBLK2
  1

  9
$DIMSTYLE
  2
ISO-25
  9
$DIMCLRD
 70
     0
  9
$DIMCLRE
 70
     0
  9
$DIMCLRT
 70
     0
  9
$DIMTFAC
 40
1.0
  9
$DIMGAP
 40
1.5
  9
$DIMJUST
 70
     0
  9
$DIMSD1
 70
     0
  9
$DIMSD2
 70
     0
  9
$DIMTOLJ
 70
     0
  9
$DIMTZIN
 70
     0
  9
$DIMALTZ
 70
     0
  9
$DIMALTTZ
 70
     0
  9
$DIMUPT
 70
     0
  9
$DIMDEC
 70
     1
  9
$DIMTDEC
 70
     1
  9
$DIMALTU
 70
     2
  9
$DIMALTTD
 70
     3
  9
$DIMTXSTY
  7
Standard
  9
$DIMAUNIT
 70
     0
  9
$DIMADEC
 70
     2
  9
$DIMALTRND
 40
0.0
  9
$DIMAZIN
 70
     0
  9
$DIMDSEP
 70
    44
  9
$DIMATFIT
 70
     3
  9
$DIMFRAC
 70
     0
  9
$DIMLDRBLK
  1

  9
$DIMLUNIT
 70
     2
  9
$DIMLWD
 70
    -2
  9
$DIMLWE
 70
    -2
  9
$DIMTMOVE
 70
     0
  9
$LUNITS
 70
     2
  9
$LUPREC
 70
     1
  9
$SKETCHINC
 40
1.0
  9
$FILLETRAD
 40
0.0
  9
$AUNITS
 70
     0
  9
$AUPREC
 70
     2
  9
$MENU
  1
.
  9
$ELEVATION
 40
0.0
  9
$PELEVATION
 40
0.0
  9
$THICKNESS
 40
0.0
  9
$LIMCHECK
 70
     0
  9
$CHAMFERA
 40
0.0
  9
$CHAMFERB
 40
0.0
  9
$CHAMFERC
 40
0.0
  9
$CHAMFERD
 40
0.0
  9
$SKPOLY
 70
     0
  9
$TDCREATE
 40
2460398.521797153
  9
$TDUCREATE
 40
2460398.396797153
  9
$TDUPDATE
 40
2460398.521798854
  9
$TDUUPDATE
 40
2460398.396798854
  9
$TDINDWG
 40
0.0000000116
  9
$TDUSRTIMER
 40
0.0000000116
  9
$USRTIMER
 70
     1
  9
$ANGBASE
 50
0.0
  9
$ANGDIR
 70
     0
  9
$PDMODE
 70
     0
  9
$PDSIZE
 40
-1.0
  9
$PLINEWID
 40
0.0
  9
$SPLFRAME
 70
     0
  9
$SPLINETYPE
 70
     6
  9
$SPLINESEGS
 70
     8
  9
$HANDSEED
  5
48A
  9
$SURFTAB1
 70
     6
  9
$SURFTAB2
 70
     6
  9
$SURFTYPE
 70
     6
  9
$SURFU
 70
     6
  9
$SURFV
 70
     6
  9
$UCSBASE
  2

  9
$UCSNAME
  2

  9
$UCSORG
 10
0.0
 20
0.0
 30
0.0
  9
$UCSXDIR
 10
1.0
 20
0.0
 30
0.0
  9
$UCSYDIR
 10
0.0
 20
1.0
 30
0.0
  9
$UCSORTHOREF
  2

  9
$UCSORTHOVIEW
 70
     0
  9
$UCSORGTOP
 10
0.0
 20
0.0
 30
0.0
  9
$UCSORGBOTTOM
 10
0.0
 20
0.0
 30
0.0
  9
$UCSORGLEFT
 10
0.0
 20
0.0
 30
0.0
  9
$UCSORGRIGHT
 10
0.0
 20
0.0
 30
0.0
  9
$UCSORGFRONT
 10
0.0
 20
0.0
 30
0.0
  9
$UCSORGBACK
 10
0.0
 20
0.0
 30
0.0
  9
$PUCSBASE
  2

  9
$PUCSNAME
  2

  9
$PUCSORG
 10
0.0
 20
0.0
 30
0.0
  9
$PUCSXDIR
 10
1.0
 20
0.0
 30
0.0
  9
$PUCSYDIR
 10
0.0
 20
1.0
 30
0.0
  9
$PUCSORTHOREF
  2

  9
$PUCSORTHOVIEW
 70
     0
  9
$PUCSORGTOP
 10
0.0
 20
0.0
 30
0.0
  9
$PUCSORGBOTTOM
 10
0.0
 20
0.0
 30
0.0
  9
$PUCSORGLEFT
 10
0.0
 20
0.0
 30
0.0
  9
$PUCSORGRIGHT
 10
0.0
 20
0.0
 30
0.0
  9
$PUCSORGFRONT
 10
0.0
 20
0.0
 30
0.0
  9
$PUCSORGBACK
 10
0.0
 20
0.0
 30
0.0
  9
$USERI1
 70
     0
  9
$USERI2
 70
     0
  9
$USERI3
 70
     0
  9
$USERI4
 70
     0
  9
$USERI5
 70
     0
  9
$USERR1
 40
0.0
  9
$USERR2
 40
0.0
  9
$USERR3
 40
0.0
  9
$USERR4
 40
0.0
  9
$USERR5
 40
0.0
  9
$WORLDVIEW
 70
     1
  9
$SHADEDGE
 70
     3
  9
$SHADEDIF
 70
    70
  9
$TILEMODE
 70
     1
  9
$MAXACTVP
 70
    64
  9
$PINSBASE
 10
0.0
 20
0.0
 30
0.0
  9
$PLIMCHECK
 70
     0
  9
$PEXTMIN
 10
1.0000000000E+20
 20
1.0000000000E+20
 30
1.0000000000E+20
  9
$PEXTMAX
 10
-1.0000000000E+20
 20
-1.0000000000E+20
 30
-1.0000000000E+20
  9
$PLIMMIN
 10
0.0
 20
0.0
  9
$PLIMMAX
 10
420.0
 20
297.0
  9
$UNITMODE
 70
     0
  9
$VISRETAIN
 70
     1
  9
$PLINEGEN
 70
     0
  9
$PSLTSCALE
 70
     1
  9
$TREEDEPTH
 70
  3020
  9
$CMLSTYLE
  2
Standard
  9
$CMLJUST
 70
     0
  9
$CMLSCALE
 40
20.0
  9
$PROXYGRAPHICS
 70
     1
  9
$MEASUREMENT
 70
     1
  9
$CELWEIGHT
370
    -1
  9
$ENDCAPS
280
     0
  9
$JOINSTYLE
280
     0
  9
$LWDISPLAY
290
     1
  9
$INSUNITS
 70
     4
  9
$HYPERLINKBASE
  1

  9
$STYLESHEET
  1

  9
$XEDIT
290
     1
  9
$CEPSNTYPE
380
     0
  9
$PSTYLEMODE
290
     1
  9
$FINGERPRINTGUID
  2
{2d6419a8-59ab-48b2-93a4-89f3bafab9ea}
  9
$VERSIONGUID
  2
{FAEB1C32-E019-11D5-929B-00C0DF256EC4}
  9
$EXTNAMES
290
     1
  9
$PSVPSCALE
 40
0.0
  9
$OLESTARTUP
290
     0
  0
ENDSEC
  0
SECTION
  2
CLASSES
  0
CLASS
  1
ACDBDICTIONARYWDFLT
  2
AcDbDictionaryWithDefault
  3
ObjectDBX Classes
 90
        0
280
     0
281
     0
  0
CLASS
  1
VISUALSTYLE
  2
AcDbVisualStyle
  3
ObjectDBX Classes
 90
     4095
280
     0
281
     0
  0
CLASS
  1
MATERIAL
  2
AcDbMaterial
  3
ObjectDBX Classes
 90
     1153
280
     0
281
     0
  0
CLASS
  1
SCALE
  2
AcDbScale
  3
ObjectDBX Classes
 90
     1153
280
     0
281
     0
  0
CLASS
  1
TABLESTYLE
  2
AcDbTableStyle
  3
ObjectDBX Classes
 90
     4095
280
     0
281
     0
  0
CLASS
  1
MLEADERSTYLE
  2
AcDbMLeaderStyle
  3
ACDB_MLEADERSTYLE_CLASS
 90
     4095
280
     0
281
     0
  0
CLASS
  1
SUN
  2
AcDbSun
  3
SCENEOE
 90
     1153
280
     0
281
     0
  0
CLASS
  1
ACDBPLACEHOLDER
  2
AcDbPlaceHolder
  3
ObjectDBX Classes
 90
        0
280
     0
281
     0
  0
CLASS
  1
LAYOUT
  2
AcDbLayout
  3
ObjectDBX Classes
 90
        0
280
     0
281
     0
  0
ENDSEC
  0
SECTION
  2
TABLES
  0
TABLE
  2
VPORT
  5
8
330
0
100
AcDbSymbolTable
 70
     1
  0
VPORT
  5
29
330
8
100
AcDbSymbolTableRecord
100
AcDbViewportTableRecord
  2
*Active
 70
     0
 10
0.0
 20
0.0
 11
1.0
 21
1.0
 12
210.0
 22
148.5
 13
0.0
 23
0.0
 14
10.0
 24
10.0
 15
10.0
 25
10.0
 16
0.0
 26
0.0
 36
1.0
 17
0.0
 27
0.0
 37
0.0
 40
297.0
 41
1.4141414141
 42
50.0
 43
0.0
 44
0.0
 50
0.0
 51
0.0
 71
     0
 72
  2000
 73
     1
 74
     3
 75
     0
 76
     0
 77
     0
 78
     0
281
     0
 65
     1
110
0.0
120
0.0
130
0.0
111
1.0
121
0.0
131
0.0
112
0.0
122
1.0
132
0.0
 79
     0
146
0.0
  0
ENDTAB
  0
TABLE
  2
LTYPE
  5
5
330
0
100
AcDbSymbolTable
 70
     6
  0
LTYPE
  5
14
330
5
100
AcDbSymbolTableRecord
100
AcDbLinetypeTableRecord
  2
ByBlock
 70
     0
  3

 72
    65
 73
     0
 40
0.0
  0
LTYPE
  5
15
330
5
100
AcDbSymbolTableRecord
100
AcDbLinetypeTableRecord
  2
ByLayer
 70
     0
  3

 72
    65
 73
     0
 40
0.0
  0
LTYPE
  5
16
330
5
100
AcDbSymbolTableRecord
100
AcDbLinetypeTableRecord
  2
Continuous
 70
     0
  3
Solid line
 72
    65
 73
     0
 40
0.0
  0
LTYPE
  5
5E
330
5
100
AcDbSymbolTableRecord
100
AcDbLinetypeTableRecord
  2
HIDDEN
 70
     0
  3
Hidden __ __ __ __ __ __ __ __ __ __ __ __ __ __
 72
    65
 73
     2
 40
1.905
 49
1.27
 74
     0
 49
-0.635
 74
     0
  0
LTYPE
  5
5F
330
5
100
AcDbSymbolTableRecord
100
AcDbLinetypeTableRecord
  2
PHANTOM
 70
     0
  3
Phantom ______  __  __  ______  __  __  ______
 72
    65
 73
     6
 40
12.7
 49
6.35
 74
     0
 49
-1.27
 74
     0
 49
1.27
 74
     0
 49
-1.27
 74
     0
 49
1.27
 74
     0
 49
-1.27
 74
     0
  0
LTYPE
  5
60
330
5
100
AcDbSymbolTableRecord
100
AcDbLinetypeTableRecord
  2
CENTER
 70
     0
  3
Center ____ _ ____ _ ____ _ ____ _ ____ _ ____
 72
    65
 73
     4
 40
10.16
 49
6.35
 74
     0
 49
-1.27
 74
     0
 49
1.27
 74
     0
 49
-1.27
 74
     0
  0
LTYPE
  5
61
330
5
100
AcDbSymbolTableRecord
100
AcDbLinetypeTableRecord
  2
CENTERX2
 70
     0
  3
Center (2x) ________  __  ________  __  _____
 72
    65
 73
     4
 40
20.32
 49
12.7
 74
     0
 49
-2.54
 74
     0
 49
2.54
 74
     0
 49
-2.54
 74
     0
  0
LTYPE
  5
62
330
5
100
AcDbSymbolTableRecord
100
AcDbLinetypeTableRecord
  2
DOT2
 70
     0
  3
Dot (.5x) ........................................
 72
    65
 73
     2
 40
0.635
 49
0.0
 74
     0
 49
-0.635
 74
     0
  0
ENDTAB
  0
TABLE
  2
LAYER
  5
2
330
0
100
AcDbSymbolTable
 70
     3
  0
LAYER
  5
10
330
2
100
AcDbSymbolTableRecord
100
AcDbLayerTableRecord
  2
0
 70
     0
 62
     7
  6
Continuous
370
    -3
390
F
  0
LAYER
  5
63
330
2
100
AcDbSymbolTableRecord
100
AcDbLayerTableRecord
  2
ВОДЯНОЙ_ЗНАК
 70
     0
 62
    11
  6
Continuous
370
    -3
390
F
  0
LAYER
  5
64
330
2
100
AcDbSymbolTableRecord
100
AcDbLayerTableRecord
  2
ОСНОВНОЙ
 70
     0
 62
     7
  6
Continuous
370
    -3
390
F
  0
ENDTAB
  0
TABLE
  2
STYLE
  5
3
330
0
100
AcDbSymbolTable
 70
     2
  0
STYLE
  5
11
330
3
100
AcDbSymbolTableRecord
100
AcDbTextStyleTableRecord
  2
Standard
 70
     0
 40
0.0
 41
1.0
 50
0.0
 71
     0
 42
5.0
  3
txt
  4

  0
STYLE
  5
1A3
330
3
100
AcDbSymbolTableRecord
100
AcDbTextStyleTableRecord
  2
SLDTEXTSTYLE0
 70
     0
 40
0.0
 41
0.7
 50
0.0
 71
     0
 42
5.0
  3
TXT
  4

  0
ENDTAB
  0
TABLE
  2
VIEW
  5
6
330
0
100
AcDbSymbolTable
 70
     0
  0
ENDTAB
  0
TABLE
  2
UCS
  5
7
330
0
100
AcDbSymbolTable
 70
     0
  0
ENDTAB
  0
TABLE
  2
APPID
  5
9
330
0
100
AcDbSymbolTable
 70
     1
  0
APPID
  5
12
330
9
100
AcDbSymbolTableRecord
100
AcDbRegAppTableRecord
  2
ACAD
 70
     0
  0
ENDTAB
  0
TABLE
  2
DIMSTYLE
  5
A
330
0
100
AcDbSymbolTable
 70
     3
100
AcDbDimStyleTable
  0
DIMSTYLE
105
27
330
A
100
AcDbSymbolTableRecord
100
AcDbDimStyleTableRecord
  2
ISO-25
 70
     0
 41
2.5
 42
0.625
 43
3.75
 44
1.25
 73
     0
 74
     0
 77
     1
 78
     8
140
2.5
141
2.5
143
0.0393700787
147
0.625
171
     3
172
     1
178
     0
271
     2
272
     2
274
     3
278
    44
283
     0
284
     8
340
11
  0
DIMSTYLE
105
1A4
102
{ACAD_REACTORS
330
1A2
330
1AE
330
2FB
330
364
102
}
330
A
100
AcDbSymbolTableRecord
100
AcDbDimStyleTableRecord
  2
SLDDIMSTYLE0
 70
     0
 41
5.0
 44
0.0
 45
0.000000001
 73
     0
 74
     0
 77
     2
 78
    12
 79
     3
140
3.5
147
0.875
173
     1
178
     0
271
     1
272
     1
276
     2
284
    12
340
1A3
  0
DIMSTYLE
105
2EF
102
{ACAD_REACTORS
330
2EE
102
}
330
A
100
AcDbSymbolTableRecord
100
AcDbDimStyleTableRecord
  2
SLDDIMSTYLE1
 70
     0
 41
5.0
 44
0.0
 45
0.000000001
 73
     0
 74
     0
 77
     2
 78
    12
 79
     3
140
3.5
147
0.875
172
     1
173
     1
178
     0
271
     1
272
     1
276
     2
284
    12
289
     0
340
1A3
  0
ENDTAB
  0
TABLE
  2
BLOCK_RECORD
  5
1
330
0
100
AcDbSymbolTable
 70
     6
  0
BLOCK_RECORD
  5
1F
330
1
100
AcDbSymbolTableRecord
100
AcDbBlockTableRecord
  2
*Model_Space
340
22
  0
BLOCK_RECORD
  5
1B
330
1
100
AcDbSymbolTableRecord
100
AcDbBlockTableRecord
  2
*Paper_Space
340
1E
  0
BLOCK_RECORD
  5
23
330
1
100
AcDbSymbolTableRecord
100
AcDbBlockTableRecord
  2
*Paper_Space0
340
26
  0
BLOCK_RECORD
  5
1A5
330
1
100
AcDbSymbolTableRecord
100
AcDbBlockTableRecord
  2
_D
340
0
  0
BLOCK_RECORD
  5
1AF
330
1
100
AcDbSymbolTableRecord
100
AcDbBlockTableRecord
  2
_D_1
340
0
  0
BLOCK_RECORD
  5
2F0
330
1
100
AcDbSymbolTableRecord
100
AcDbBlockTableRecord
  2
_D_2
340
0
  0
BLOCK_RECORD
  5
2FC
330
1
100
AcDbSymbolTableRecord
100
AcDbBlockTableRecord
  2
_D_3
340
0
  0
BLOCK_RECORD
  5
365
330
1
100
AcDbSymbolTableRecord
100
AcDbBlockTableRecord
  2
_D_4
340
0
  0
ENDTAB
  0
ENDSEC
  0
SECTION
  2
BLOCKS
  0
BLOCK
  5
20
330
1F
100
AcDbEntity
  8
0
100
AcDbBlockBegin
  2
*Model_Space
 70
     0
 10
0.0
 20
0.0
 30
0.0
  3
*Model_Space
  1

  0
ENDBLK
  5
21
330
1F
100
AcDbEntity
  8
0
100
AcDbBlockEnd
  0
BLOCK
  5
1C
330
1B
100
AcDbEntity
 67
     1
  8
0
100
AcDbBlockBegin
  2
*Paper_Space
 70
     0
 10
0.0
 20
0.0
 30
0.0
  3
*Paper_Space
  1

  0
ENDBLK
  5
1D
330
1B
100
AcDbEntity
 67
     1
  8
0
100
AcDbBlockEnd
  0
BLOCK
  5
24
330
23
100
AcDbEntity
  8
0
100
AcDbBlockBegin
  2
*Paper_Space0
 70
     0
 10
0.0
 20
0.0
 30
0.0
  3
*Paper_Space0
  1

  0
ENDBLK
  5
25
330
23
100
AcDbEntity
  8
0
100
AcDbBlockEnd
  0
BLOCK
  5
1A6
330
1A5
100
AcDbEntity
  8
0
100
AcDbBlockBegin
  2
_D
 70
     0
 10
0.0
 20
0.0
 30
0.0
  3
_D
  1

  0
SOLID
  5
1A8
330
1A5
100
AcDbEntity
  8
ОСНОВНОЙ
100
AcDbTrace
 10
24.2555484694
 20
17.00125
 30
0.0
 11
25.2555484694
 21
22.00125
 31
0.0
 12
23.2555484694
 22
22.00125
 32
0.0
 13
23.2555484694
 23
22.00125
 33
0.0
  0
SOLID
  5
1A9
330
1A5
100
AcDbEntity
  8
ОСНОВНОЙ
100
AcDbTrace
 10
24.2555484694
 20
156.00125
 30
0.0
 11
23.2555484694
 21
151.00125
 31
0.0
 12
25.2555484694
 22
151.00125
 32
0.0
 13
25.2555484694
 23
151.00125
 33
0.0
  0
LINE
  5
1AA
330
1A5
100
AcDbEntity
  8
ОСНОВНОЙ
100
AcDbLine
 10
34.755472317
 20
17.00125
 30
0.0
 11
23.2555484694
 21
17.00125
 31
0.0
  0
LINE
  5
1AB
330
1A5
100
AcDbEntity
  8
ОСНОВНОЙ
100
AcDbLine
 10
34.755472317
 20
156.00125
 30
0.0
 11
23.2555484694
 21
156.00125
 31
0.0
  0
LINE
  5
1AC
330
1A5
100
AcDbEntity
  8
ОСНОВНОЙ
100
AcDbLine
 10
24.2555484694
 20
17.00125
 30
0.0
 11
24.2555484694
 21
156.00125
 31
0.0
  0
MTEXT
  5
1AD
330
1A5
100
AcDbEntity
  8
ОСНОВНОЙ
100
AcDbMText
 10
19.7438112638
 20
83.6404861913
 30
0.0
 40
3.5
 41
0.0
 71
     1
 72
     1
  1
139
  7
SLDTEXTSTYLE0
 11
6.123233995736766E-17
 21
1.0
 31
0.0
 73
     1
 44
1.0
  0
ENDBLK
  5
1A7
330
1A5
100
AcDbEntity
  8
0
100
AcDbBlockEnd
  0
BLOCK
  5
1B0
330
1AF
100
AcDbEntity
  8
0
100
AcDbBlockBegin
  2
_D_1
 70
     0
 10
0.0
 20
0.0
 30
0.0
  3
_D_1
  1

  0
SOLID
  5
1B2
330
1AF
100
AcDbEntity
  8
ОСНОВНОЙ
100
AcDbTrace
 10
34.2555484694
 20
7.00125
 30
0.0
 11
39.2555484694
 21
6.00125
 31
0.0
 12
39.2555484694
 22
8.00125
 32
0.0
 13
39.2555484694
 23
8.00125
 33
0.0
  0
SOLID
  5
1B3
330
1AF
100
AcDbEntity
  8
ОСНОВНОЙ
100
AcDbTrace
 10
123.2555484694
 20
7.00125
 30
0.0
 11
118.2555484694
 21
8.00125
 31
0.0
 12
118.2555484694
 22
6.00125
 32
0.0
 13
118.2555484694
 23
6.00125
 33
0.0
  0
LINE
  5
1B4
330
1AF
100
AcDbEntity
  8
ОСНОВНОЙ
100
AcDbLine
 10
34.2555484694
 20
17.5011738476
 30
0.0
 11
34.2555484694
 21
6.00125
 31
0.0
  0
LINE
  5
1B5
330
1AF
100
AcDbEntity
  8
ОСНОВНОЙ
100
AcDbLine
 10
123.2555484694
 20
17.5011738476
 30
0.0
 11
123.2555484694
 21
6.00125
 31
0.0
  0
LINE
  5
1B6
330
1AF
100
AcDbEntity
  8
ОСНОВНОЙ
100
AcDbLine
 10
34.2555484694
 20
7.00125
 30
0.0
 11
123.2555484694
 21
7.00125
 31
0.0
  0
MTEXT
  5
1B7
330
1AF
100
AcDbEntity
  8
ОСНОВНОЙ
100
AcDbMText
 10
76.5145763416
 20
11.5129872056
 30
0.0
 40
3.5
 41
0.0
 71
     1
 72
     1
  1
89
  7
SLDTEXTSTYLE0
 73
     1
 44
1.0
  0
ENDBLK
  5
1B1
330
1AF
100
AcDbEntity
  8
0
100
AcDbBlockEnd
  0
BLOCK
  5
2F1
330
2F0
100
AcDbEntity
  8
0
100
AcDbBlockBegin
  2
_D_2
 70
     0
 10
0.0
 20
0.0
 30
0.0
  3
_D_2
  1

  0
SOLID
  5
2F3
330
2F0
100
AcDbEntity
  8
ОСНОВНОЙ
100
AcDbTrace
 10
179.5880484694
 20
53.5203930609
 30
0.0
 11
174.5880484694
 21
54.5203930609
 31
0.0
 12
174.5880484694
 22
52.5203930609
 32
0.0
 13
174.5880484694
 23
52.5203930609
 33
0.0
  0
SOLID
  5
2F4
330
2F0
100
AcDbEntity
  8
ОСНОВНОЙ
100
AcDbTrace
 10
187.5880484694
 20
53.5203930609
 30
0.0
 11
192.5880484694
 21
52.5203930609
 31
0.0
 12
192.5880484694
 22
54.5203930609
 32
0.0
 13
192.5880484694
 23
54.5203930609
 33
0.0
  0
LINE
  5
2F5
330
2F0
100
AcDbEntity
  8
ОСНОВНОЙ
100
AcDbLine
 10
179.5880484694
 20
56.50125
 30
0.0
 11
179.5880484694
 21
52.5203930609
 31
0.0
  0
LINE
  5
2F6
330
2F0
100
AcDbEntity
  8
ОСНОВНОЙ
100
AcDbLine
 10
187.5880484694
 20
69.00125
 30
0.0
 11
187.5880484694
 21
52.5203930609
 31
0.0
  0
LINE
  5
2F7
330
2F0
100
AcDbEntity
  8
ОСНОВНОЙ
100
AcDbLine
 10
179.5880484694
 20
53.5203930609
 30
0.0
 11
171.5880484694
 21
53.5203930609
 31
0.0
  0
LINE
  5
2F8
330
2F0
100
AcDbEntity
  8
ОСНОВНОЙ
100
AcDbLine
 10
179.5880484694
 20
53.5203930609
 30
0.0
 11
187.5880484694
 21
53.5203930609
 31
0.0
  0
LINE
  5
2F9
330
2F0
100
AcDbEntity
  8
ОСНОВНОЙ
100
AcDbLine
 10
187.5880484694
 20
53.5203930609
 30
0.0
 11
195.5880484694
 21
53.5203930609
 31
0.0
  0
MTEXT
  5
2FA
330
2F0
100
AcDbEntity
  8
ОСНОВНОЙ
100
AcDbMText
 10
182.4675624055
 20
58.0321302665
 30
0.0
 40
3.5
 41
0.0
 71
     1
 72
     1
  1
8
  7
SLDTEXTSTYLE0
 73
     1
 44
1.0
  0
ENDBLK
  5
2F2
330
2F0
100
AcDbEntity
  8
0
100
AcDbBlockEnd
  0
BLOCK
  5
2FD
330
2FC
100
AcDbEntity
  8
0
100
AcDbBlockBegin
  2
_D_3
 70
     0
 10
0.0
 20
0.0
 30
0.0
  3
_D_3
  1

  0
SOLID
  5
2FF
330
2FC
100
AcDbEntity
  8
ОСНОВНОЙ
100
AcDbTrace
 10
187.5880484694
 20
53.5203930609
 30
0.0
 11
192.5880484694
 21
52.5203930609
 31
0.0
 12
192.5880484694
 22
54.5203930609
 32
0.0
 13
192.5880484694
 23
54.5203930609
 33
0.0
  0
SOLID
  5
300
330
2FC
100
AcDbEntity
  8
ОСНОВНОЙ
100
AcDbTrace
 10
234.0880484694
 20
53.5203930609
 30
0.0
 11
229.0880484694
 21
54.5203930609
 31
0.0
 12
229.0880484694
 22
52.5203930609
 32
0.0
 13
229.0880484694
 23
52.5203930609
 33
0.0
  0
LINE
  5
301
330
2FC
100
AcDbEntity
  8
ОСНОВНОЙ
100
AcDbLine
 10
187.5880484694
 20
69.00125
 30
0.0
 11
187.5880484694
 21
52.5203930609
 31
0.0
  0
LINE
  5
302
330
2FC
100
AcDbEntity
  8
ОСНОВНОЙ
100
AcDbLine
 10
187.5880484694
 20
53.5203930609
 30
0.0
 11
234.0880484694
 21
53.5203930609
 31
0.0
  0
MTEXT
  5
303
330
2FC
100
AcDbEntity
  8
ОСНОВНОЙ
100
AcDbMText
 10
207.2286736054
 20
58.0321302665
 30
0.0
 40
3.5
 41
0.0
 71
     1
 72
     1
  1
46,5
  7
SLDTEXTSTYLE0
 73
     1
 44
1.0
  0
ENDBLK
  5
2FE
330
2FC
100
AcDbEntity
  8
0
100
AcDbBlockEnd
  0
BLOCK
  5
366
330
365
100
AcDbEntity
  8
0
100
AcDbBlockBegin
  2
_D_4
 70
     0
 10
0.0
 20
0.0
 30
0.0
  3
_D_4
  1

  0
SOLID
  5
368
330
365
100
AcDbEntity
  8
ОСНОВНОЙ
100
AcDbTrace
 10
24.2555484694
 20
191.145
 30
0.0
 11
25.2555484694
 21
196.145
 31
0.0
 12
23.2555484694
 22
196.145
 32
0.0
 13
23.2555484694
 23
196.145
 33
0.0
  0
SOLID
  5
369
330
365
100
AcDbEntity
  8
ОСНОВНОЙ
100
AcDbTrace
 10
24.2555484694
 20
257.145
 30
0.0
 11
23.2555484694
 21
252.145
 31
0.0
 12
25.2555484694
 22
252.145
 32
0.0
 13
25.2555484694
 23
252.145
 33
0.0
  0
LINE
  5
36A
330
365
100
AcDbEntity
  8
ОСНОВНОЙ
100
AcDbLine
 10
39.2555484694
 20
191.145
 30
0.0
 11
23.2555484694
 21
191.145
 31
0.0
  0
LINE
  5
36B
330
365
100
AcDbEntity
  8
ОСНОВНОЙ
100
AcDbLine
 10
35.5847402175
 20
257.145
 30
0.0
 11
23.2555484694
 21
257.145
 31
0.0
  0
LINE
  5
36C
330
365
100
AcDbEntity
  8
ОСНОВНОЙ
100
AcDbLine
 10
24.2555484694
 20
191.145
 30
0.0
 11
24.2555484694
 21
257.145
 31
0.0
  0
MTEXT
  5
36D
330
365
100
AcDbEntity
  8
ОСНОВНОЙ
100
AcDbMText
 10
19.7438112638
 20
221.9040278722
 30
0.0
 40
3.5
 41
0.0
 71
     1
 72
     1
  1
66
  7
SLDTEXTSTYLE0
 11
6.123233995736766E-17
 21
1.0
 31
0.0
 73
     1
 44
1.0
  0
ENDBLK
  5
367
330
365
100
AcDbEntity
  8
0
100
AcDbBlockEnd
  0
ENDSEC
  0
SECTION
  2
ENTITIES
  0
LINE
  5
65
330
1F
100
AcDbEntity
  8
0
  6
Continuous
 62
     7
100
AcDbLine
 10
38.2555484694
 20
137.9923333333
 30
0.0
 11
39.6240484694
 21
137.9923333333
 31
0.0
  0
LINE
  5
66
330
1F
100
AcDbEntity
  8
0
  6
Continuous
 62
     7
100
AcDbLine
 10
38.2555484694
 20
141.1855
 30
0.0
 11
38.2555484694
 21
137.9923333333
 31
0.0
  0
LINE
  5
67
330
1F
100
AcDbEntity
  8
0
  6
Continuous
 62
     7
100
AcDbLine
 10
39.6240484694
 20
141.1855
 30
0.0
 11
38.2555484694
 21
141.1855
 31
0.0
  0
LINE
  5
68
330
1F
100
AcDbEntity
  8
0
  6
Continuous
 62
     7
100
AcDbLine
 10
39.6240484694
 20
137.9923333333
 30
0.0
 11
39.6240484694
 21
141.1855
 31
0.0
  0
LINE
  5
69
330
1F
100
AcDbEntity
  8
0
  6
Continuous
 62
     7
100
AcDbLine
 10
43.2277651361
 20
141.1855
 30
0.0
 11
40.0802151361
 21
141.1855
 31
0.0
  0
LINE
  5
6A
330
1F
100
AcDbEntity
  8
0
  6
Continuous
 62
     7
100
AcDbLine
 10
43.2277651361
 20
139.817
 30
0.0
 11
43.2277651361
 21
141.1855
 31
0.0
  0
LINE
  5
6B
330
1F
100
AcDbEntity
  8
0
  6
Continuous
 62
     7
100
AcDbLine
 10
41.4487151361
 20
139.817
 30
0.0
 11
43.2277651361
 21
139.817
 31
0.0
  0
LINE
  5
6C
330
1F
100
AcDbEntity
  8
0
  6
Continuous
 62
     7
100
AcDbLine
 10
41.4487151361
 20
139.3608333333
 30
0.0
 11
41.4487151361
 21
139.817
 31
0.0
  0
LINE
  5
6D
330
1F
100
AcDbEntity
  8
0
  6
Continuous
 62
     7
100
AcDbLine
 10
43.2277651361
 20
139.3608333333
 30
0.0
 11
41.4487151361
 21
139.3608333333
 31
0.0
  0
LINE
  5
6E
330
1F
100
AcDbEntity
  8
0
  6
Continuous
 62
     7
100
AcDbLine
 10
43.2277651361
 20
137.9923333333
 30
0.0
 11
43.2277651361
 21
139.3608333333
 31
0.0
  0
LINE
  5
6F
330
1F
100
AcDbEntity
  8
0
  6
Continuous
 62
     7
100
AcDbLine
 10
40.0802151361
 20
137.9923333333
 30
0.0
 11
43.2277651361
 21
137.9923333333
 31
0.0
  0
LINE
  5
70
330
1F
100
AcDbEntity
  8
0
  6
Continuous
 62
     7
100
AcDbLine
 10
40.0802151361
 20
141.1855
 30
0.0
 11
40.0802151361
 21
137.9923333333
 31
0.0
  0
LINE
  5
71
330
1F
100
AcDbEntity
  8
0
  6
Continuous
 62
     7
100
AcDbLine
 10
43.6839318027
 20
137.9923333333
 30
0.0
 11
45.0524318027
 21
137.9923333333
 31
0.0
  0
LINE
  5
72
330
1F
100
AcDbEntity
  8
0
  6
Continuous
 62
     7
100
AcDbLine
 10
43.6839318027
 20
143.0101666667
 30
0.0
 11
43.6839318027
 21
137.9923333333
 31
0.0
  0
LINE
  5
73
330
1F
100
AcDbEntity
  8
0
  6
Continuous
 62
     7
100
AcDbLine
 10
45.0524318027
 20
143.0101666667
 30
0.0
 11
43.6839318027
 21
143.0101666667
 31
0.0
  0
LINE
  5
74
330
1F
100
AcDbEntity
  8
0
  6
Continuous
 62
     7
100
AcDbLine
 10
45.0524318027
 20
141.1855
 30
0.0
 11
45.0524318027
 21
143.0101666667
 31
0.0
  0
LINE
  5
75
330
1F
100
AcDbEntity
  8
0
  6
Continuous
 62
     7
100
AcDbLine
 10
45.5085984694
 20
141.1855
 30
0.0
 11
45.0524318027
 21
141.1855
 31
0.0
  0
LINE
  5
76
330
1F
100
AcDbEntity
  8
0
  6
Continuous
 62
     7
100
AcDbLine
 10
46.7250429138
 20
143.0101666667
 30
0.0
 11
45.5085984694
 21
141.1855
 31
0.0
  0
LINE
  5
77
330
1F
100
AcDbEntity
  8
0
  6
Continuous
 62
     7
100
AcDbLine
 10
48.5192984694
 20
143.0101666667
 30
0.0
 11
46.7250429138
 21
143.0101666667
 31
0.0
  0
LINE
  5
78
330
1F
100
AcDbEntity
  8
0
  6
Continuous
 62
     7
100
AcDbLine
 10
46.8466873583
 20
140.50125
 30
0.0
 11
48.5192984694
 21
143.0101666667
 31
0.0
  0
LINE
  5
79
330
1F
100
AcDbEntity
  8
0
  6
Continuous
 62
     7
100
AcDbLine
 10
48.5192984694
 20
137.9923333333
 30
0.0
 11
46.8466873583
 21
140.50125
 31
0.0
  0
LINE
  5
7A
330
1F
100
AcDbEntity
  8
0
  6
Continuous
 62
     7
100
AcDbLine
 10
46.7250429138
 20
137.9923333333
 30
0.0
 11
48.5192984694
 21
137.9923333333
 31
0.0
  0
LINE
  5
7B
330
1F
100
AcDbEntity
  8
0
  6
Continuous
 62
     7
100
AcDbLine
 10
45.5085984694
 20
139.817
 30
0.0
 11
46.7250429138
 21
137.9923333333
 31
0.0
  0
LINE
  5
7C
330
1F
100
AcDbEntity
  8
0
  6
Continuous
 62
     7
100
AcDbLine
 10
45.0524318027
 20
139.817
 30
0.0
 11
45.5085984694
 21
139.817
 31
0.0
  0
LINE
  5
7D
330
1F
100
AcDbEntity
  8
0
  6
Continuous
 62
     7
100
AcDbLine
 10
45.0524318027
 20
137.9923333333
 30
0.0
 11
45.0524318027
 21
139.817
 31
0.0
  0
LINE
  5
7E
330
1F
100
AcDbEntity
  8
0
  6
Continuous
 62
     7
100
AcDbLine
 10
43.2277651361
 20
143.0101666667
 30
0.0
 11
40.0802151361
 21
143.0101666667
 31
0.0
  0
LINE
  5
7F
330
1F
100
AcDbEntity
  8
0
  6
Continuous
 62
     7
100
AcDbLine
 10
43.2277651361
 20
141.6416666667
 30
0.0
 11
43.2277651361
 21
143.0101666667
 31
0.0
  0
LINE
  5
80
330
1F
100
AcDbEntity
  8
0
  6
Continuous
 62
     7
100
AcDbLine
 10
40.0802151361
 20
141.6416666667
 30
0.0
 11
43.2277651361
 21
141.6416666667
 31
0.0
  0
LINE
  5
81
330
1F
100
AcDbEntity
  8
0
  6
Continuous
 62
     7
100
AcDbLine
 10
40.0802151361
 20
143.0101666667
 30
0.0
 11
40.0802151361
 21
141.6416666667
 31
0.0
  0
LINE
  5
82
330
1F
100
AcDbEntity
  8
0
  6
Continuous
 62
     7
100
AcDbLine
 10
39.6240484694
 20
143.0101666667
 30
0.0
 11
38.2555484694
 21
143.0101666667
 31
0.0
  0
LINE
  5
83
330
1F
100
AcDbEntity
  8
0
  6
Continuous
 62
     7
100
AcDbLine
 10
39.6240484694
 20
141.6416666667
 30
0.0
 11
39.6240484694
 21
143.0101666667
 31
0.0
  0
LINE
  5
84
330
1F
100
AcDbEntity
  8
0
  6
Continuous
 62
     7
100
AcDbLine
 10
38.2555484694
 20
141.6416666667
 30
0.0
 11
39.6240484694
 21
141.6416666667
 31
0.0
  0
LINE
  5
85
330
1F
100
AcDbEntity
  8
0
  6
Continuous
 62
     7
100
AcDbLine
 10
38.2555484694
 20
143.0101666667
 30
0.0
 11
38.2555484694
 21
141.6416666667
 31
0.0
  0
LINE
  5
86
330
1F
100
AcDbEntity
  8
0
  6
Continuous
 62
     7
100
AcDbLine
 10
116.8623336458
 20
145.5782488046
 30
0.0
 11
116.8555484694
 21
145.5782488046
 31
0.0
  0
SPLINE
  5
87
330
1F
100
AcDbEntity
  8
0
  6
Continuous
 62
     7
100
AcDbSpline
210
0.0
220
0.0
230
1.0
 70
     8
 71
     3
 72
    11
 73
     7
 74
     0
 42
0.00000001
 43
0.00000001
 40
0.0
 40
0.0
 40
0.0
 40
0.0
 40
0.2747331712046277
 40
0.5509888175402233
 40
0.7896628800750102
 40
1.0
 40
1.0
 40
1.0
 40
1.0
 10
117.1489159660024
 20
151.0600694607902
 30
0.0
 10
117.4157666531233
 20
150.6252792139883
 30
0.0
 10
117.9509468205267
 20
149.7532892649297
 30
0.0
 10
118.0936718623726
 20
148.1645058595985
 30
0.0
 10
117.7199699846661
 20
146.6754440135605
 30
0.0
 10
117.135926156449
 20
145.9282624156027
 30
0.0
 10
116.8623336457587
 20
145.5782488045509
 30
0.0
  0
SPLINE
  5
88
330
1F
100
AcDbEntity
  8
0
  6
Continuous
 62
     7
100
AcDbSpline
210
0.0
220
0.0
230
1.0
 70
     8
 71
     3
 72
    14
 73
    10
 74
     0
 42
0.00000001
 43
0.00000001
 40
0.0
 40
0.0
 40
0.0
 40
0.0
 40
0.207344867183454
 40
0.3585486156668465
 40
0.4776971896694925
 40
0.5972154242409449
 40
0.7378902318913335
 40
0.9330220044288161
 40
1.0
 40
1.0
 40
1.0
 40
1.0
 10
110.362180972773
 20
151.0600694607902
 30
0.0
 10
110.7101978563271
 20
151.4400142259116
 30
0.0
 10
111.3120018629659
 20
152.0970291374196
 30
0.0
 10
112.4746009065592
 20
152.6142522156307
 30
0.0
 10
113.5617605075224
 20
152.8024476460972
 30
0.0
 10
114.653492329985
 20
152.7168043493372
 30
0.0
 10
115.8167220342988
 20
152.3033972780362
 30
0.0
 10
116.6396862993397
 20
151.6931254791334
 30
0.0
 10
117.045274366032
 20
151.1889129726813
 30
0.0
 10
117.1489159660024
 20
151.0600694607902
 30
0.0
  0
SPLINE
  5
89
330
1F
100
AcDbEntity
  8
0
  6
Continuous
 62
     7
100
AcDbSpline
210
0.0
220
0.0
230
1.0
 70
     8
 71
     3
 72
    12
 73
     8
 74
     0
 42
0.00000001
 43
0.00000001
 40
0.0
 40
0.0
 40
0.0
 40
0.0
 40
0.2148519667571578
 40
0.4304516530037883
 40
0.6444827688672239
 40
0.8743306998724173
 40
1.0
 40
1.0
 40
1.0
 40
1.0
 10
110.6487632930168
 20
145.5782488045509
 30
0.0
 10
110.3695787711881
 20
145.9366462804005
 30
0.0
 10
109.8102381203758
 20
146.6546885131077
 30
0.0
 10
109.4603874610411
 20
147.9753616696533
 30
0.0
 10
109.5059823065747
 20
149.2947045108847
 30
0.0
 10
109.8612584897116
 20
150.3314223117419
 30
0.0
 10
110.2313573237826
 20
150.8697719954372
 30
0.0
 10
110.362180972773
 20
151.0600694607902
 30
0.0
  0
LINE
  5
8A
330
1F
100
AcDbEntity
  8
0
  6
Continuous
 62
     7
100
AcDbLine
 10
110.6555484694
 20
145.5782488046
 30
0.0
 11
110.648763293
 21
145.5782488046
 31
0.0
  0
LINE
  5
8B
330
1F
100
AcDbEntity
  8
0
  6
Continuous
 62
     7
100
AcDbLine
 10
110.6555484694
 20
145.5782488046
 30
0.0
 11
110.6555484694
 21
145.3364342523
 31
0.0
  0
LINE
  5
8C
330
1F
100
AcDbEntity
  8
0
  6
Continuous
 62
     7
100
AcDbLine
 10
116.8555484694
 20
145.5782488046
 30
0.0
 11
116.8555484694
 21
145.3364342523
 31
0.0
  0
ELLIPSE
  5
8D
330
1F
100
AcDbEntity
  8
0
  6
Continuous
 62
     7
100
AcDbEllipse
 10
120.2363852923
 20
37.8704131771
 30
0.0
 11
-0.3536610945847939
 21
0.3536610945847868
 31
0.0
210
0.0
220
0.0
230
0.9999999999999998
 40
0.9996954599
 41
2.356346783439908
 42
3.926838523739657
  0
ELLIPSE
  5
8E
330
1F
100
AcDbEntity
  8
0
  6
Continuous
 62
     7
100
AcDbEllipse
 10
120.1054723054
 20
38.001326164
 30
0.0
 11
-0.3536610945847939
 21
0.3536610945847868
 31
0.0
210
0.0
220
0.0
230
0.9999999999999998
 40
0.9996954599
 41
2.356346783439862
 42
3.926838523739662
  0
SPLINE
  5
8F
330
1F
100
AcDbEntity
  8
0
  6
Continuous
 62
     7
100
AcDbSpline
210
0.0
220
0.0
230
1.0
 70
     8
 71
     3
 72
    11
 73
     7
 74
     0
 42
0.00000001
 43
0.00000001
 40
0.0
 40
0.0
 40
0.0
 40
0.0
 40
0.2747331712046277
 40
0.5509888175402233
 40
0.7896628800750102
 40
1.0
 40
1.0
 40
1.0
 40
1.0
 10
40.3621809727731
 20
21.94243053920954
 30
0.0
 10
40.0953302856522
 20
22.37722078601148
 30
0.0
 10
39.56015011824883
 20
23.24921073507006
 30
0.0
 10
39.41742507640288
 20
24.83799414040121
 30
0.0
 10
39.79112695410942
 20
26.32705598643927
 30
0.0
 10
40.37517078232656
 20
27.07423758439707
 30
0.0
 10
40.64876329301681
 20
27.42425119544889
 30
0.0
  0
LINE
  5
90
330
1F
100
AcDbEntity
  8
0
  6
Continuous
 62
     7
100
AcDbLine
 10
40.648763293
 20
27.4242511954
 30
0.0
 11
40.6555484694
 21
27.408568352
 31
0.0
  0
ARC
  5
91
330
1F
100
AcDbEntity
  8
0
  6
Continuous
 62
     7
100
AcDbCircle
 10
43.7555484694
 20
24.50125
 30
0.0
 40
4.250000000000139
100
AcDbArc
 50
136.8371028597
 51
217.018665572
  0
SPLINE
  5
92
330
1F
100
AcDbEntity
  8
0
  6
Continuous
 62
     7
100
AcDbSpline
210
0.0
220
0.0
230
1.0
 70
     8
 71
     3
 72
    12
 73
     8
 74
     0
 42
0.00000001
 43
0.00000001
 40
0.0
 40
0.0
 40
0.0
 40
0.0
 40
0.2148519667571578
 40
0.4304516530037883
 40
0.6444827688672239
 40
0.8743306998724173
 40
1.0
 40
1.0
 40
1.0
 40
1.0
 10
46.86233364575871
 20
27.42425119544889
 30
0.0
 10
47.14151816758744
 20
27.0658537195993
 30
0.0
 10
47.70085881839974
 20
26.34781148689212
 30
0.0
 10
48.0507094777344
 20
25.02713833034644
 30
0.0
 10
48.00511463220086
 20
23.70779548911506
 30
0.0
 10
47.64983844906394
 20
22.67107768825786
 30
0.0
 10
47.27973961499287
 20
22.13272800456258
 30
0.0
 10
47.14891596600248
 20
21.94243053920955
 30
0.0
  0
ARC
  5
93
330
1F
100
AcDbEntity
  8
0
  6
Continuous
 62
     7
100
AcDbCircle
 10
43.7555484694
 20
24.50125
 30
0.0
 40
4.250000000000039
100
AcDbArc
 50
322.981334428
 51
43.1628971403
  0
LINE
  5
94
330
1F
100
AcDbEntity
  8
0
  6
Continuous
 62
     7
100
AcDbLine
 10
46.8623336458
 20
27.4242511954
 30
0.0
 11
46.8555484694
 21
27.408568352
 31
0.0
  0
LINE
  5
95
330
1F
100
AcDbEntity
  8
0
  6
Continuous
 62
     7
100
AcDbLine
 10
40.648763293
 20
27.4242511954
 30
0.0
 11
40.6555484694
 21
27.4242511954
 31
0.0
  0
SPLINE
  5
96
330
1F
100
AcDbEntity
  8
0
  6
Continuous
 62
     7
100
AcDbSpline
210
0.0
220
0.0
230
1.0
 70
     8
 71
     3
 72
    14
 73
    10
 74
     0
 42
0.00000001
 43
0.00000001
 40
0.0
 40
0.0
 40
0.0
 40
0.0
 40
0.207344867183454
 40
0.3585486156668465
 40
0.4776971896694925
 40
0.5972154242409449
 40
0.7378902318913335
 40
0.9330220044288161
 40
1.0
 40
1.0
 40
1.0
 40
1.0
 10
47.14891596600248
 20
21.94243053920955
 30
0.0
 10
46.80089908244845
 20
21.56248577408812
 30
0.0
 10
46.19909507580965
 20
20.90547086258021
 30
0.0
 10
45.03649603221633
 20
20.388247784369
 30
0.0
 10
43.94933643125309
 20
20.20005235390253
 30
0.0
 10
42.85760460879057
 20
20.28569565066252
 30
0.0
 10
41.69437490447669
 20
20.69910272196358
 30
0.0
 10
40.87141063943577
 20
21.3093745208663
 30
0.0
 10
40.46582257274347
 20
21.81358702731842
 30
0.0
 10
40.3621809727731
 20
21.94243053920954
 30
0.0
  0
LINE
  5
97
330
1F
100
AcDbEntity
  8
0
  6
Continuous
 62
     7
100
AcDbLine
 10
46.8555484694
 20
27.4242511954
 30
0.0
 11
46.8623336458
 21
27.4242511954
 31
0.0
  0
LINE
  5
98
330
1F
100
AcDbEntity
  8
0
  6
Continuous
 62
     7
100
AcDbLine
 10
46.8555484694
 20
27.4242511954
 30
0.0
 11
46.8555484694
 21
27.6660657477
 31
0.0
  0
LINE
  5
99
330
1F
100
AcDbEntity
  8
0
  6
Continuous
 62
     7
100
AcDbLine
 10
40.6555484694
 20
27.4242511954
 30
0.0
 11
40.6555484694
 21
27.6660657477
 31
0.0
  0
LINE
  5
9A
330
1F
100
AcDbEntity
  8
0
  6
Continuous
 62
     7
100
AcDbLine
 10
120.2365376088
 20
135.632162987
 30
0.0
 11
37.27455933
 21
135.632162987
 31
0.0
  0
LINE
  5
9B
330
1F
100
AcDbEntity
  8
0
  6
Continuous
 62
     7
100
AcDbLine
 10
120.1056246218
 20
135.50125
 30
0.0
 11
37.405472317
 21
135.50125
 31
0.0
  0
ARC
  5
9C
330
1F
100
AcDbEntity
  8
0
  6
Continuous
 62
     7
100
AcDbCircle
 10
43.7555484694
 20
24.726533896
 30
0.0
 40
4.213705600722395
100
AcDbArc
 50
60.9891768422
 51
119.0108231578
  0
LINE
  5
9D
330
1F
100
AcDbEntity
  8
0
  6
Continuous
 62
     7
100
AcDbLine
 10
116.8623336458
 20
145.5782488046
 30
0.0
 11
116.8555484694
 21
145.593931648
 31
0.0
  0
ARC
  5
9E
330
1F
100
AcDbEntity
  8
0
  6
Continuous
 62
     7
100
AcDbCircle
 10
113.7555484694
 20
148.50125
 30
0.0
 40
4.250000000000121
100
AcDbArc
 50
316.8371028597
 51
37.018665572
  0
ARC
  5
9F
330
1F
100
AcDbEntity
  8
0
  6
Continuous
 62
     7
100
AcDbCircle
 10
113.7555484694
 20
148.50125
 30
0.0
 40
4.25000000000005
100
AcDbArc
 50
142.981334428
 51
223.1628971403
  0
LINE
  5
A0
330
1F
100
AcDbEntity
  8
0
  6
Continuous
 62
     7
100
AcDbLine
 10
110.648763293
 20
145.5782488046
 30
0.0
 11
110.6555484694
 21
145.593931648
 31
0.0
  0
ARC
  5
A1
330
1F
100
AcDbEntity
  8
0
  6
Continuous
 62
     7
100
AcDbCircle
 10
113.7555484694
 20
148.275966104
 30
0.0
 40
4.213705600722407
100
AcDbArc
 50
240.9891768422
 51
299.0108231578
  0
LINE
  5
A2
330
1F
100
AcDbEntity
  8
0
  6
Continuous
 62
     7
100
AcDbLine
 10
110.6555484694
 20
145.3364342523
 30
0.0
 11
110.6555484694
 21
144.3311569251
 31
0.0
  0
ELLIPSE
  5
A3
330
1F
100
AcDbEntity
  8
0
  6
Continuous
 62
     7
100
AcDbEllipse
 10
37.2747116464
 20
37.8704131771
 30
0.0
 11
0.3536610945847939
 21
0.3536610945847868
 31
0.0
210
0.0
220
0.0
230
0.9999999999999998
 40
0.9996954599
 41
2.356346783439958
 42
3.926838523739677
  0
LINE
  5
A4
330
1F
100
AcDbEntity
  8
0
  6
Continuous
 62
     7
100
AcDbLine
 10
37.27455933
 20
37.370337013
 30
0.0
 11
120.2365376088
 21
37.370337013
 31
0.0
  0
LINE
  5
A5
330
1F
100
AcDbEntity
  8
0
  6
Continuous
 62
     7
100
AcDbLine
 10
120.7364614563
 20
37.8702608606
 30
0.0
 11
120.7364614563
 21
135.1322391394
 31
0.0
  0
ELLIPSE
  5
A6
330
1F
100
AcDbEntity
  8
0
  6
Continuous
 62
     7
100
AcDbEllipse
 10
120.2363852923
 20
135.1320868229
 30
0.0
 11
-0.353661094584794
 21
-0.353661094584794
 31
0.0
210
0.0
220
0.0
230
0.9999999999999998
 40
0.9996954599
 41
2.356346783439947
 42
3.926838523739681
  0
ELLIPSE
  5
A7
330
1F
100
AcDbEntity
  8
0
  6
Continuous
 62
     7
100
AcDbEllipse
 10
37.2747116464
 20
135.1320868229
 30
0.0
 11
0.353661094584794
 21
-0.353661094584794
 31
0.0
210
0.0
220
0.0
230
0.9999999999999998
 40
0.9996954599
 41
2.356346783439903
 42
3.926838523739668
  0
LINE
  5
A8
330
1F
100
AcDbEntity
  8
0
  6
Continuous
 62
     7
100
AcDbLine
 10
36.7746354824
 20
135.1322391394
 30
0.0
 11
36.7746354824
 21
37.8702608606
 31
0.0
  0
LINE
  5
A9
330
1F
100
AcDbEntity
  8
0
  6
Continuous
 62
     7
100
AcDbLine
 10
116.8555484694
 20
145.3364342523
 30
0.0
 11
116.8555484694
 21
144.3311569251
 31
0.0
  0
LINE
  5
AA
330
1F
100
AcDbEntity
  8
0
  6
Continuous
 62
     7
100
AcDbLine
 10
46.8555484694
 20
27.6660657477
 30
0.0
 11
46.8555484694
 21
28.6713430749
 31
0.0
  0
LINE
  5
AB
330
1F
100
AcDbEntity
  8
0
  6
Continuous
 62
     7
100
AcDbLine
 10
40.6555484694
 20
27.6660657477
 30
0.0
 11
40.6555484694
 21
28.6713430749
 31
0.0
  0
ELLIPSE
  5
AC
330
1F
100
AcDbEntity
  8
0
  6
Continuous
 62
     7
100
AcDbEllipse
 10
120.1054723054
 20
135.001173836
 30
0.0
 11
-0.353661094584794
 21
-0.353661094584794
 31
0.0
210
0.0
220
0.0
230
0.9999999999999998
 40
0.9996954599
 41
2.356346783439931
 42
3.926838523739698
  0
LINE
  5
AD
330
1F
100
AcDbEntity
  8
0
  6
Continuous
 62
     7
100
AcDbLine
 10
120.6055484694
 20
38.0011738476
 30
0.0
 11
120.6055484694
 21
135.0013261524
 31
0.0
  0
ELLIPSE
  5
AE
330
1F
100
AcDbEntity
  8
0
  6
Continuous
 62
     7
100
AcDbEllipse
 10
120.6710049629
 20
130.80125
 30
0.0
 11
0.0
 21
1.75
 31
0.0
210
0.0
220
0.0
230
1.0
 40
0.0174550649
 41
0.0
 42
6.283185307179586
  0
ELLIPSE
  5
AF
330
1F
100
AcDbEntity
  8
0
  6
Continuous
 62
     7
100
AcDbEllipse
 10
37.4056246334
 20
135.001173836
 30
0.0
 11
0.3536610945847868
 21
-0.3536610945847939
 31
0.0
210
0.0
220
0.0
230
0.9999999999999998
 40
0.9996954599
 41
2.356346783439939
 42
3.92683852373971
  0
LINE
  5
B0
330
1F
100
AcDbEntity
  8
0
  6
Continuous
 62
     7
100
AcDbLine
 10
37.405472317
 20
37.50125
 30
0.0
 11
120.1056246218
 21
37.50125
 31
0.0
  0
ELLIPSE
  5
B1
330
1F
100
AcDbEntity
  8
0
  6
Continuous
 62
     7
100
AcDbEllipse
 10
37.4056246334
 20
38.001326164
 30
0.0
 11
0.353661094584787
 21
0.353661094584787
 31
0.0
210
0.0
220
0.0
230
0.9999999999999998
 40
0.9996954599
 41
2.356346783439934
 42
3.926838523739667
  0
LINE
  5
B2
330
1F
100
AcDbEntity
  8
0
  6
Continuous
 62
     7
100
AcDbLine
 10
36.9055484694
 20
135.0013261524
 30
0.0
 11
36.9055484694
 21
38.0011738476
 31
0.0
  0
ELLIPSE
  5
B3
330
1F
100
AcDbEntity
  8
0
  6
Continuous
 62
     7
100
AcDbEllipse
 10
36.8400919759
 20
130.80125
 30
0.0
 11
0.0
 21
1.75
 31
0.0
210
0.0
220
0.0
230
1.0
 40
0.0174550649
 41
0.0
 42
6.283185307179586
  0
LINE
  5
B4
330
1F
100
AcDbEntity
  8
0
  6
Continuous
 62
     7
100
AcDbLine
 10
46.8555484694
 20
27.4242511954
 30
0.0
 11
46.8555484694
 21
27.408568352
 31
0.0
  0
LINE
  5
B5
330
1F
100
AcDbEntity
  8
0
  6
Continuous
 62
     7
100
AcDbLine
 10
116.8555484694
 20
145.5782488046
 30
0.0
 11
116.8555484694
 21
145.593931648
 31
0.0
  0
LINE
  5
B6
330
1F
100
AcDbEntity
  8
0
  6
Continuous
 62
     7
100
AcDbLine
 10
110.6555484694
 20
145.5782488046
 30
0.0
 11
110.6555484694
 21
145.593931648
 31
0.0
  0
LINE
  5
B7
330
1F
100
AcDbEntity
  8
0
  6
Continuous
 62
     7
100
AcDbLine
 10
40.6555484694
 20
27.4242511954
 30
0.0
 11
40.6555484694
 21
27.408568352
 31
0.0
  0
SPLINE
  5
B8
330
1F
100
AcDbEntity
  8
0
  6
Continuous
 62
     7
100
AcDbSpline
210
0.0
220
0.0
230
1.0
 70
     8
 71
     3
 72
     9
 73
     5
 74
     0
 42
0.00000001
 43
0.00000001
 40
0.0
 40
0.0
 40
0.0
 40
0.0
 40
0.5175208016819254
 40
0.9999999999999999
 40
0.9999999999999999
 40
0.9999999999999999
 40
0.9999999999999999
 10
110.762008151834
 20
144.6659985135079
 30
0.0
 10
110.7563119720695
 20
144.6650099697157
 30
0.0
 10
110.7453053038427
 20
144.6630998169469
 30
0.0
 10
110.6847602152123
 20
144.6615000663681
 30
0.0
 10
110.6555484693878
 20
144.6607282199914
 30
0.0
  0
LINE
  5
B9
330
1F
100
AcDbEntity
  8
0
  6
Continuous
 62
     7
100
AcDbLine
 10
111.013435596
 20
145.00125
 30
0.0
 11
110.7620081518
 21
144.6659985135
 31
0.0
  0
LINE
  5
BA
330
1F
100
AcDbEntity
  8
0
  6
Continuous
 62
     7
100
AcDbLine
 10
116.4976613428
 20
145.00125
 30
0.0
 11
111.013435596
 21
145.00125
 31
0.0
  0
LINE
  5
BB
330
1F
100
AcDbEntity
  8
0
  6
Continuous
 62
     7
100
AcDbLine
 10
116.4976613428
 20
145.00125
 30
0.0
 11
116.7490887869
 21
144.6659985135
 31
0.0
  0
SPLINE
  5
BC
330
1F
100
AcDbEntity
  8
0
  6
Continuous
 62
     7
100
AcDbSpline
210
0.0
220
0.0
230
1.0
 70
     8
 71
     3
 72
     9
 73
     5
 74
     0
 42
0.00000001
 43
0.00000001
 40
0.0
 40
0.0
 40
0.0
 40
0.0
 40
0.5175021458616628
 40
1.0
 40
1.0
 40
1.0
 40
1.0
 10
116.8555484693878
 20
144.6607282199914
 30
0.0
 10
116.8244640390167
 20
144.661560520784
 30
0.0
 10
116.7643977559692
 20
144.6631688248256
 30
0.0
 10
116.7540712863659
 20
144.6650775551987
 30
0.0
 10
116.7490887869415
 20
144.6659985135079
 30
0.0
  0
SPLINE
  5
BD
330
1F
100
AcDbEntity
  8
0
  6
Continuous
 62
     7
100
AcDbSpline
210
0.0
220
0.0
230
1.0
 70
     8
 71
     3
 72
     9
 73
     5
 74
     0
 42
0.00000001
 43
0.00000001
 40
0.0
 40
0.0
 40
0.0
 40
0.0
 40
0.5175208016819254
 40
0.9999999999999999
 40
0.9999999999999999
 40
0.9999999999999999
 40
0.9999999999999999
 10
46.74908878694153
 20
28.33650148649187
 30
0.0
 10
46.75478496670606
 20
28.33749003028408
 30
0.0
 10
46.76579163493279
 20
28.33940018305285
 30
0.0
 10
46.82633672356324
 20
28.34099993363162
 30
0.0
 10
46.85554846938776
 20
28.34177178000837
 30
0.0
  0
LINE
  5
BE
330
1F
100
AcDbEntity
  8
0
  6
Continuous
 62
     7
100
AcDbLine
 10
46.4976613428
 20
28.00125
 30
0.0
 11
46.7490887869
 21
28.3365014865
 31
0.0
  0
LINE
  5
BF
330
1F
100
AcDbEntity
  8
0
  6
Continuous
 62
     7
100
AcDbLine
 10
41.013435596
 20
28.00125
 30
0.0
 11
46.4976613428
 21
28.00125
 31
0.0
  0
LINE
  5
C0
330
1F
100
AcDbEntity
  8
0
  6
Continuous
 62
     7
100
AcDbLine
 10
41.013435596
 20
28.00125
 30
0.0
 11
40.7620081518
 21
28.3365014865
 31
0.0
  0
SPLINE
  5
C1
330
1F
100
AcDbEntity
  8
0
  6
Continuous
 62
     7
100
AcDbSpline
210
0.0
220
0.0
230
1.0
 70
     8
 71
     3
 72
     9
 73
     5
 74
     0
 42
0.00000001
 43
0.00000001
 40
0.0
 40
0.0
 40
0.0
 40
0.0
 40
0.5175021458616628
 40
1.0
 40
1.0
 40
1.0
 40
1.0
 10
40.65554846938776
 20
28.34177178000837
 30
0.0
 10
40.68663289975879
 20
28.34093947921571
 30
0.0
 10
40.74669918280632
 20
28.33933117517421
 30
0.0
 10
40.7570256524096
 20
28.33742244480105
 30
0.0
 10
40.76200815183399
 20
28.33650148649187
 30
0.0
  0
LINE
  5
C2
330
1F
100
AcDbEntity
  8
0
  6
Continuous
 62
     7
100
AcDbLine
 10
34.2555484694
 20
155.5013261524
 30
0.0
 11
34.2555484694
 21
17.5011738476
 31
0.0
  0
LINE
  5
C3
330
1F
100
AcDbEntity
  8
0
  6
Continuous
 62
     7
100
AcDbLine
 10
34.2817310668
 20
155.475143555
 30
0.0
 11
34.2817310668
 21
152.9012956915
 31
0.0
  0
ELLIPSE
  5
C4
330
1F
100
AcDbEntity
  8
0
  6
Continuous
 62
     7
100
AcDbEllipse
 10
35.0279350925
 20
130.80125
 30
0.0
 11
0.0
 21
1.75
 31
0.0
210
0.0
220
0.0
230
1.0
 40
0.0174550649
 41
0.0
 42
6.283185307179586
  0
LINE
  5
C5
330
1F
100
AcDbEntity
  8
0
  6
Continuous
 62
     7
100
AcDbLine
 10
123.2555484694
 20
17.5011738476
 30
0.0
 11
123.2555484694
 21
155.5013261524
 31
0.0
  0
LINE
  5
C6
330
1F
100
AcDbEntity
  8
0
  6
Continuous
 62
     7
100
AcDbLine
 10
123.229365872
 20
17.527356445
 30
0.0
 11
123.229365872
 21
20.1012043085
 31
0.0
  0
ELLIPSE
  5
C7
330
1F
100
AcDbEntity
  8
0
  6
Continuous
 62
     7
100
AcDbEllipse
 10
122.4831618463
 20
130.80125
 30
0.0
 11
0.0
 21
1.75
 31
0.0
210
0.0
220
0.0
230
1.0
 40
0.0174550649
 41
0.0
 42
6.283185307179586
  0
ARC
  5
C8
330
1F
100
AcDbEntity
  8
0
  6
Continuous
 62
     7
100
AcDbCircle
 10
113.7555484694
 20
148.50125
 30
0.0
 40
4.25000000000005
100
AcDbArc
 50
37.018665572
 51
142.981334428
  0
ARC
  5
C9
330
1F
100
AcDbEntity
  8
0
  6
Continuous
 62
     7
100
AcDbCircle
 10
43.7555484694
 20
24.50125
 30
0.0
 40
4.250000000000039
100
AcDbArc
 50
217.018665572
 51
322.981334428
  0
ARC
  5
CA
330
1F
100
AcDbEntity
  8
0
  6
Continuous
 62
     7
100
AcDbCircle
 10
43.1555484694
 20
24.676533896
 30
0.0
 40
2.5
100
AcDbArc
 50
180.0
 51
270.0
  0
LINE
  5
CB
330
1F
100
AcDbEntity
  8
0
  6
Continuous
 62
     7
100
AcDbLine
 10
43.1555484694
 20
22.176533896
 30
0.0
 11
44.3555484694
 21
22.176533896
 31
0.0
  0
ARC
  5
CC
330
1F
100
AcDbEntity
  8
0
  6
Continuous
 62
     7
100
AcDbCircle
 10
44.3555484694
 20
24.676533896
 30
0.0
 40
2.5
100
AcDbArc
 50
270.0
 51
0.0
  0
LINE
  5
CD
330
1F
100
AcDbEntity
  8
0
  6
Continuous
 62
     7
100
AcDbLine
 10
46.8555484694
 20
27.408568352
 30
0.0
 11
46.8555484694
 21
24.676533896
 31
0.0
  0
LINE
  5
CE
330
1F
100
AcDbEntity
  8
0
  6
Continuous
 62
     7
100
AcDbLine
 10
40.6555484694
 20
27.408568352
 30
0.0
 11
40.6555484694
 21
24.676533896
 31
0.0
  0
ARC
  5
CF
330
1F
100
AcDbEntity
  8
0
  6
Continuous
 62
     7
100
AcDbCircle
 10
114.3555484694
 20
148.325966104
 30
0.0
 40
2.5
100
AcDbArc
 50
0.0
 51
90.0
  0
LINE
  5
D0
330
1F
100
AcDbEntity
  8
0
  6
Continuous
 62
     7
100
AcDbLine
 10
114.3555484694
 20
150.825966104
 30
0.0
 11
113.1555484694
 21
150.825966104
 31
0.0
  0
ARC
  5
D1
330
1F
100
AcDbEntity
  8
0
  6
Continuous
 62
     7
100
AcDbCircle
 10
113.1555484694
 20
148.325966104
 30
0.0
 40
2.5
100
AcDbArc
 50
90.0
 51
180.0
  0
LINE
  5
D2
330
1F
100
AcDbEntity
  8
0
  6
Continuous
 62
     7
100
AcDbLine
 10
110.6555484694
 20
145.593931648
 30
0.0
 11
110.6555484694
 21
148.325966104
 31
0.0
  0
LINE
  5
D3
330
1F
100
AcDbEntity
  8
0
  6
Continuous
 62
     7
100
AcDbLine
 10
116.8555484694
 20
145.593931648
 30
0.0
 11
116.8555484694
 21
148.325966104
 31
0.0
  0
ARC
  5
D4
330
1F
100
AcDbEntity
  8
0
  6
Continuous
 62
     7
100
AcDbCircle
 10
36.0555484694
 20
154.20125
 30
0.0
 40
1.0
100
AcDbArc
 50
270.0
 51
0.0
  0
ARC
  5
D5
330
1F
100
AcDbEntity
  8
0
  6
Continuous
 62
     7
100
AcDbCircle
 10
121.4555484694
 20
18.80125
 30
0.0
 40
1.0
100
AcDbArc
 50
90.0
 51
180.0
  0
LINE
  5
D6
330
1F
100
AcDbEntity
  8
0
  6
Continuous
 62
     7
100
AcDbLine
 10
34.5816853753
 20
153.20125
 30
0.0
 11
36.0555484694
 21
153.20125
 31
0.0
  0
LINE
  5
D7
330
1F
100
AcDbEntity
  8
0
  6
Continuous
 62
     7
100
AcDbLine
 10
122.9294115634
 20
19.80125
 30
0.0
 11
121.4555484694
 21
19.80125
 31
0.0
  0
ELLIPSE
  5
D8
330
1F
100
AcDbEntity
  8
0
  6
Continuous
 62
     7
100
AcDbEllipse
 10
34.5817767652
 20
152.9012043016
 30
0.0
 11
-0.2121966567508693
 21
0.2121966567508764
 31
0.0
210
0.0
220
0.0
230
1.0
 40
0.9996954599
 41
5.497939437029755
 42
7.068431177329606
  0
ELLIPSE
  5
D9
330
1F
100
AcDbEntity
  8
0
  6
Continuous
 62
     7
100
AcDbEllipse
 10
122.9293201736
 20
20.1012956984
 30
0.0
 11
0.2121966567508764
 21
-0.2121966567508729
 31
0.0
210
0.0
220
0.0
230
0.9999999999999998
 40
0.9996954599
 41
5.497939437029721
 42
7.068431177329447
  0
LINE
  5
DA
330
1F
100
AcDbEntity
  8
0
  6
Continuous
 62
     7
100
AcDbLine
 10
120.4555484694
 20
18.80125
 30
0.0
 11
120.4555484694
 21
17.3273869059
 31
0.0
  0
LINE
  5
DB
330
1F
100
AcDbEntity
  8
0
  6
Continuous
 62
     7
100
AcDbLine
 10
37.0555484694
 20
154.20125
 30
0.0
 11
37.0555484694
 21
155.6751130941
 31
0.0
  0
LINE
  5
DC
330
1F
100
AcDbEntity
  8
0
  6
Continuous
 62
     7
100
AcDbLine
 10
40.7555484694
 20
63.00125
 30
0.0
 11
116.7555484694
 21
63.00125
 31
0.0
  0
LINE
  5
DD
330
1F
100
AcDbEntity
  8
0
  6
Continuous
 62
     7
100
AcDbLine
 10
116.7555484694
 20
63.00125
 30
0.0
 11
116.7555484694
 21
110.00125
 31
0.0
  0
LINE
  5
DE
330
1F
100
AcDbEntity
  8
0
  6
Continuous
 62
     7
100
AcDbLine
 10
116.7555484694
 20
110.00125
 30
0.0
 11
40.7555484694
 21
110.00125
 31
0.0
  0
LINE
  5
DF
330
1F
100
AcDbEntity
  8
0
  6
Continuous
 62
     7
100
AcDbLine
 10
40.7555484694
 20
110.00125
 30
0.0
 11
40.7555484694
 21
63.00125
 31
0.0
  0
LINE
  5
E0
330
1F
100
AcDbEntity
  8
0
  6
Continuous
 62
     7
100
AcDbLine
 10
98.9555484694
 20
64.20125
 30
0.0
 11
98.2555484694
 21
63.50125
 31
0.0
  0
LINE
  5
E1
330
1F
100
AcDbEntity
  8
0
  6
Continuous
 62
     7
100
AcDbLine
 10
98.9555484694
 20
64.20125
 30
0.0
 11
106.3055484694
 21
64.20125
 31
0.0
  0
LINE
  5
E2
330
1F
100
AcDbEntity
  8
0
  6
Continuous
 62
     7
100
AcDbLine
 10
106.3055484694
 20
64.20125
 30
0.0
 11
107.0055484694
 21
63.50125
 31
0.0
  0
LINE
  5
E3
330
1F
100
AcDbEntity
  8
0
  6
Continuous
 62
     7
100
AcDbLine
 10
98.2555484694
 20
63.50125
 30
0.0
 11
107.0055484694
 21
63.50125
 31
0.0
  0
LINE
  5
E4
330
1F
100
AcDbEntity
  8
0
  6
Continuous
 62
     7
100
AcDbLine
 10
51.2055484694
 20
108.80125
 30
0.0
 11
50.5055484694
 21
109.50125
 31
0.0
  0
LINE
  5
E5
330
1F
100
AcDbEntity
  8
0
  6
Continuous
 62
     7
100
AcDbLine
 10
51.2055484694
 20
108.80125
 30
0.0
 11
51.2055484694
 21
64.20125
 31
0.0
  0
LINE
  5
E6
330
1F
100
AcDbEntity
  8
0
  6
Continuous
 62
     7
100
AcDbLine
 10
51.2055484694
 20
64.20125
 30
0.0
 11
50.5055484694
 21
63.50125
 31
0.0
  0
LINE
  5
E7
330
1F
100
AcDbEntity
  8
0
  6
Continuous
 62
     7
100
AcDbLine
 10
50.5055484694
 20
109.50125
 30
0.0
 11
50.5055484694
 21
63.50125
 31
0.0
  0
LINE
  5
E8
330
1F
100
AcDbEntity
  8
0
  6
Continuous
 62
     7
100
AcDbLine
 10
49.3055484694
 20
64.20125
 30
0.0
 11
50.0055484694
 21
63.50125
 31
0.0
  0
LINE
  5
E9
330
1F
100
AcDbEntity
  8
0
  6
Continuous
 62
     7
100
AcDbLine
 10
49.3055484694
 20
64.20125
 30
0.0
 11
49.3055484694
 21
108.80125
 31
0.0
  0
LINE
  5
EA
330
1F
100
AcDbEntity
  8
0
  6
Continuous
 62
     7
100
AcDbLine
 10
49.3055484694
 20
108.80125
 30
0.0
 11
50.0055484694
 21
109.50125
 31
0.0
  0
LINE
  5
EB
330
1F
100
AcDbEntity
  8
0
  6
Continuous
 62
     7
100
AcDbLine
 10
50.0055484694
 20
63.50125
 30
0.0
 11
50.0055484694
 21
109.50125
 31
0.0
  0
LINE
  5
EC
330
1F
100
AcDbEntity
  8
0
  6
Continuous
 62
     7
100
AcDbLine
 10
98.9555484694
 20
108.80125
 30
0.0
 11
98.2555484694
 21
109.50125
 31
0.0
  0
LINE
  5
ED
330
1F
100
AcDbEntity
  8
0
  6
Continuous
 62
     7
100
AcDbLine
 10
98.9555484694
 20
108.80125
 30
0.0
 11
98.9555484694
 21
64.20125
 31
0.0
  0
LINE
  5
EE
330
1F
100
AcDbEntity
  8
0
  6
Continuous
 62
     7
100
AcDbLine
 10
98.2555484694
 20
109.50125
 30
0.0
 11
98.2555484694
 21
63.50125
 31
0.0
  0
LINE
  5
EF
330
1F
100
AcDbEntity
  8
0
  6
Continuous
 62
     7
100
AcDbLine
 10
108.2055484694
 20
64.20125
 30
0.0
 11
107.5055484694
 21
63.50125
 31
0.0
  0
LINE
  5
F0
330
1F
100
AcDbEntity
  8
0
  6
Continuous
 62
     7
100
AcDbLine
 10
108.2055484694
 20
64.20125
 30
0.0
 11
115.5555484694
 21
64.20125
 31
0.0
  0
LINE
  5
F1
330
1F
100
AcDbEntity
  8
0
  6
Continuous
 62
     7
100
AcDbLine
 10
115.5555484694
 20
64.20125
 30
0.0
 11
116.2555484694
 21
63.50125
 31
0.0
  0
LINE
  5
F2
330
1F
100
AcDbEntity
  8
0
  6
Continuous
 62
     7
100
AcDbLine
 10
107.5055484694
 20
63.50125
 30
0.0
 11
116.2555484694
 21
63.50125
 31
0.0
  0
LINE
  5
F3
330
1F
100
AcDbEntity
  8
0
  6
Continuous
 62
     7
100
AcDbLine
 10
51.2055484694
 20
64.20125
 30
0.0
 11
58.5555484694
 21
64.20125
 31
0.0
  0
LINE
  5
F4
330
1F
100
AcDbEntity
  8
0
  6
Continuous
 62
     7
100
AcDbLine
 10
58.5555484694
 20
64.20125
 30
0.0
 11
59.2555484694
 21
63.50125
 31
0.0
  0
LINE
  5
F5
330
1F
100
AcDbEntity
  8
0
  6
Continuous
 62
     7
100
AcDbLine
 10
50.5055484694
 20
63.50125
 30
0.0
 11
59.2555484694
 21
63.50125
 31
0.0
  0
LINE
  5
F6
330
1F
100
AcDbEntity
  8
0
  6
Continuous
 62
     7
100
AcDbLine
 10
41.9555484694
 20
108.80125
 30
0.0
 11
41.2555484694
 21
109.50125
 31
0.0
  0
LINE
  5
F7
330
1F
100
AcDbEntity
  8
0
  6
Continuous
 62
     7
100
AcDbLine
 10
41.9555484694
 20
108.80125
 30
0.0
 11
41.9555484694
 21
64.20125
 31
0.0
  0
LINE
  5
F8
330
1F
100
AcDbEntity
  8
0
  6
Continuous
 62
     7
100
AcDbLine
 10
41.9555484694
 20
64.20125
 30
0.0
 11
41.2555484694
 21
63.50125
 31
0.0
  0
LINE
  5
F9
330
1F
100
AcDbEntity
  8
0
  6
Continuous
 62
     7
100
AcDbLine
 10
41.2555484694
 20
109.50125
 30
0.0
 11
41.2555484694
 21
63.50125
 31
0.0
  0
LINE
  5
FA
330
1F
100
AcDbEntity
  8
0
  6
Continuous
 62
     7
100
AcDbLine
 10
108.2055484694
 20
108.80125
 30
0.0
 11
108.2055484694
 21
64.20125
 31
0.0
  0
LINE
  5
FB
330
1F
100
AcDbEntity
  8
0
  6
Continuous
 62
     7
100
AcDbLine
 10
115.5555484694
 20
108.80125
 30
0.0
 11
108.2055484694
 21
108.80125
 31
0.0
  0
LINE
  5
FC
330
1F
100
AcDbEntity
  8
0
  6
Continuous
 62
     7
100
AcDbLine
 10
115.5555484694
 20
64.20125
 30
0.0
 11
115.5555484694
 21
108.80125
 31
0.0
  0
LINE
  5
FD
330
1F
100
AcDbEntity
  8
0
  6
Continuous
 62
     7
100
AcDbLine
 10
41.9555484694
 20
64.20125
 30
0.0
 11
49.3055484694
 21
64.20125
 31
0.0
  0
LINE
  5
FE
330
1F
100
AcDbEntity
  8
0
  6
Continuous
 62
     7
100
AcDbLine
 10
41.2555484694
 20
63.50125
 30
0.0
 11
50.0055484694
 21
63.50125
 31
0.0
  0
LINE
  5
FF
330
1F
100
AcDbEntity
  8
0
  6
Continuous
 62
     7
100
AcDbLine
 10
115.5555484694
 20
108.80125
 30
0.0
 11
116.2555484694
 21
109.50125
 31
0.0
  0
LINE
  5
100
330
1F
100
AcDbEntity
  8
0
  6
Continuous
 62
     7
100
AcDbLine
 10
116.2555484694
 20
63.50125
 30
0.0
 11
116.2555484694
 21
109.50125
 31
0.0
  0
LINE
  5
101
330
1F
100
AcDbEntity
  8
0
  6
Continuous
 62
     7
100
AcDbLine
 10
58.5555484694
 20
108.80125
 30
0.0
 11
51.2055484694
 21
108.80125
 31
0.0
  0
LINE
  5
102
330
1F
100
AcDbEntity
  8
0
  6
Continuous
 62
     7
100
AcDbLine
 10
58.5555484694
 20
64.20125
 30
0.0
 11
58.5555484694
 21
108.80125
 31
0.0
  0
LINE
  5
103
330
1F
100
AcDbEntity
  8
0
  6
Continuous
 62
     7
100
AcDbLine
 10
108.2055484694
 20
108.80125
 30
0.0
 11
107.5055484694
 21
109.50125
 31
0.0
  0
LINE
  5
104
330
1F
100
AcDbEntity
  8
0
  6
Continuous
 62
     7
100
AcDbLine
 10
107.5055484694
 20
109.50125
 30
0.0
 11
107.5055484694
 21
63.50125
 31
0.0
  0
LINE
  5
105
330
1F
100
AcDbEntity
  8
0
  6
Continuous
 62
     7
100
AcDbLine
 10
106.3055484694
 20
64.20125
 30
0.0
 11
106.3055484694
 21
108.80125
 31
0.0
  0
LINE
  5
106
330
1F
100
AcDbEntity
  8
0
  6
Continuous
 62
     7
100
AcDbLine
 10
106.3055484694
 20
108.80125
 30
0.0
 11
98.9555484694
 21
108.80125
 31
0.0
  0
LINE
  5
107
330
1F
100
AcDbEntity
  8
0
  6
Continuous
 62
     7
100
AcDbLine
 10
106.3055484694
 20
108.80125
 30
0.0
 11
107.0055484694
 21
109.50125
 31
0.0
  0
LINE
  5
108
330
1F
100
AcDbEntity
  8
0
  6
Continuous
 62
     7
100
AcDbLine
 10
107.0055484694
 20
63.50125
 30
0.0
 11
107.0055484694
 21
109.50125
 31
0.0
  0
LINE
  5
109
330
1F
100
AcDbEntity
  8
0
  6
Continuous
 62
     7
100
AcDbLine
 10
107.0055484694
 20
109.50125
 30
0.0
 11
98.2555484694
 21
109.50125
 31
0.0
  0
LINE
  5
10A
330
1F
100
AcDbEntity
  8
0
  6
Continuous
 62
     7
100
AcDbLine
 10
49.3055484694
 20
108.80125
 30
0.0
 11
41.9555484694
 21
108.80125
 31
0.0
  0
LINE
  5
10B
330
1F
100
AcDbEntity
  8
0
  6
Continuous
 62
     7
100
AcDbLine
 10
50.0055484694
 20
109.50125
 30
0.0
 11
41.2555484694
 21
109.50125
 31
0.0
  0
LINE
  5
10C
330
1F
100
AcDbEntity
  8
0
  6
Continuous
 62
     7
100
AcDbLine
 10
58.5555484694
 20
108.80125
 30
0.0
 11
59.2555484694
 21
109.50125
 31
0.0
  0
LINE
  5
10D
330
1F
100
AcDbEntity
  8
0
  6
Continuous
 62
     7
100
AcDbLine
 10
59.2555484694
 20
109.50125
 30
0.0
 11
50.5055484694
 21
109.50125
 31
0.0
  0
LINE
  5
10E
330
1F
100
AcDbEntity
  8
0
  6
Continuous
 62
     7
100
AcDbLine
 10
59.2555484694
 20
63.50125
 30
0.0
 11
59.2555484694
 21
109.50125
 31
0.0
  0
LINE
  5
10F
330
1F
100
AcDbEntity
  8
0
  6
Continuous
 62
     7
100
AcDbLine
 10
116.2555484694
 20
109.50125
 30
0.0
 11
107.5055484694
 21
109.50125
 31
0.0
  0
LINE
  5
110
330
1F
100
AcDbEntity
  8
0
  6
Continuous
 62
     7
100
AcDbLine
 10
59.7555484694
 20
110.00125
 30
0.0
 11
59.7555484694
 21
63.00125
 31
0.0
  0
LINE
  5
111
330
1F
100
AcDbEntity
  8
0
  6
Continuous
 62
     7
100
AcDbLine
 10
97.7555484694
 20
63.00125
 30
0.0
 11
97.7555484694
 21
110.00125
 31
0.0
  0
ELLIPSE
  5
112
330
1F
100
AcDbEntity
  8
0
  6
Continuous
 62
     7
100
AcDbEllipse
 10
122.7554723054
 20
155.501173836
 30
0.0
 11
0.353661094584794
 21
0.353661094584794
 31
0.0
210
0.0
220
0.0
230
0.9999999999999998
 40
0.9996954599
 41
5.497939437029707
 42
7.068431177329423
  0
ELLIPSE
  5
113
330
1F
100
AcDbEntity
  8
0
  6
Continuous
 62
     7
100
AcDbEllipse
 10
34.7556246334
 20
17.501326164
 30
0.0
 11
-0.353661094584787
 21
-0.3536610945847905
 31
0.0
210
0.0
220
0.0
230
1.0
 40
0.9996954599
 41
5.497939437029735
 42
7.068431177329463
  0
ELLIPSE
  5
114
330
1F
100
AcDbEntity
  8
0
  6
Continuous
 62
     7
100
AcDbEllipse
 10
120.155502771
 20
17.3274782958
 30
0.0
 11
-0.2121966567508764
 21
0.2121966567508729
 31
0.0
210
0.0
220
0.0
230
0.9999999999999998
 40
0.9996954599
 41
2.356346783439919
 42
3.926838523739653
  0
ELLIPSE
  5
115
330
1F
100
AcDbEntity
  8
0
  6
Continuous
 62
     7
100
AcDbEllipse
 10
37.3555941678
 20
155.6750217042
 30
0.0
 11
0.2121966567508764
 21
-0.2121966567508764
 31
0.0
210
0.0
220
0.0
230
0.9999999999999998
 40
0.9996954599
 41
2.356346783439957
 42
3.926838523739691
  0
LINE
  5
116
330
1F
100
AcDbEntity
  8
0
  6
Continuous
 62
     7
100
AcDbLine
 10
120.1555941608
 20
17.0274325974
 30
0.0
 11
122.7294420244
 21
17.0274325974
 31
0.0
  0
LINE
  5
117
330
1F
100
AcDbEntity
  8
0
  6
Continuous
 62
     7
100
AcDbLine
 10
34.755472317
 20
17.00125
 30
0.0
 11
122.7556246218
 21
17.00125
 31
0.0
  0
LINE
  5
118
330
1F
100
AcDbEntity
  8
0
  6
Continuous
 62
     7
100
AcDbLine
 10
37.3555027779
 20
155.9750674026
 30
0.0
 11
34.7816549144
 21
155.9750674026
 31
0.0
  0
LINE
  5
119
330
1F
100
AcDbEntity
  8
0
  6
Continuous
 62
     7
100
AcDbLine
 10
122.7556246218
 20
156.00125
 30
0.0
 11
34.755472317
 21
156.00125
 31
0.0
  0
LINE
  5
11A
330
1F
100
AcDbEntity
  8
0
  6
Continuous
 62
     7
100
AcDbLine
 10
111.013435596
 20
145.3419546756
 30
0.0
 11
111.013435596
 21
145.00125
 31
0.0
  0
LINE
  5
11B
330
1F
100
AcDbEntity
  8
0
  6
Continuous
 62
     7
100
AcDbLine
 10
116.4976613428
 20
145.3419546756
 30
0.0
 11
116.4976613428
 21
145.00125
 31
0.0
  0
LINE
  5
11C
330
1F
100
AcDbEntity
  8
0
  6
Continuous
 62
     7
100
AcDbLine
 10
41.013435596
 20
27.6605453244
 30
0.0
 11
41.013435596
 21
28.00125
 31
0.0
  0
LINE
  5
11D
330
1F
100
AcDbEntity
  8
0
  6
Continuous
 62
     7
100
AcDbLine
 10
46.4976613428
 20
27.6605453244
 30
0.0
 11
46.4976613428
 21
28.00125
 31
0.0
  0
ELLIPSE
  5
11E
330
1F
100
AcDbEntity
  8
0
  6
Continuous
 62
     7
100
AcDbEllipse
 10
34.7556246334
 20
155.501173836
 30
0.0
 11
-0.3536610945847868
 21
0.3536610945847939
 31
0.0
210
0.0
220
0.0
230
0.9999999999999998
 40
0.9996954599
 41
5.497939437029751
 42
7.068431177329428
  0
ELLIPSE
  5
11F
330
1F
100
AcDbEntity
  8
0
  6
Continuous
 62
     7
100
AcDbEllipse
 10
34.7818072308
 20
155.4749912386
 30
0.0
 11
-0.353661094584794
 21
0.353661094584794
 31
0.0
210
0.0
220
0.0
230
0.9999999999999998
 40
0.9996954599
 41
5.497939437029711
 42
7.068431177329561
  0
ELLIPSE
  5
120
330
1F
100
AcDbEntity
  8
0
  6
Continuous
 62
     7
100
AcDbEllipse
 10
122.729289708
 20
17.5275087614
 30
0.0
 11
0.3536610945847941
 21
-0.3536610945847905
 31
0.0
210
0.0
220
0.0
230
1.0
 40
0.9996954599
 41
5.49793943702973
 42
7.068431177329467
  0
CIRCLE
  5
121
330
1F
100
AcDbEntity
  8
0
  6
Continuous
 62
     7
100
AcDbCircle
 10
121.8555484694
 20
18.40125
 30
0.0
 40
0.6000000000000085
  0
CIRCLE
  5
122
330
1F
100
AcDbEntity
  8
0
  6
Continuous
 62
     7
100
AcDbCircle
 10
35.6555484694
 20
154.60125
 30
0.0
 40
0.6000000000000014
  0
ELLIPSE
  5
123
330
1F
100
AcDbEntity
  8
0
  6
Continuous
 62
     7
100
AcDbEllipse
 10
122.7554723054
 20
17.501326164
 30
0.0
 11
0.3536610945847941
 21
-0.3536610945847905
 31
0.0
210
0.0
220
0.0
230
1.0
 40
0.9996954599
 41
5.497939437029749
 42
7.068431177329449
  0
ARC
  5
124
330
1F
100
AcDbEntity
  8
0
  6
Continuous
 62
     7
100
AcDbCircle
 10
113.7555484694
 20
148.50125
 30
0.0
 40
2.095598151757094
100
AcDbArc
 50
125.9895963129
 51
234.0104036871
  0
SPLINE
  5
125
330
1F
100
AcDbEntity
  8
0
  6
Continuous
 62
     7
100
AcDbSpline
210
0.0
220
0.0
230
1.0
 70
     8
 71
     3
 72
     8
 73
     4
 74
     0
 42
0.00000001
 43
0.00000001
 40
0.0
 40
0.0
 40
0.0
 40
0.0
 40
0.0007298054706715
 40
0.0007298054706715
 40
0.0007298054706715
 40
0.0007298054706715
 10
112.5240946450784
 20
146.8056518482429
 30
0.0
 10
112.4696381967205
 20
146.6380003442711
 30
0.0
 10
112.4185615213774
 20
146.4697913539792
 30
0.0
 10
112.3699078233327
 20
146.3012499999999
 30
0.0
  0
ARC
  5
126
330
1F
100
AcDbEntity
  8
0
  6
Continuous
 62
     7
100
AcDbCircle
 10
113.7555484694
 20
148.50125
 30
0.0
 40
2.600000000000009
100
AcDbArc
 50
122.204227504
 51
237.795772496
  0
SPLINE
  5
127
330
1F
100
AcDbEntity
  8
0
  6
Continuous
 62
     7
100
AcDbSpline
210
0.0
220
0.0
230
1.0
 70
     8
 71
     3
 72
     8
 73
     4
 74
     0
 42
0.00000001
 43
0.00000001
 40
0.0
 40
0.0
 40
0.0
 40
0.0
 40
0.0007298054706715
 40
0.0007298054706715
 40
0.0007298054706715
 40
0.0007298054706715
 10
112.3699078233326
 20
150.7012499999998
 30
0.0
 10
112.4185615213774
 20
150.5327086460206
 30
0.0
 10
112.4696381967206
 20
150.3644996557287
 30
0.0
 10
112.5240946450786
 20
150.1968481517569
 30
0.0
  0
LINE
  5
128
330
1F
100
AcDbEntity
  8
0
  6
Continuous
 62
     7
100
AcDbLine
 10
114.9870022937
 20
150.1968481518
 30
0.0
 11
112.5240946451
 21
150.1968481518
 31
0.0
  0
LINE
  5
129
330
1F
100
AcDbEntity
  8
0
  6
Continuous
 62
     7
100
AcDbLine
 10
112.3757879846
 20
150.70125
 30
0.0
 11
115.1353089542
 21
150.70125
 31
0.0
  0
SPLINE
  5
12A
330
1F
100
AcDbEntity
  8
0
  6
Continuous
 62
     7
100
AcDbSpline
210
0.0
220
0.0
230
1.0
 70
     8
 71
     3
 72
     8
 73
     4
 74
     0
 42
0.00000001
 43
0.00000001
 40
0.0
 40
0.0
 40
0.0
 40
0.0
 40
0.0007298054706715
 40
0.0007298054706715
 40
0.0007298054706715
 40
0.0007298054706715
 10
114.9870022936971
 20
150.1968481517568
 30
0.0
 10
115.0414587420551
 20
150.3644996557286
 30
0.0
 10
115.0925354173981
 20
150.5327086460206
 30
0.0
 10
115.1411891154429
 20
150.7012499999998
 30
0.0
  0
LINE
  5
12B
330
1F
100
AcDbEntity
  8
0
  6
Continuous
 62
     7
100
AcDbLine
 10
45.1353089542
 20
22.30125
 30
0.0
 11
42.3757879846
 21
22.30125
 31
0.0
  0
SPLINE
  5
12C
330
1F
100
AcDbEntity
  8
0
  6
Continuous
 62
     7
100
AcDbSpline
210
0.0
220
0.0
230
1.0
 70
     8
 71
     3
 72
     8
 73
     4
 74
     0
 42
0.00000001
 43
0.00000001
 40
0.0
 40
0.0
 40
0.0
 40
0.0
 40
0.0007298054706714
 40
0.0007298054706714
 40
0.0007298054706714
 40
0.0007298054706714
 10
42.52409464507843
 20
22.80565184824292
 30
0.0
 10
42.46963819672045
 20
22.63800034427112
 30
0.0
 10
42.41856152137742
 20
22.46979135397921
 30
0.0
 10
42.36990782333266
 20
22.30124999999992
 30
0.0
  0
LINE
  5
12D
330
1F
100
AcDbEntity
  8
0
  6
Continuous
 62
     7
100
AcDbLine
 10
42.5240946451
 20
22.8056518482
 30
0.0
 11
44.9870022937
 21
22.8056518482
 31
0.0
  0
SPLINE
  5
12E
330
1F
100
AcDbEntity
  8
0
  6
Continuous
 62
     7
100
AcDbSpline
210
0.0
220
0.0
230
1.0
 70
     8
 71
     3
 72
     8
 73
     4
 74
     0
 42
0.00000001
 43
0.00000001
 40
0.0
 40
0.0
 40
0.0
 40
0.0
 40
0.0007298054706714
 40
0.0007298054706714
 40
0.0007298054706714
 40
0.0007298054706714
 10
44.98700229369708
 20
22.80565184824292
 30
0.0
 10
45.04145874205506
 20
22.63800034427112
 30
0.0
 10
45.0925354173981
 20
22.46979135397921
 30
0.0
 10
45.14118911544287
 20
22.30124999999992
 30
0.0
  0
ARC
  5
12F
330
1F
100
AcDbEntity
  8
0
  6
Continuous
 62
     7
100
AcDbCircle
 10
43.7555484694
 20
24.50125
 30
0.0
 40
2.095598151757067
100
AcDbArc
 50
125.9895963129
 51
234.0104036871
  0
ARC
  5
130
330
1F
100
AcDbEntity
  8
0
  6
Continuous
 62
     7
100
AcDbCircle
 10
43.7555484694
 20
24.50125
 30
0.0
 40
2.599999999999949
100
AcDbArc
 50
122.204227504
 51
237.795772496
  0
SPLINE
  5
131
330
1F
100
AcDbEntity
  8
0
  6
Continuous
 62
     7
100
AcDbSpline
210
0.0
220
0.0
230
1.0
 70
     8
 71
     3
 72
     8
 73
     4
 74
     0
 42
0.00000001
 43
0.00000001
 40
0.0
 40
0.0
 40
0.0
 40
0.0
 40
0.0007298054706714
 40
0.0007298054706714
 40
0.0007298054706714
 40
0.0007298054706714
 10
42.36990782333267
 20
26.70124999999983
 30
0.0
 10
42.41856152137743
 20
26.53270864602055
 30
0.0
 10
42.46963819672064
 20
26.36449965572866
 30
0.0
 10
42.52409464507861
 20
26.19684815175687
 30
0.0
  0
ARC
  5
132
330
1F
100
AcDbEntity
  8
0
  6
Continuous
 62
     7
100
AcDbCircle
 10
43.7555484694
 20
24.50125
 30
0.0
 40
2.095598151757088
100
AcDbArc
 50
305.9895963129
 51
54.0104036871
  0
SPLINE
  5
133
330
1F
100
AcDbEntity
  8
0
  6
Continuous
 62
     7
100
AcDbSpline
210
0.0
220
0.0
230
1.0
 70
     8
 71
     3
 72
     8
 73
     4
 74
     0
 42
0.00000001
 43
0.00000001
 40
0.0
 40
0.0
 40
0.0
 40
0.0
 40
0.0007298054706714
 40
0.0007298054706714
 40
0.0007298054706714
 40
0.0007298054706714
 10
44.98700229369707
 20
26.19684815175685
 30
0.0
 10
45.04145874205504
 20
26.36449965572864
 30
0.0
 10
45.09253541739809
 20
26.53270864602055
 30
0.0
 10
45.14118911544286
 20
26.70124999999984
 30
0.0
  0
ARC
  5
134
330
1F
100
AcDbEntity
  8
0
  6
Continuous
 62
     7
100
AcDbCircle
 10
43.7555484694
 20
24.50125
 30
0.0
 40
2.599999999999971
100
AcDbArc
 50
302.204227504
 51
57.795772496
  0
LINE
  5
135
330
1F
100
AcDbEntity
  8
0
  6
Continuous
 62
     7
100
AcDbLine
 10
42.3699078233
 20
26.70125
 30
0.0
 11
45.1411891154
 21
26.70125
 31
0.0
  0
LINE
  5
136
330
1F
100
AcDbEntity
  8
0
  6
Continuous
 62
     7
100
AcDbLine
 10
44.9870022937
 20
26.1968481518
 30
0.0
 11
42.5240946451
 21
26.1968481518
 31
0.0
  0
ARC
  5
137
330
1F
100
AcDbEntity
  8
0
  6
Continuous
 62
     7
100
AcDbCircle
 10
113.7555484694
 20
148.50125
 30
0.0
 40
2.599999999999994
100
AcDbArc
 50
302.204227504
 51
57.795772496
  0
LINE
  5
138
330
1F
100
AcDbEntity
  8
0
  6
Continuous
 62
     7
100
AcDbLine
 10
115.1411891154
 20
146.30125
 30
0.0
 11
112.3699078233
 21
146.30125
 31
0.0
  0
LINE
  5
139
330
1F
100
AcDbEntity
  8
0
  6
Continuous
 62
     7
100
AcDbLine
 10
112.5240946451
 20
146.8056518482
 30
0.0
 11
114.9870022937
 21
146.8056518482
 31
0.0
  0
SPLINE
  5
13A
330
1F
100
AcDbEntity
  8
0
  6
Continuous
 62
     7
100
AcDbSpline
210
0.0
220
0.0
230
1.0
 70
     8
 71
     3
 72
     8
 73
     4
 74
     0
 42
0.00000001
 43
0.00000001
 40
0.0
 40
0.0
 40
0.0
 40
0.0
 40
0.0007298054706715
 40
0.0007298054706715
 40
0.0007298054706715
 40
0.0007298054706715
 10
114.9870022936971
 20
146.8056518482429
 30
0.0
 10
115.041458742055
 20
146.6380003442711
 30
0.0
 10
115.0925354173981
 20
146.4697913539792
 30
0.0
 10
115.1411891154429
 20
146.3012499999999
 30
0.0
  0
ARC
  5
13B
330
1F
100
AcDbEntity
  8
0
  6
Continuous
 62
     7
100
AcDbCircle
 10
113.7555484694
 20
148.50125
 30
0.0
 40
2.095598151757077
100
AcDbArc
 50
305.9895963129
 51
54.0104036871
  0
ELLIPSE
  5
13C
330
1F
100
AcDbEntity
  8
0
  6
Continuous
 62
     7
100
AcDbEllipse
 10
42.3848024176
 20
25.5312913761
 30
0.0
 11
-1.414644378339169
 21
1.414644378339165
 31
0.0
210
0.0
220
0.0
230
1.0
 40
0.9996954599
 41
5.49793943702973
 42
6.5417802315798
  0
ELLIPSE
  5
13D
330
1F
100
AcDbEntity
  8
0
  6
Continuous
 62
     7
100
AcDbEllipse
 10
45.1262945211
 20
25.5312913761
 30
0.0
 11
1.414644378339162
 21
1.414644378339165
 31
0.0
210
0.0
220
0.0
230
1.0
 40
0.9996954599
 41
6.024590382779394
 42
7.068431177329448
  0
ELLIPSE
  5
13E
330
1F
100
AcDbEntity
  8
0
  6
Continuous
 62
     7
100
AcDbEllipse
 10
115.1262945211
 20
147.4712086239
 30
0.0
 11
1.414644378339162
 21
-1.414644378339148
 31
0.0
210
0.0
220
0.0
230
1.0
 40
0.9996954599
 41
5.497939437029723
 42
6.541780231579807
  0
ELLIPSE
  5
13F
330
1F
100
AcDbEntity
  8
0
  6
Continuous
 62
     7
100
AcDbEllipse
 10
112.3848024176
 20
147.4712086239
 30
0.0
 11
-1.414644378339176
 21
-1.414644378339147
 31
0.0
210
0.0
220
0.0
230
0.9999999999999998
 40
0.9996954599
 41
6.024590382779403
 42
7.068431177329456
  0
LINE
  5
140
330
1F
100
AcDbEntity
  8
0
  6
Continuous
 62
     7
100
AcDbLine
 10
45.1269037869
 20
27.5315960322
 30
0.0
 11
46.5440250037
 21
27.5315960322
 31
0.0
  0
LINE
  5
141
330
1F
100
AcDbEntity
  8
0
  6
Continuous
 62
     7
100
AcDbLine
 10
40.9670719327
 20
27.5315960322
 30
0.0
 11
42.3841931519
 21
27.5315960322
 31
0.0
  0
LINE
  5
142
330
1F
100
AcDbEntity
  8
0
  6
Continuous
 62
     7
100
AcDbLine
 10
40.9670719351
 20
27.6605453244
 30
0.0
 11
46.5440250037
 21
27.6605453244
 31
0.0
  0
LINE
  5
143
330
1F
100
AcDbEntity
  8
0
  6
Continuous
 62
     7
100
AcDbLine
 10
112.3841931519
 20
145.4709039678
 30
0.0
 11
110.9670719351
 21
145.4709039678
 31
0.0
  0
LINE
  5
144
330
1F
100
AcDbEntity
  8
0
  6
Continuous
 62
     7
100
AcDbLine
 10
116.5440250061
 20
145.4709039678
 30
0.0
 11
115.1269037869
 21
145.4709039678
 31
0.0
  0
LINE
  5
145
330
1F
100
AcDbEntity
  8
0
  6
Continuous
 62
     7
100
AcDbLine
 10
110.9670719351
 20
145.3419546756
 30
0.0
 11
116.5440250037
 21
145.3419546756
 31
0.0
  0
ARC
  5
146
330
1F
100
AcDbEntity
  8
0
  6
Continuous
 62
     7
100
AcDbCircle
 10
43.7555484694
 20
24.50125
 30
0.0
 40
2.02145818988318
100
AcDbArc
 50
306.6666812575
 51
53.3333187425
  0
LWPOLYLINE
  5
147
330
1F
100
AcDbEntity
  8
0
  6
Continuous
 62
     7
100
AcDbPolyline
 90
        3
 70
   128
 43
0.0
 10
44.9626800082
 20
26.1227081899
 10
44.9742144561
 20
26.1576834839
 10
44.9870022937
 20
26.1968481518
  0
LWPOLYLINE
  5
148
330
1F
100
AcDbEntity
  8
0
  6
Continuous
 62
     7
100
AcDbPolyline
 90
        3
 70
   128
 43
0.0
 10
44.9626800082
 20
22.8797918101
 10
44.9742144561
 20
22.8448165161
 10
44.9870022937
 20
22.8056518482
  0
ARC
  5
149
330
1F
100
AcDbEntity
  8
0
  6
Continuous
 62
     7
100
AcDbCircle
 10
43.7555484694
 20
24.50125
 30
0.0
 40
2.021458189883159
100
AcDbArc
 50
126.6666812575
 51
233.3333187425
  0
LWPOLYLINE
  5
14A
330
1F
100
AcDbEntity
  8
0
  6
Continuous
 62
     7
100
AcDbPolyline
 90
        3
 70
   128
 43
0.0
 10
42.5484169306
 20
22.8797918101
 10
42.5368824827
 20
22.8448165161
 10
42.5240946451
 20
22.8056518482
  0
LWPOLYLINE
  5
14B
330
1F
100
AcDbEntity
  8
0
  6
Continuous
 62
     7
100
AcDbPolyline
 90
        3
 70
   128
 43
0.0
 10
42.5484169306
 20
26.1227081899
 10
42.5368824827
 20
26.1576834839
 10
42.5240946451
 20
26.1968481518
  0
LINE
  5
14C
330
1F
100
AcDbEntity
  8
0
  6
Continuous
 62
     7
100
AcDbLine
 10
112.5484169306
 20
146.8797918101
 30
0.0
 11
114.9626800082
 21
146.8797918101
 31
0.0
  0
LWPOLYLINE
  5
14D
330
1F
100
AcDbEntity
  8
0
  6
Continuous
 62
     7
100
AcDbPolyline
 90
        3
 70
   128
 43
0.0
 10
114.9626800082
 20
146.8797918101
 10
114.9742144561
 20
146.8448165161
 10
114.9870022937
 20
146.8056518482
  0
LWPOLYLINE
  5
14E
330
1F
100
AcDbEntity
  8
0
  6
Continuous
 62
     7
100
AcDbPolyline
 90
        3
 70
   128
 43
0.0
 10
112.5484169306
 20
146.8797918101
 10
112.5368824827
 20
146.8448165161
 10
112.5240946451
 20
146.8056518482
  0
LINE
  5
14F
330
1F
100
AcDbEntity
  8
0
  6
Continuous
 62
     7
100
AcDbLine
 10
42.5484169306
 20
22.8797918101
 30
0.0
 11
44.9626800082
 21
22.8797918101
 31
0.0
  0
LINE
  5
150
330
1F
100
AcDbEntity
  8
0
  6
Continuous
 62
     7
100
AcDbLine
 10
44.9626800082
 20
26.1227081899
 30
0.0
 11
42.5484169306
 21
26.1227081899
 31
0.0
  0
ARC
  5
151
330
1F
100
AcDbEntity
  8
0
  6
Continuous
 62
     7
100
AcDbCircle
 10
113.7555484694
 20
148.50125
 30
0.0
 40
2.021458189883183
100
AcDbArc
 50
306.6666812575
 51
53.3333187425
  0
LWPOLYLINE
  5
152
330
1F
100
AcDbEntity
  8
0
  6
Continuous
 62
     7
100
AcDbPolyline
 90
        3
 70
   128
 43
0.0
 10
114.9626800082
 20
150.1227081899
 10
114.9742144561
 20
150.1576834839
 10
114.9870022937
 20
150.1968481518
  0
LINE
  5
153
330
1F
100
AcDbEntity
  8
0
  6
Continuous
 62
     7
100
AcDbLine
 10
114.9626800082
 20
150.1227081899
 30
0.0
 11
112.5484169306
 21
150.1227081899
 31
0.0
  0
LWPOLYLINE
  5
154
330
1F
100
AcDbEntity
  8
0
  6
Continuous
 62
     7
100
AcDbPolyline
 90
        3
 70
   128
 43
0.0
 10
112.5484169306
 20
150.1227081899
 10
112.5368824827
 20
150.1576834839
 10
112.5240946451
 20
150.1968481518
  0
ARC
  5
155
330
1F
100
AcDbEntity
  8
0
  6
Continuous
 62
     7
100
AcDbCircle
 10
113.7555484694
 20
148.50125
 30
0.0
 40
2.0214581898832
100
AcDbArc
 50
126.6666812575
 51
233.3333187425
  0
SPLINE
  5
156
330
1F
100
AcDbEntity
  8
0
  6
Continuous
 62
     7
100
AcDbSpline
210
0.0
220
0.0
230
1.0
 70
     8
 71
     3
 72
     8
 73
     4
 74
     0
 42
0.00000001
 43
0.00000001
 40
6.997604490020438
 40
6.997604490020438
 40
6.997604490020438
 40
6.997604490020438
 40
7.390151294403393
 40
7.390151294403393
 40
7.390151294403393
 40
7.390151294403393
 10
40.69003112656315
 20
27.84572650274886
 30
0.0
 10
40.67501227327604
 20
27.88200826795955
 30
0.0
 10
40.66720898891281
 20
27.92125970824925
 30
0.0
 10
40.66720898854985
 20
27.96054535222838
 30
0.0
  0
SPLINE
  5
157
330
1F
100
AcDbEntity
  8
0
  6
Continuous
 62
     7
100
AcDbSpline
210
0.0
220
0.0
230
1.0
 70
     8
 71
     3
 72
     8
 73
     4
 74
     0
 42
0.00000001
 43
0.00000001
 40
6.605057671246952
 40
6.605057671246952
 40
6.605057671246952
 40
6.605057671246952
 40
6.997604490020438
 40
6.997604490020438
 40
6.997604490020438
 40
6.997604490020438
 10
40.75502573623292
 20
27.74840221718975
 30
0.0
 10
40.72727276393892
 20
27.77616787666112
 30
0.0
 10
40.70504997985027
 20
27.80944473753818
 30
0.0
 10
40.69003112656315
 20
27.84572650274886
 30
0.0
  0
SPLINE
  5
158
330
1F
100
AcDbEntity
  8
0
  6
Continuous
 62
     7
100
AcDbSpline
210
0.0
220
0.0
230
1.0
 70
     8
 71
     3
 72
     8
 73
     4
 74
     0
 42
0.00000001
 43
0.00000001
 40
6.212510859236386
 40
6.212510859236386
 40
6.212510859236386
 40
6.212510859236386
 40
6.605057671246952
 40
6.605057671246952
 40
6.605057671246952
 40
6.605057671246952
 10
40.8523055506538
 20
27.68337789545394
 30
0.0
 10
40.81604036399402
 20
27.69840361454107
 30
0.0
 10
40.78277870852691
 20
27.72063655771839
 30
0.0
 10
40.75502573623292
 20
27.74840221718975
 30
0.0
  0
SPLINE
  5
159
330
1F
100
AcDbEntity
  8
0
  6
Continuous
 62
     7
100
AcDbSpline
210
0.0
220
0.0
230
1.0
 70
     8
 71
     3
 72
     8
 73
     4
 74
     0
 42
0.00000001
 43
0.00000001
 40
5.819964047847046
 40
5.819964047847046
 40
5.819964047847046
 40
5.819964047847046
 40
6.212510859236386
 40
6.212510859236386
 40
6.212510859236386
 40
6.212510859236386
 10
40.96707193506874
 20
27.66054532437742
 30
0.0
 10
40.92780424221522
 20
27.66054532474116
 30
0.0
 10
40.88857073731358
 20
27.66835217636682
 30
0.0
 10
40.8523055506538
 20
27.68337789545394
 30
0.0
  0
SPLINE
  5
15A
330
1F
100
AcDbEntity
  8
0
  6
Continuous
 62
     7
100
AcDbSpline
210
0.0
220
0.0
230
1.0
 70
     8
 71
     3
 72
    10
 73
     6
 74
     0
 42
0.00000001
 43
0.00000001
 40
0.0
 40
0.0
 40
0.0
 40
0.0
 40
0.3390572751962708
 40
0.7491868734241299
 40
1.0
 40
1.0
 40
1.0
 40
1.0
 10
40.65554846938775
 20
27.67089583814059
 30
0.0
 10
40.68407006430778
 20
27.64298693376234
 30
0.0
 10
40.74709187827959
 20
27.58131893150599
 30
0.0
 10
40.86066028760889
 20
27.53849969585701
 30
0.0
 10
40.93779936219756
 20
27.53349514749207
 30
0.0
 10
40.96707193265289
 20
27.5315960322202
 30
0.0
  0
SPLINE
  5
15B
330
1F
100
AcDbEntity
  8
0
  6
Continuous
 62
     7
100
AcDbSpline
210
0.0
220
0.0
230
1.0
 70
     8
 71
     3
 72
     8
 73
     4
 74
     0
 42
0.00000001
 43
0.00000001
 40
6.997604490020438
 40
6.997604490020438
 40
6.997604490020438
 40
6.997604490020438
 40
7.390151294403393
 40
7.390151294403393
 40
7.390151294403393
 40
7.390151294403393
 10
116.8210658122124
 20
145.1567734972509
 30
0.0
 10
116.8360846654995
 20
145.1204917320402
 30
0.0
 10
116.8438879498627
 20
145.0812402917505
 30
0.0
 10
116.8438879502257
 20
145.0419546477714
 30
0.0
  0
SPLINE
  5
15C
330
1F
100
AcDbEntity
  8
0
  6
Continuous
 62
     7
100
AcDbSpline
210
0.0
220
0.0
230
1.0
 70
     8
 71
     3
 72
     8
 73
     4
 74
     0
 42
0.00000001
 43
0.00000001
 40
6.60505767123079
 40
6.60505767123079
 40
6.60505767123079
 40
6.60505767123079
 40
6.997604490020438
 40
6.997604490020438
 40
6.997604490020438
 40
6.997604490020438
 10
116.7560712025426
 20
145.25409778281
 30
0.0
 10
116.7838241748366
 20
145.2263321233386
 30
0.0
 10
116.8060469589253
 20
145.1930552624616
 30
0.0
 10
116.8210658122124
 20
145.1567734972509
 30
0.0
  0
SPLINE
  5
15D
330
1F
100
AcDbEntity
  8
0
  6
Continuous
 62
     7
100
AcDbSpline
210
0.0
220
0.0
230
1.0
 70
     8
 71
     3
 72
     8
 73
     4
 74
     0
 42
0.00000001
 43
0.00000001
 40
6.212510859246992
 40
6.212510859246992
 40
6.212510859246992
 40
6.212510859246992
 40
6.60505767123079
 40
6.60505767123079
 40
6.60505767123079
 40
6.60505767123079
 10
116.6587913881217
 20
145.3191221045458
 30
0.0
 10
116.6950565747815
 20
145.3040963854587
 30
0.0
 10
116.7283182302486
 20
145.2818634422813
 30
0.0
 10
116.7560712025426
 20
145.25409778281
 30
0.0
  0
SPLINE
  5
15E
330
1F
100
AcDbEntity
  8
0
  6
Continuous
 62
     7
100
AcDbSpline
210
0.0
220
0.0
230
1.0
 70
     8
 71
     3
 72
     8
 73
     4
 74
     0
 42
0.00000001
 43
0.00000001
 40
5.819964047847046
 40
5.819964047847046
 40
5.819964047847046
 40
5.819964047847046
 40
6.212510859246992
 40
6.212510859246992
 40
6.212510859246992
 40
6.212510859246992
 10
116.5440250037068
 20
145.3419546756223
 30
0.0
 10
116.5832926965603
 20
145.3419546752586
 30
0.0
 10
116.6225262014619
 20
145.3341478236329
 30
0.0
 10
116.6587913881217
 20
145.3191221045458
 30
0.0
  0
SPLINE
  5
15F
330
1F
100
AcDbEntity
  8
0
  6
Continuous
 62
     7
100
AcDbSpline
210
0.0
220
0.0
230
1.0
 70
     8
 71
     3
 72
    10
 73
     6
 74
     0
 42
0.00000001
 43
0.00000001
 40
0.0
 40
0.0
 40
0.0
 40
0.0
 40
0.3067687135868848
 40
0.7369340793682742
 40
1.0
 40
1.0
 40
1.0
 40
1.0
 10
116.8431735420159
 20
145.3422733473454
 30
0.0
 10
116.8184732184343
 20
145.3662185468622
 30
0.0
 10
116.7591369516885
 20
145.4237408194396
 30
0.0
 10
116.6503688899362
 20
145.4639094269554
 30
0.0
 10
116.5732789362741
 20
145.4689798532807
 30
0.0
 10
116.5440250061226
 20
145.4709039677796
 30
0.0
  0
SPLINE
  5
160
330
1F
100
AcDbEntity
  8
0
  6
Continuous
 62
     7
100
AcDbSpline
210
0.0
220
0.0
230
1.0
 70
     8
 71
     3
 72
     8
 73
     4
 74
     0
 42
0.00000001
 43
0.00000001
 40
6.35385976672634
 40
6.35385976672634
 40
6.35385976672634
 40
6.35385976672634
 40
6.746406566512126
 40
6.746406566512126
 40
6.746406566512126
 40
6.746406566512126
 10
46.65879138812168
 20
27.68337789545394
 30
0.0
 10
46.62252620146191
 20
27.66835217636682
 30
0.0
 10
46.58329269656025
 20
27.66054532474116
 30
0.0
 10
46.54402500370674
 20
27.66054532437742
 30
0.0
  0
SPLINE
  5
161
330
1F
100
AcDbEntity
  8
0
  6
Continuous
 62
     7
100
AcDbSpline
210
0.0
220
0.0
230
1.0
 70
     8
 71
     3
 72
     8
 73
     4
 74
     0
 42
0.00000001
 43
0.00000001
 40
5.961312943147431
 40
5.961312943147431
 40
5.961312943147431
 40
5.961312943147431
 40
6.35385976672634
 40
6.35385976672634
 40
6.35385976672634
 40
6.35385976672634
 10
46.75607120254257
 20
27.74840221718975
 30
0.0
 10
46.72831823024858
 20
27.72063655771839
 30
0.0
 10
46.69505657478146
 20
27.69840361454107
 30
0.0
 10
46.65879138812168
 20
27.68337789545394
 30
0.0
  0
SPLINE
  5
162
330
1F
100
AcDbEntity
  8
0
  6
Continuous
 62
     7
100
AcDbSpline
210
0.0
220
0.0
230
1.0
 70
     8
 71
     3
 72
     8
 73
     4
 74
     0
 42
0.00000001
 43
0.00000001
 40
5.568766130825836
 40
5.568766130825836
 40
5.568766130825836
 40
5.568766130825836
 40
5.961312943147431
 40
5.961312943147431
 40
5.961312943147431
 40
5.961312943147431
 10
46.82106581221233
 20
27.84572650274886
 30
0.0
 10
46.80604695892522
 20
27.80944473753818
 30
0.0
 10
46.78382417483656
 20
27.77616787666112
 30
0.0
 10
46.75607120254257
 20
27.74840221718975
 30
0.0
  0
SPLINE
  5
163
330
1F
100
AcDbEntity
  8
0
  6
Continuous
 62
     7
100
AcDbSpline
210
0.0
220
0.0
230
1.0
 70
     8
 71
     3
 72
     8
 73
     4
 74
     0
 42
0.00000001
 43
0.00000001
 40
5.17621931995578
 40
5.17621931995578
 40
5.17621931995578
 40
5.17621931995578
 40
5.568766130825836
 40
5.568766130825836
 40
5.568766130825836
 40
5.568766130825836
 10
46.84388795022564
 20
27.96054535222838
 30
0.0
 10
46.84388794986268
 20
27.92125970824925
 30
0.0
 10
46.83608466549945
 20
27.88200826795955
 30
0.0
 10
46.82106581221233
 20
27.84572650274886
 30
0.0
  0
SPLINE
  5
164
330
1F
100
AcDbEntity
  8
0
  6
Continuous
 62
     7
100
AcDbSpline
210
0.0
220
0.0
230
1.0
 70
     8
 71
     3
 72
    10
 73
     6
 74
     0
 42
0.00000001
 43
0.00000001
 40
0.0
 40
0.0
 40
0.0
 40
0.0
 40
0.4263830692438167
 40
0.8341469938143744
 40
1.0
 40
1.0
 40
1.0
 40
1.0
 10
46.54402500370674
 20
27.5315960322202
 30
0.0
 10
46.59406378852876
 20
27.53717583836994
 30
0.0
 10
46.69195628226081
 20
27.54809179367303
 30
0.0
 10
46.80125563192841
 20
27.60590094973977
 30
0.0
 10
46.84337132754989
 20
27.65903756633581
 30
0.0
 10
46.85554846938776
 20
27.67440124744155
 30
0.0
  0
SPLINE
  5
165
330
1F
100
AcDbEntity
  8
0
  6
Continuous
 62
     7
100
AcDbSpline
210
0.0
220
0.0
230
1.0
 70
     8
 71
     3
 72
     8
 73
     4
 74
     0
 42
0.00000001
 43
0.00000001
 40
6.35385976672634
 40
6.35385976672634
 40
6.35385976672634
 40
6.35385976672634
 40
6.746406566512126
 40
6.746406566512126
 40
6.746406566512126
 40
6.746406566512126
 10
110.8523055506538
 20
145.3191221045458
 30
0.0
 10
110.8885707373136
 20
145.3341478236329
 30
0.0
 10
110.9278042422153
 20
145.3419546752586
 30
0.0
 10
110.9670719350688
 20
145.3419546756223
 30
0.0
  0
SPLINE
  5
166
330
1F
100
AcDbEntity
  8
0
  6
Continuous
 62
     7
100
AcDbSpline
210
0.0
220
0.0
230
1.0
 70
     8
 71
     3
 72
     8
 73
     4
 74
     0
 42
0.00000001
 43
0.00000001
 40
5.961312943147431
 40
5.961312943147431
 40
5.961312943147431
 40
5.961312943147431
 40
6.35385976672634
 40
6.35385976672634
 40
6.35385976672634
 40
6.35385976672634
 10
110.7550257362329
 20
145.25409778281
 30
0.0
 10
110.7827787085269
 20
145.2818634422813
 30
0.0
 10
110.8160403639941
 20
145.3040963854587
 30
0.0
 10
110.8523055506538
 20
145.3191221045458
 30
0.0
  0
SPLINE
  5
167
330
1F
100
AcDbEntity
  8
0
  6
Continuous
 62
     7
100
AcDbSpline
210
0.0
220
0.0
230
1.0
 70
     8
 71
     3
 72
     8
 73
     4
 74
     0
 42
0.00000001
 43
0.00000001
 40
5.568766130825836
 40
5.568766130825836
 40
5.568766130825836
 40
5.568766130825836
 40
5.961312943147431
 40
5.961312943147431
 40
5.961312943147431
 40
5.961312943147431
 10
110.6900311265632
 20
145.1567734972509
 30
0.0
 10
110.7050499798503
 20
145.1930552624616
 30
0.0
 10
110.727272763939
 20
145.2263321233386
 30
0.0
 10
110.7550257362329
 20
145.25409778281
 30
0.0
  0
SPLINE
  5
168
330
1F
100
AcDbEntity
  8
0
  6
Continuous
 62
     7
100
AcDbSpline
210
0.0
220
0.0
230
1.0
 70
     8
 71
     3
 72
     8
 73
     4
 74
     0
 42
0.00000001
 43
0.00000001
 40
5.17621931995578
 40
5.17621931995578
 40
5.17621931995578
 40
5.17621931995578
 40
5.568766130825836
 40
5.568766130825836
 40
5.568766130825836
 40
5.568766130825836
 10
110.6672089885499
 20
145.0419546477714
 30
0.0
 10
110.6672089889128
 20
145.0812402917505
 30
0.0
 10
110.6750122732761
 20
145.1204917320402
 30
0.0
 10
110.6900311265632
 20
145.1567734972509
 30
0.0
  0
SPLINE
  5
169
330
1F
100
AcDbEntity
  8
0
  6
Continuous
 62
     7
100
AcDbSpline
210
0.0
220
0.0
230
1.0
 70
     8
 71
     3
 72
    10
 73
     6
 74
     0
 42
0.00000001
 43
0.00000001
 40
0.0
 40
0.0
 40
0.0
 40
0.0
 40
0.4462900478570301
 40
0.8730916601576894
 40
1.0
 40
1.0
 40
1.0
 40
1.0
 10
110.9670719350688
 20
145.4709039677796
 30
0.0
 10
110.91711939099
 20
145.4652404517392
 30
0.0
 10
110.8193956128142
 20
145.4541607320687
 30
0.0
 10
110.7140307310989
 20
145.3998434505184
 30
0.0
 10
110.6748225407514
 20
145.3511955334922
 30
0.0
 10
110.6658361638116
 20
145.3400456049733
 30
0.0
  0
LINE
  5
16A
330
1F
100
AcDbEntity
  8
0
  6
Continuous
 62
     7
100
AcDbLine
 10
110.6672089885
 20
144.6610940769
 30
0.0
 11
110.6672089885
 21
145.0419546478
 31
0.0
  0
LINE
  5
16B
330
1F
100
AcDbEntity
  8
0
  6
Continuous
 62
     7
100
AcDbLine
 10
40.6672089885
 20
28.3413957962
 30
0.0
 11
40.6672089885
 21
27.9605453522
 31
0.0
  0
LINE
  5
16C
330
1F
100
AcDbEntity
  8
0
  6
Continuous
 62
     7
100
AcDbLine
 10
116.8438879502
 20
145.0419546478
 30
0.0
 11
116.8438879502
 21
144.6611042038
 31
0.0
  0
LINE
  5
16D
330
1F
100
AcDbEntity
  8
0
  6
Continuous
 62
     7
100
AcDbLine
 10
46.8438879502
 20
27.9605453522
 30
0.0
 11
46.8438879502
 21
28.3414059231
 31
0.0
  0
ELLIPSE
  5
16E
330
1F
100
AcDbEntity
  8
0
  6
Continuous
 62
     7
100
AcDbEllipse
 10
34.7555675086
 20
17.5012690392
 30
0.0
 11
0.3535803155654448
 21
0.3535803155654413
 31
0.0
210
0.0
220
0.0
230
1.0
 40
0.9999238505
 41
2.356232566403271
 42
3.926952740776318
  0
LINE
  5
16F
330
1F
100
AcDbEntity
  8
0
  6
Continuous
 62
     7
100
AcDbLine
 10
34.2555484694
 20
155.5012690385
 30
0.0
 11
34.2555484694
 21
17.5012309615
 31
0.0
  0
ELLIPSE
  5
170
330
1F
100
AcDbEntity
  8
0
  6
Continuous
 62
     7
100
AcDbEllipse
 10
34.7555675086
 20
155.5012309608
 30
0.0
 11
0.3535803155654449
 21
-0.3535803155654378
 31
0.0
210
0.0
220
0.0
230
0.9999999999999998
 40
0.9999238505
 41
2.356232566403277
 42
3.926952740776317
  0
LINE
  5
171
330
1F
100
AcDbEntity
  8
0
  6
Continuous
 62
     7
100
AcDbLine
 10
122.7555675079
 20
156.00125
 30
0.0
 11
34.7555294309
 21
156.00125
 31
0.0
  0
ELLIPSE
  5
172
330
1F
100
AcDbEntity
  8
0
  6
Continuous
 62
     7
100
AcDbEllipse
 10
122.7555294302
 20
155.5012309608
 30
0.0
 11
-0.353580315565452
 21
-0.3535803155654662
 31
0.0
210
0.0
220
0.0
230
0.9999999999999998
 40
0.9999238505
 41
2.356232566403139
 42
3.926952740776279
  0
LINE
  5
173
330
1F
100
AcDbEntity
  8
0
  6
Continuous
 62
     7
100
AcDbLine
 10
123.2555484694
 20
17.5012309615
 30
0.0
 11
123.2555484694
 21
155.5012690385
 31
0.0
  0
ELLIPSE
  5
174
330
1F
100
AcDbEntity
  8
0
  6
Continuous
 62
     7
100
AcDbEllipse
 10
122.7555294302
 20
17.5012690392
 30
0.0
 11
-0.353580315565452
 21
0.3535803155654413
 31
0.0
210
0.0
220
0.0
230
1.0
 40
0.9999238505
 41
2.356232566403281
 42
3.926952740776324
  0
LINE
  5
175
330
1F
100
AcDbEntity
  8
0
  6
Continuous
 62
     7
100
AcDbLine
 10
34.7555294309
 20
17.00125
 30
0.0
 11
122.7555675079
 21
17.00125
 31
0.0
  0
ELLIPSE
  5
176
330
1F
100
AcDbEntity
  8
0
  6
Continuous
 62
     7
100
AcDbEllipse
 10
77.1775043169
 20
71.8841487369
 30
0.0
 11
0.0
 21
2.799999999999997
 31
0.0
210
0.0
220
0.0
230
1.0
 40
0.6528729116
 41
4.712388980384699
 42
5.142193550034776
  0
LINE
  5
177
330
1F
100
AcDbEntity
  8
0
  6
Continuous
 62
     7
100
AcDbLine
 10
79.0055484694
 20
69.00125
 30
0.0
 11
79.0055484694
 21
71.8841487369
 31
0.0
  0
LINE
  5
178
330
1F
100
AcDbEntity
  8
0
  6
Continuous
 62
     7
100
AcDbLine
 10
79.0055484694
 20
69.00125
 30
0.0
 11
78.839282738
 21
69.00125
 31
0.0
  0
LINE
  5
179
330
1F
100
AcDbEntity
  8
0
  6
Continuous
 62
     7
100
AcDbLine
 10
97.5055484694
 20
69.00125
 30
0.0
 11
97.5055484694
 21
71.8841487369
 31
0.0
  0
LINE
  5
17A
330
1F
100
AcDbEntity
  8
0
  6
Continuous
 62
     7
100
AcDbLine
 10
97.5055484694
 20
69.00125
 30
0.0
 11
79.0055484694
 21
69.00125
 31
0.0
  0
ELLIPSE
  5
17B
330
1F
100
AcDbEntity
  8
0
  6
Continuous
 62
     7
100
AcDbEllipse
 10
80.3335926219
 20
101.1183512631
 30
0.0
 11
0.0
 21
2.799999999999997
 31
0.0
210
0.0
220
0.0
230
1.0
 40
0.6528729116
 41
1.570796326794897
 42
2.00060089644497
  0
LINE
  5
17C
330
1F
100
AcDbEntity
  8
0
  6
Continuous
 62
     7
100
AcDbLine
 10
78.5055484694
 20
101.1183512631
 30
0.0
 11
78.5055484694
 21
104.00125
 31
0.0
  0
LINE
  5
17D
330
1F
100
AcDbEntity
  8
0
  6
Continuous
 62
     7
100
AcDbLine
 10
78.5055484694
 20
104.00125
 30
0.0
 11
78.6718142008
 21
104.00125
 31
0.0
  0
LINE
  5
17E
330
1F
100
AcDbEntity
  8
0
  6
Continuous
 62
     7
100
AcDbLine
 10
60.0055484694
 20
101.1183512631
 30
0.0
 11
60.0055484694
 21
104.00125
 31
0.0
  0
LINE
  5
17F
330
1F
100
AcDbEntity
  8
0
  6
Continuous
 62
     7
100
AcDbLine
 10
78.5055484694
 20
104.00125
 30
0.0
 11
60.0055484694
 21
104.00125
 31
0.0
  0
LINE
  5
180
330
1F
100
AcDbEntity
  8
0
  6
Continuous
 62
     7
100
AcDbLine
 10
78.5055484694
 20
69.00125
 30
0.0
 11
78.5055484694
 21
71.8841487369
 31
0.0
  0
LINE
  5
181
330
1F
100
AcDbEntity
  8
0
  6
Continuous
 62
     7
100
AcDbLine
 10
60.0055484694
 20
69.00125
 30
0.0
 11
60.0055484694
 21
71.8841487369
 31
0.0
  0
LINE
  5
182
330
1F
100
AcDbEntity
  8
0
  6
Continuous
 62
     7
100
AcDbLine
 10
78.5055484694
 20
69.00125
 30
0.0
 11
60.0055484694
 21
69.00125
 31
0.0
  0
LINE
  5
183
330
1F
100
AcDbEntity
  8
0
  6
Continuous
 62
     7
100
AcDbLine
 10
79.0055484694
 20
101.1183512631
 30
0.0
 11
79.0055484694
 21
104.00125
 31
0.0
  0
LINE
  5
184
330
1F
100
AcDbEntity
  8
0
  6
Continuous
 62
     7
100
AcDbLine
 10
97.5055484694
 20
101.1183512631
 30
0.0
 11
97.5055484694
 21
104.00125
 31
0.0
  0
LINE
  5
185
330
1F
100
AcDbEntity
  8
0
  6
Continuous
 62
     7
100
AcDbLine
 10
97.5055484694
 20
104.00125
 30
0.0
 11
79.0055484694
 21
104.00125
 31
0.0
  0
ELLIPSE
  5
186
330
1F
100
AcDbEntity
  8
0
  6
Continuous
 62
     7
100
AcDbEllipse
 10
80.3335926219
 20
71.8841487369
 30
0.0
 11
0.0
 21
2.799999999999997
 31
0.0
210
0.0
220
0.0
230
1.0
 40
0.6528729116
 41
1.140991757141373
 42
1.570796326794897
  0
LINE
  5
187
330
1F
100
AcDbEntity
  8
0
  6
Continuous
 62
     7
100
AcDbLine
 10
78.6718142008
 20
69.00125
 30
0.0
 11
78.5055484694
 21
69.00125
 31
0.0
  0
ELLIPSE
  5
188
330
1F
100
AcDbEntity
  8
0
  6
Continuous
 62
     7
100
AcDbEllipse
 10
77.1775043169
 20
101.1183512631
 30
0.0
 11
0.0
 21
2.799999999999997
 31
0.0
210
0.0
220
0.0
230
1.0
 40
0.6528729116
 41
4.282584410734621
 42
4.712388980384699
  0
LINE
  5
189
330
1F
100
AcDbEntity
  8
0
  6
Continuous
 62
     7
100
AcDbLine
 10
78.839282738
 20
104.00125
 30
0.0
 11
79.0055484694
 21
104.00125
 31
0.0
  0
ELLIPSE
  5
18A
330
1F
100
AcDbEntity
  8
0
  6
Continuous
 62
     7
100
AcDbEllipse
 10
99.3335926219
 20
101.1183512631
 30
0.0
 11
0.0
 21
2.799999999999997
 31
0.0
210
0.0
220
0.0
230
1.0
 40
0.6528729116
 41
1.570796326794897
 42
2.00060089644498
  0
LINE
  5
18B
330
1F
100
AcDbEntity
  8
0
  6
Continuous
 62
     7
100
AcDbLine
 10
97.5055484694
 20
104.00125
 30
0.0
 11
97.6718142008
 21
104.00125
 31
0.0
  0
ELLIPSE
  5
18C
330
1F
100
AcDbEntity
  8
0
  6
Continuous
 62
     7
100
AcDbEllipse
 10
58.1775043169
 20
71.8841487369
 30
0.0
 11
0.0
 21
2.799999999999997
 31
0.0
210
0.0
220
0.0
230
1.0
 40
0.6528729116
 41
4.712388980384699
 42
5.142193550034786
  0
LINE
  5
18D
330
1F
100
AcDbEntity
  8
0
  6
Continuous
 62
     7
100
AcDbLine
 10
60.0055484694
 20
69.00125
 30
0.0
 11
59.839282738
 21
69.00125
 31
0.0
  0
ELLIPSE
  5
18E
330
1F
100
AcDbEntity
  8
0
  6
Continuous
 62
     7
100
AcDbEllipse
 10
99.3335926219
 20
71.8841487369
 30
0.0
 11
0.0
 21
2.799999999999997
 31
0.0
210
0.0
220
0.0
230
1.0
 40
0.6528729116
 41
1.140991757141362
 42
1.570796326794897
  0
LINE
  5
18F
330
1F
100
AcDbEntity
  8
0
  6
Continuous
 62
     7
100
AcDbLine
 10
97.6718142008
 20
69.00125
 30
0.0
 11
97.5055484694
 21
69.00125
 31
0.0
  0
SPLINE
  5
190
330
1F
100
AcDbEntity
  8
0
  6
Continuous
 62
     7
100
AcDbSpline
210
0.0
220
0.0
230
1.0
 70
     8
 71
     3
 72
    14
 73
    10
 74
     0
 42
0.00000001
 43
0.00000001
 40
0.0
 40
0.0
 40
0.0
 40
0.0
 40
0.25
 40
0.25
 40
0.5
 40
0.5
 40
0.75
 40
0.75
 40
1.0
 40
1.0
 40
1.0
 40
1.0
 10
78.67181420079947
 20
99.95161042913271
 30
0.0
 10
78.67806930831699
 20
99.93070898963789
 30
0.0
 10
78.68648526884819
 20
99.91025329435166
 30
0.0
 10
78.71206114190267
 20
99.87450136420063
 30
0.0
 10
78.73181278995143
 20
99.85735248391403
 30
0.0
 10
78.77948245446281
 20
99.85744619454569
 30
0.0
 10
78.79913988855877
 20
99.87458049520457
 30
0.0
 10
78.8247787137083
 20
99.91055388263133
 30
0.0
 10
78.83306724889715
 20
99.9308413745999
 30
0.0
 10
78.83928273798537
 20
99.95161042912954
 30
0.0
  0
SPLINE
  5
191
330
1F
100
AcDbEntity
  8
0
  6
Continuous
 62
     7
100
AcDbSpline
210
0.0
220
0.0
230
1.0
 70
     8
 71
     3
 72
    13
 73
     9
 74
     0
 42
0.00000001
 43
0.00000001
 40
0.0
 40
0.0
 40
0.0
 40
0.0
 40
0.0066358038809278
 40
0.3279546871205254
 40
0.6513484400326768
 40
0.7925544630218565
 40
0.935016675147849
 40
1.0
 40
1.0
 40
1.0
 40
1.0
 10
97.67181420079949
 20
99.9516104291327
 30
0.0
 10
97.67189708198748
 20
99.95133447564842
 30
0.0
 10
97.67599323590717
 20
99.93769630305911
 30
0.0
 10
97.68609259599735
 20
99.9112549550295
 30
0.0
 10
97.70540334323448
 20
99.8816969883167
 30
0.0
 10
97.72708242369549
 20
99.86469716281468
 30
0.0
 10
97.74253995288568
 20
99.85777827295492
 30
0.0
 10
97.7524455064784
 20
99.857916987433
 30
0.0
 10
97.75554846938776
 20
99.85796044041889
 30
0.0
  0
SPLINE
  5
192
330
1F
100
AcDbEntity
  8
0
  6
Continuous
 62
     7
100
AcDbSpline
210
0.0
220
0.0
230
1.0
 70
     8
 71
     3
 72
    12
 73
     8
 74
     0
 42
0.00000001
 43
0.00000001
 40
0.0
 40
0.0
 40
0.0
 40
0.0
 40
0.0720240514054856
 40
0.1795393362359562
 40
0.3520642699712742
 40
0.6547630936014017
 40
0.9999999999999999
 40
0.9999999999999999
 40
0.9999999999999999
 40
0.9999999999999999
 10
59.75554846938775
 20
99.85801668670139
 30
0.0
 10
59.75899264007811
 20
99.8579804498002
 30
0.0
 10
59.76757816265788
 20
99.85789011956939
 30
0.0
 10
59.78324348686742
 20
99.86421117704151
 30
0.0
 10
59.80450085450148
 20
99.88034290393023
 30
0.0
 10
59.82514395099095
 20
99.91082150917812
 30
0.0
 10
59.83436795186541
 20
99.93743178583951
 30
0.0
 10
59.83928273797603
 20
99.9516104291327
 30
0.0
  0
ELLIPSE
  5
193
330
1F
100
AcDbEntity
  8
0
  6
Continuous
 62
     7
100
AcDbEllipse
 10
58.1775043169
 20
101.1183512631
 30
0.0
 11
0.0
 21
2.799999999999997
 31
0.0
210
0.0
220
0.0
230
1.0
 40
0.6528729116
 41
4.282584410734617
 42
4.712388980384699
  0
LINE
  5
194
330
1F
100
AcDbEntity
  8
0
  6
Continuous
 62
     7
100
AcDbLine
 10
59.839282738
 20
104.00125
 30
0.0
 11
60.0055484694
 21
104.00125
 31
0.0
  0
SPLINE
  5
195
330
1F
100
AcDbEntity
  8
0
  6
Continuous
 62
     7
100
AcDbSpline
210
0.0
220
0.0
230
1.0
 70
     8
 71
     3
 72
    12
 73
     8
 74
     0
 42
0.00000001
 43
0.00000001
 40
0.0
 40
0.0
 40
0.0
 40
0.0
 40
0.4618360115470339
 40
0.6515612615698841
 40
0.843009572890071
 40
0.957281626117134
 40
1.0
 40
1.0
 40
1.0
 40
1.0
 10
59.83928273797603
 20
73.05088957086706
 30
0.0
 10
59.83250850282089
 20
73.06992016908552
 30
0.0
 10
59.82295136761813
 20
73.09676866135037
 30
0.0
 10
59.79954218323384
 20
73.12635776884657
 30
0.0
 10
59.78105621463238
 20
73.13962978998744
 30
0.0
 10
59.76503543725065
 20
73.14523527742803
 30
0.0
 10
59.75757776323043
 20
73.14464416091589
 30
0.0
 10
59.75554846938775
 20
73.14448331329837
 30
0.0
  0
SPLINE
  5
196
330
1F
100
AcDbEntity
  8
0
  6
Continuous
 62
     7
100
AcDbSpline
210
0.0
220
0.0
230
1.0
 70
     8
 71
     3
 72
    12
 73
     8
 74
     0
 42
0.00000001
 43
0.00000001
 40
0.0
 40
0.0
 40
0.0
 40
0.0
 40
0.0430067147601328
 40
0.150821599783103
 40
0.3076644085841979
 40
0.5708545156569694
 40
1.0
 40
1.0
 40
1.0
 40
1.0
 10
97.75554846938775
 20
73.14453955958086
 30
0.0
 10
97.75350396753112
 20
73.14467927040195
 30
0.0
 10
97.7463340397071
 20
73.14516922667185
 30
0.0
 10
97.73217134091807
 20
73.14042256091467
 30
0.0
 10
97.71177591575922
 20
73.12720823249316
 30
0.0
 10
97.68813386287592
 20
73.096961016504
 30
0.0
 10
97.67805907593602
 20
73.06851925119511
 30
0.0
 10
97.67181420079949
 20
73.05088957087769
 30
0.0
  0
SPLINE
  5
197
330
1F
100
AcDbEntity
  8
0
  6
Continuous
 62
     7
100
AcDbSpline
210
0.0
220
0.0
230
1.0
 70
     8
 71
     3
 72
    14
 73
    10
 74
     0
 42
0.00000001
 43
0.00000001
 40
0.0
 40
0.0
 40
0.0
 40
0.0
 40
0.25
 40
0.25
 40
0.4999999999999999
 40
0.4999999999999999
 40
0.75
 40
0.75
 40
1.0
 40
1.0
 40
1.0
 40
1.0
 10
78.83928273797603
 20
73.05088957086703
 30
0.0
 10
78.83302763045874
 20
73.07179101036118
 30
0.0
 10
78.82461166992785
 20
73.09224670564676
 30
0.0
 10
78.79903579687479
 20
73.127998635797
 30
0.0
 10
78.77928414882781
 20
73.14514751608355
 30
0.0
 10
78.73161448431813
 20
73.14505380545624
 30
0.0
 10
78.7119570502209
 20
73.1279195047992
 30
0.0
 10
78.68631822507045
 20
73.09194611737477
 30
0.0
 10
78.67802968988114
 20
73.07165862540693
 30
0.0
 10
78.67181420079253
 20
73.05088957087817
 30
0.0
  0
LINE
  5
198
330
1F
100
AcDbEntity
  8
0
  6
Continuous
 62
     7
100
AcDbLine
 10
59.7555484694
 20
104.00125
 30
0.0
 11
59.839282738
 21
104.00125
 31
0.0
  0
LINE
  5
199
330
1F
100
AcDbEntity
  8
0
  6
Continuous
 62
     7
100
AcDbLine
 10
59.839282738
 20
69.00125
 30
0.0
 11
59.7555484694
 21
69.00125
 31
0.0
  0
LINE
  5
19A
330
1F
100
AcDbEntity
  8
0
  6
Continuous
 62
     7
100
AcDbLine
 10
97.6718142008
 20
104.00125
 30
0.0
 11
97.7555484694
 21
104.00125
 31
0.0
  0
LINE
  5
19B
330
1F
100
AcDbEntity
  8
0
  6
Continuous
 62
     7
100
AcDbLine
 10
78.6718142008
 20
104.00125
 30
0.0
 11
78.839282738
 21
104.00125
 31
0.0
  0
LINE
  5
19C
330
1F
100
AcDbEntity
  8
0
  6
Continuous
 62
     7
100
AcDbLine
 10
97.7555484694
 20
69.00125
 30
0.0
 11
97.6718142008
 21
69.00125
 31
0.0
  0
LINE
  5
19D
330
1F
100
AcDbEntity
  8
0
  6
Continuous
 62
     7
100
AcDbLine
 10
78.839282738
 20
69.00125
 30
0.0
 11
78.6718142008
 21
69.00125
 31
0.0
  0
LINE
  5
19E
330
1F
100
AcDbEntity
  8
0
  6
Continuous
 62
     7
100
AcDbLine
 10
59.7555484694
 20
64.0274325974
 30
0.0
 11
97.7555484694
 21
64.0274325974
 31
0.0
  0
LINE
  5
19F
330
1F
100
AcDbEntity
  8
0
  6
Continuous
 62
     7
100
AcDbLine
 10
59.7555484694
 20
108.9750674026
 30
0.0
 11
97.7555484694
 21
108.9750674026
 31
0.0
  0
CIRCLE
  5
1A0
330
1F
100
AcDbEntity
  8
0
  6
Continuous
 62
     7
100
AcDbCircle
 10
78.7555484694
 20
86.50125
 30
0.0
 40
5.0
  0
CIRCLE
  5
1A1
330
1F
100
AcDbEntity
  8
0
  6
Continuous
 62
     7
100
AcDbCircle
 10
78.7555484694
 20
86.50125
 30
0.0
 40
4.973817402607679
  0
DIMENSION
  5
1A2
330
1F
100
AcDbEntity
  8
ОСНОВНОЙ
100
AcDbDimension
  2
_D
 10
24.2555484694
 20
156.00125
 30
0.0
 11
24.2555484694
 21
86.50125
 31
0.0
 70
   160
  1
<>
 71
     2
 42
-1.0
  3
SLDDIMSTYLE0
100
AcDbAlignedDimension
 13
34.755472317
 23
17.00125
 33
0.0
 14
34.755472317
 24
156.00125
 34
0.0
 50
90.0
100
AcDbRotatedDimension
  0
DIMENSION
  5
1AE
330
1F
100
AcDbEntity
  8
ОСНОВНОЙ
100
AcDbDimension
  2
_D_1
 10
123.2555484694
 20
7.00125
 30
0.0
 11
78.7555484694
 21
7.00125
 31
0.0
 70
   160
  1
<>
 71
     2
 42
-1.0
  3
SLDDIMSTYLE0
100
AcDbAlignedDimension
 13
34.2555484694
 23
17.5011738476
 33
0.0
 14
123.2555484694
 24
17.5011738476
 34
0.0
 50
0.0
100
AcDbRotatedDimension
  0
LINE
  5
1B8
330
1F
100
AcDbEntity
  8
0
  6
Continuous
 62
     7
100
AcDbLine
 10
241.2880484694
 20
152.75125
 30
0.0
 11
239.8036440955
 21
152.7642042007
 31
0.0
  0
ARC
  5
1B9
330
1F
100
AcDbEntity
  8
0
  6
Continuous
 62
     7
100
AcDbCircle
 10
179.8880484694
 20
33.0460591789
 30
0.0
 40
0.2999999999999985
100
AcDbArc
 50
180.0
 51
269.0
  0
LINE
  5
1BA
330
1F
100
AcDbEntity
  8
0
  6
Continuous
 62
     7
100
AcDbLine
 10
184.0967746726
 20
32.6725498914
 30
0.0
 11
182.0880484694
 21
32.7076123377
 31
0.0
  0
LINE
  5
1BB
330
1F
100
AcDbEntity
  8
0
  6
Continuous
 62
     7
100
AcDbLine
 10
180.2880484694
 20
32.7390314546
 30
0.0
 11
179.8828127475
 21
32.7461048704
 31
0.0
  0
ARC
  5
1BC
330
1F
100
AcDbEntity
  8
0
  6
Continuous
 62
     7
100
AcDbCircle
 10
184.0880484694
 20
32.1726260438
 30
0.0
 40
0.5
100
AcDbArc
 50
0.0
 51
89.0
  0
LINE
  5
1BD
330
1F
100
AcDbEntity
  8
0
  6
Continuous
 62
     7
100
AcDbLine
 10
178.0880484694
 20
32.4514575382
 30
0.0
 11
177.3012602512
 21
31.9005424969
 31
0.0
  0
LINE
  5
1BE
330
1F
100
AcDbEntity
  8
0
  6
Continuous
 62
     7
100
AcDbLine
 10
177.3012602512
 20
18.6019575031
 30
0.0
 11
178.0880484694
 21
18.0510424618
 31
0.0
  0
ARC
  5
1BF
330
1F
100
AcDbEntity
  8
0
  6
Continuous
 62
     7
100
AcDbCircle
 10
177.5880484694
 20
19.0115335253
 30
0.0
 40
0.5
100
AcDbArc
 50
180.0
 51
235.0
  0
ARC
  5
1C0
330
1F
100
AcDbEntity
  8
0
  6
Continuous
 62
     7
100
AcDbCircle
 10
177.5880484694
 20
31.4909664747
 30
0.0
 40
0.5
100
AcDbArc
 50
125.0
 51
180.0
  0
LINE
  5
1C1
330
1F
100
AcDbEntity
  8
0
  6
Continuous
 62
     7
100
AcDbLine
 10
178.0880484694
 20
92.50125
 30
0.0
 11
177.5836852016
 21
92.4968484884
 31
0.0
  0
LINE
  5
1C2
330
1F
100
AcDbEntity
  8
0
  6
Continuous
 62
     7
100
AcDbLine
 10
177.5836852016
 20
80.5056515116
 30
0.0
 11
178.0880484694
 21
80.50125
 31
0.0
  0
ARC
  5
1C3
330
1F
100
AcDbEntity
  8
0
  6
Continuous
 62
     7
100
AcDbCircle
 10
177.5880484694
 20
91.9968675269
 30
0.0
 40
0.5
100
AcDbArc
 50
90.5
 51
180.0
  0
ARC
  5
1C4
330
1F
100
AcDbEntity
  8
0
  6
Continuous
 62
     7
100
AcDbCircle
 10
177.5880484694
 20
81.0056324731
 30
0.0
 40
0.5000000000000029
100
AcDbArc
 50
180.0
 51
269.5
  0
LINE
  5
1C5
330
1F
100
AcDbEntity
  8
0
  6
Continuous
 62
     7
100
AcDbLine
 10
243.0880484694
 20
135.632162987
 30
0.0
 11
235.5880484694
 21
135.50125
 31
0.0
  0
LINE
  5
1C6
330
1F
100
AcDbEntity
  8
0
  6
Continuous
 62
     7
100
AcDbLine
 10
235.5880484694
 20
110.00125
 30
0.0
 11
235.5880484694
 21
135.50125
 31
0.0
  0
LINE
  5
1C7
330
1F
100
AcDbEntity
  8
0
  6
Continuous
 62
     7
100
AcDbLine
 10
235.5880484694
 20
110.00125
 30
0.0
 11
234.0880484694
 21
110.00125
 31
0.0
  0
LINE
  5
1C8
330
1F
100
AcDbEntity
  8
0
  6
Continuous
 62
     7
100
AcDbLine
 10
234.0880484694
 20
110.00125
 30
0.0
 11
234.0880484694
 21
136.9752958947
 31
0.0
  0
LINE
  5
1C9
330
1F
100
AcDbEntity
  8
0
  6
Continuous
 62
     7
100
AcDbLine
 10
241.2880484694
 20
137.1009723622
 30
0.0
 11
234.0880484694
 21
136.9752958947
 31
0.0
  0
LINE
  5
1CA
330
1F
100
AcDbEntity
  8
0
  6
Continuous
 62
     7
100
AcDbLine
 10
241.2880484694
 20
145.3364342523
 30
0.0
 11
241.2880484694
 21
137.1009723622
 31
0.0
  0
ARC
  5
1CB
330
1F
100
AcDbEntity
  8
0
  6
Continuous
 62
     7
100
AcDbCircle
 10
233.0880484694
 20
145.3364342523
 30
0.0
 40
8.200000000000028
100
AcDbArc
 50
0.0
 51
89.0
  0
LINE
  5
1CC
330
1F
100
AcDbEntity
  8
0
  6
Continuous
 62
     7
100
AcDbLine
 10
205.3364873447
 20
154.0220886435
 30
0.0
 11
233.2311582022
 21
153.5351853526
 31
0.0
  0
LINE
  5
1CD
330
1F
100
AcDbEntity
  8
0
  6
Continuous
 62
     7
100
AcDbLine
 10
205.3364873447
 20
154.0220886435
 30
0.0
 11
205.3556849918
 21
155.1219211082
 31
0.0
  0
LINE
  5
1CE
330
1F
100
AcDbEntity
  8
0
  6
Continuous
 62
     7
100
AcDbLine
 10
195.0880484694
 20
155.3011433704
 30
0.0
 11
205.3556849918
 21
155.1219211082
 31
0.0
  0
LINE
  5
1CF
330
1F
100
AcDbEntity
  8
0
  6
Continuous
 62
     7
100
AcDbLine
 10
195.0880484694
 20
156.00125
 30
0.0
 11
195.0880484694
 21
155.3011433704
 31
0.0
  0
LINE
  5
1D0
330
1F
100
AcDbEntity
  8
0
  6
Continuous
 62
     7
100
AcDbLine
 10
195.0880484694
 20
156.00125
 30
0.0
 11
233.2625725338
 21
155.3349112039
 31
0.0
  0
ARC
  5
1D1
330
1F
100
AcDbEntity
  8
0
  6
Continuous
 62
     7
100
AcDbCircle
 10
233.0880484694
 20
145.3364342523
 30
0.0
 40
10.00000000000002
100
AcDbArc
 50
0.0
 51
89.0
  0
LINE
  5
1D2
330
1F
100
AcDbEntity
  8
0
  6
Continuous
 62
     7
100
AcDbLine
 10
243.0880484694
 20
145.3364342523
 30
0.0
 11
243.0880484694
 21
135.632162987
 31
0.0
  0
LINE
  5
1D3
330
1F
100
AcDbEntity
  8
0
  6
Continuous
 62
     7
100
AcDbLine
 10
235.5880484694
 20
37.50125
 30
0.0
 11
243.0880484694
 21
37.370337013
 31
0.0
  0
LINE
  5
1D4
330
1F
100
AcDbEntity
  8
0
  6
Continuous
 62
     7
100
AcDbLine
 10
243.0880484694
 20
37.370337013
 30
0.0
 11
243.0880484694
 21
27.6660657477
 31
0.0
  0
ARC
  5
1D5
330
1F
100
AcDbEntity
  8
0
  6
Continuous
 62
     7
100
AcDbCircle
 10
233.0880484694
 20
27.6660657477
 30
0.0
 40
10.00000000000001
100
AcDbArc
 50
271.0
 51
0.0
  0
LINE
  5
1D6
330
1F
100
AcDbEntity
  8
0
  6
Continuous
 62
     7
100
AcDbLine
 10
233.2625725338
 20
17.6675887961
 30
0.0
 11
195.0880484694
 21
17.00125
 31
0.0
  0
LINE
  5
1D7
330
1F
100
AcDbEntity
  8
0
  6
Continuous
 62
     7
100
AcDbLine
 10
195.0880484694
 20
17.7013566296
 30
0.0
 11
195.0880484694
 21
17.00125
 31
0.0
  0
LINE
  5
1D8
330
1F
100
AcDbEntity
  8
0
  6
Continuous
 62
     7
100
AcDbLine
 10
205.3556849918
 20
17.8805788918
 30
0.0
 11
195.0880484694
 21
17.7013566296
 31
0.0
  0
LINE
  5
1D9
330
1F
100
AcDbEntity
  8
0
  6
Continuous
 62
     7
100
AcDbLine
 10
205.3364873447
 20
18.9804113565
 30
0.0
 11
205.3556849918
 21
17.8805788918
 31
0.0
  0
LINE
  5
1DA
330
1F
100
AcDbEntity
  8
0
  6
Continuous
 62
     7
100
AcDbLine
 10
233.2311582022
 20
19.4673146474
 30
0.0
 11
205.3364873447
 21
18.9804113565
 31
0.0
  0
ARC
  5
1DB
330
1F
100
AcDbEntity
  8
0
  6
Continuous
 62
     7
100
AcDbCircle
 10
233.0880484694
 20
27.6660657477
 30
0.0
 40
8.20000000000001
100
AcDbArc
 50
271.0
 51
0.0
  0
LINE
  5
1DC
330
1F
100
AcDbEntity
  8
0
  6
Continuous
 62
     7
100
AcDbLine
 10
241.2880484694
 20
35.9015276378
 30
0.0
 11
241.2880484694
 21
27.6660657477
 31
0.0
  0
LINE
  5
1DD
330
1F
100
AcDbEntity
  8
0
  6
Continuous
 62
     7
100
AcDbLine
 10
234.0880484694
 20
36.0272041053
 30
0.0
 11
241.2880484694
 21
35.9015276378
 31
0.0
  0
LINE
  5
1DE
330
1F
100
AcDbEntity
  8
0
  6
Continuous
 62
     7
100
AcDbLine
 10
234.0880484694
 20
36.0272041053
 30
0.0
 11
234.0880484694
 21
63.00125
 31
0.0
  0
LINE
  5
1DF
330
1F
100
AcDbEntity
  8
0
  6
Continuous
 62
     7
100
AcDbLine
 10
234.0880484694
 20
63.00125
 30
0.0
 11
235.5880484694
 21
63.00125
 31
0.0
  0
LINE
  5
1E0
330
1F
100
AcDbEntity
  8
0
  6
Continuous
 62
     7
100
AcDbLine
 10
235.5880484694
 20
37.50125
 30
0.0
 11
235.5880484694
 21
63.00125
 31
0.0
  0
LINE
  5
1E1
330
1F
100
AcDbEntity
  8
0
  6
Continuous
 62
     7
100
AcDbLine
 10
197.0880484694
 20
154.7661570765
 30
0.0
 11
197.0880484694
 21
154.1660656797
 31
0.0
  0
LINE
  5
1E2
330
1F
100
AcDbEntity
  8
0
  6
Continuous
 62
     7
100
AcDbLine
 10
197.0880484694
 20
154.1660656797
 30
0.0
 11
205.3364873447
 21
154.0220886435
 31
0.0
  0
LINE
  5
1E3
330
1F
100
AcDbEntity
  8
0
  6
Continuous
 62
     7
100
AcDbLine
 10
197.0880484694
 20
18.2363429235
 30
0.0
 11
197.0880484694
 21
18.8364343203
 31
0.0
  0
LINE
  5
1E4
330
1F
100
AcDbEntity
  8
0
  6
Continuous
 62
     7
100
AcDbLine
 10
197.0880484694
 20
18.8364343203
 30
0.0
 11
205.3364873447
 21
18.9804113565
 31
0.0
  0
LINE
  5
1E5
330
1F
100
AcDbEntity
  8
0
  6
Continuous
 62
     7
100
AcDbLine
 10
195.0880484694
 20
154.8010672063
 30
0.0
 11
197.094579723
 21
154.766043073
 31
0.0
  0
ARC
  5
1E6
330
1F
100
AcDbEntity
  8
0
  6
Continuous
 62
     7
100
AcDbCircle
 10
195.0967746726
 20
155.8010672179
 30
0.0
 40
2.250000000000013
100
AcDbArc
 50
332.6122000388
 51
346.1604115931
  0
LINE
  5
1E7
330
1F
100
AcDbEntity
  8
0
  6
Continuous
 62
     7
100
AcDbLine
 10
195.0880484694
 20
154.8010672063
 30
0.0
 11
195.0880484694
 21
155.3011433704
 31
0.0
  0
LINE
  5
1E8
330
1F
100
AcDbEntity
  8
0
  6
Continuous
 62
     7
100
AcDbLine
 10
199.3470715475
 20
154.726725682
 30
0.0
 11
201.2478639639
 21
154.6935472269
 31
0.0
  0
ARC
  5
1E9
330
1F
100
AcDbEntity
  8
0
  6
Continuous
 62
     7
100
AcDbCircle
 10
195.0967746726
 20
155.8010672179
 30
0.0
 40
6.250000000000009
100
AcDbArc
 50
349.7931037787
 51
354.4114342642
  0
ARC
  5
1EA
330
1F
100
AcDbEntity
  8
0
  6
Continuous
 62
     7
100
AcDbCircle
 10
195.0967746726
 20
17.2014327821
 30
0.0
 40
2.250000000000028
100
AcDbArc
 50
13.8395884069
 51
27.3877999612
  0
LINE
  5
1EB
330
1F
100
AcDbEntity
  8
0
  6
Continuous
 62
     7
100
AcDbLine
 10
199.3470715475
 20
18.275774318
 30
0.0
 11
197.094579723
 21
18.236456927
 31
0.0
  0
LINE
  5
1EC
330
1F
100
AcDbEntity
  8
0
  6
Continuous
 62
     7
100
AcDbLine
 10
200.3133887436
 20
17.7925652834
 30
0.0
 11
199.3470715475
 21
18.275774318
 31
0.0
  0
LINE
  5
1ED
330
1F
100
AcDbEntity
  8
0
  6
Continuous
 62
     7
100
AcDbLine
 10
197.094579723
 20
154.766043073
 30
0.0
 11
199.3470715475
 21
154.726725682
 31
0.0
  0
LINE
  5
1EE
330
1F
100
AcDbEntity
  8
0
  6
Continuous
 62
     7
100
AcDbLine
 10
200.3133887436
 20
155.2099347166
 30
0.0
 11
199.3470715475
 21
154.726725682
 31
0.0
  0
LINE
  5
1EF
330
1F
100
AcDbEntity
  8
0
  6
Continuous
 62
     7
100
AcDbLine
 10
195.0880484694
 20
18.2014327937
 30
0.0
 11
197.094579723
 21
18.236456927
 31
0.0
  0
LINE
  5
1F0
330
1F
100
AcDbEntity
  8
0
  6
Continuous
 62
     7
100
AcDbLine
 10
195.0880484694
 20
18.2014327937
 30
0.0
 11
195.0880484694
 21
17.7013566296
 31
0.0
  0
ARC
  5
1F1
330
1F
100
AcDbEntity
  8
0
  6
Continuous
 62
     7
100
AcDbCircle
 10
195.0967746726
 20
17.2014327821
 30
0.0
 40
6.25000000000001
100
AcDbArc
 50
5.5885657358
 51
10.2068962213
  0
LINE
  5
1F2
330
1F
100
AcDbEntity
  8
0
  6
Continuous
 62
     7
100
AcDbLine
 10
203.4021778409
 20
18.3465564617
 30
0.0
 11
201.2478639639
 21
18.3089527731
 31
0.0
  0
LINE
  5
1F3
330
1F
100
AcDbEntity
  8
0
  6
Continuous
 62
     7
100
AcDbLine
 10
204.3231183102
 20
17.8625553733
 30
0.0
 11
203.4021778409
 21
18.3465564617
 31
0.0
  0
LINE
  5
1F4
330
1F
100
AcDbEntity
  8
0
  6
Continuous
 62
     7
100
AcDbLine
 10
201.2478639639
 20
154.6935472269
 30
0.0
 11
203.4021778409
 21
154.6559435383
 31
0.0
  0
LINE
  5
1F5
330
1F
100
AcDbEntity
  8
0
  6
Continuous
 62
     7
100
AcDbLine
 10
204.3231183102
 20
155.1399446267
 30
0.0
 11
203.4021778409
 21
154.6559435383
 31
0.0
  0
LINE
  5
1F6
330
1F
100
AcDbEntity
  8
0
  6
Continuous
 62
     7
100
AcDbLine
 10
199.3470715475
 20
18.275774318
 30
0.0
 11
201.2478639639
 21
18.3089527731
 31
0.0
  0
LINE
  5
1F7
330
1F
100
AcDbEntity
  8
0
  6
Continuous
 62
     7
100
AcDbLine
 10
234.0880484694
 20
63.00125
 30
0.0
 11
234.0880484694
 21
110.00125
 31
0.0
  0
LINE
  5
1F8
330
1F
100
AcDbEntity
  8
0
  6
Continuous
 62
     7
100
AcDbLine
 10
234.0880484694
 20
135.3752958947
 30
0.0
 11
232.3828127475
 21
135.4050608949
 31
0.0
  0
LINE
  5
1F9
330
1F
100
AcDbEntity
  8
0
  6
Continuous
 62
     7
100
AcDbLine
 10
232.0880484694
 20
139.4047334422
 30
0.0
 11
232.0880484694
 21
153.5551384072
 31
0.0
  0
ARC
  5
1FA
330
1F
100
AcDbEntity
  8
0
  6
Continuous
 62
     7
100
AcDbCircle
 10
232.3880484694
 20
135.7050152035
 30
0.0
 40
0.3000000000000398
100
AcDbArc
 50
180.0
 51
269.0
  0
LINE
  5
1FB
330
1F
100
AcDbEntity
  8
0
  6
Continuous
 62
     7
100
AcDbLine
 10
232.0880484694
 20
135.7050152035
 30
0.0
 11
232.0880484694
 21
139.4047334422
 31
0.0
  0
LINE
  5
1FC
330
1F
100
AcDbEntity
  8
0
  6
Continuous
 62
     7
100
AcDbLine
 10
241.2880484694
 20
152.75125
 30
0.0
 11
241.2880484694
 21
151.0600694608
 31
0.0
  0
LINE
  5
1FD
330
1F
100
AcDbEntity
  8
0
  6
Continuous
 62
     7
100
AcDbLine
 10
235.5880484694
 20
63.00125
 30
0.0
 11
235.5880484694
 21
110.00125
 31
0.0
  0
LINE
  5
1FE
330
1F
100
AcDbEntity
  8
0
  6
Continuous
 62
     7
100
AcDbLine
 10
197.0880484694
 20
21.6199133612
 30
0.0
 11
197.0880484694
 21
19.1043214446
 31
0.0
  0
SPLINE
  5
1FF
330
1F
100
AcDbEntity
  8
0
  6
Continuous
 62
     7
100
AcDbSpline
210
0.0
220
0.0
230
1.0
 70
    24
 71
     3
 72
    12
 73
     8
 74
     0
 42
0.00000001
 43
0.00000001
 40
0.0
 40
0.0
 40
0.0
 40
0.0
 40
0.2304284864389753
 40
0.4608584284956515
 40
0.6912566929224335
 40
0.9216466995080074
 40
0.9999999999999999
 40
0.9999999999999999
 40
0.9999999999999999
 40
0.9999999999999999
 10
197.0880484693877
 20
19.10432144458481
 30
0.0
 10
197.0880484693877
 20
19.07114262671587
 30
0.0
 10
197.0880484693877
 20
19.0047847813873
 30
0.0
 10
197.0880484693877
 20
18.92097456394426
 30
0.0
 10
197.0880484693877
 20
18.86152923334087
 30
0.0
 10
197.0880484693877
 20
18.83841759328891
 30
0.0
 10
197.0880484693877
 20
18.8368357601275
 30
0.0
 10
197.0880484693877
 20
18.83643432033533
 30
0.0
  0
LINE
  5
200
330
1F
100
AcDbEntity
  8
0
  6
Continuous
 62
     7
100
AcDbLine
 10
243.0880484694
 20
135.632162987
 30
0.0
 11
243.0880484694
 21
135.1322391394
 31
0.0
  0
LINE
  5
201
330
1F
100
AcDbEntity
  8
0
  6
Continuous
 62
     7
100
AcDbLine
 10
243.0880484694
 20
37.8702608606
 30
0.0
 11
243.0880484694
 21
37.370337013
 31
0.0
  0
SPLINE
  5
202
330
1F
100
AcDbEntity
  8
0
  6
Continuous
 62
     7
100
AcDbSpline
210
0.0
220
0.0
230
1.0
 70
    24
 71
     3
 72
    12
 73
     8
 74
     0
 42
0.00000001
 43
0.00000001
 40
0.0
 40
0.0
 40
0.0
 40
0.0
 40
0.2304284865634767
 40
0.4608584287116255
 40
0.6912566937106058
 40
0.921646699985562
 40
1.0
 40
1.0
 40
1.0
 40
1.0
 10
197.0880484693877
 20
21.91814864233596
 30
0.0
 10
197.0880484693879
 20
21.88442210191903
 30
0.0
 10
197.0880484693883
 20
21.81696880803933
 30
0.0
 10
197.0880484693852
 20
21.72711484842731
 30
0.0
 10
197.088048469397
 20
21.65914327221401
 30
0.0
 10
197.0880484693627
 20
21.62791398851267
 30
0.0
 10
197.0880484694053
 20
21.62153279042199
 30
0.0
 10
197.0880484694162
 20
21.61991336121247
 30
0.0
  0
LINE
  5
203
330
1F
100
AcDbEntity
  8
0
  6
Continuous
 62
     7
100
AcDbLine
 10
197.0880484694
 20
154.1660656797
 30
0.0
 11
197.0880484694
 21
153.8661113711
 31
0.0
  0
CIRCLE
  5
204
330
1F
100
AcDbEntity
  8
0
  6
Continuous
 62
     7
100
AcDbCircle
 10
239.3380484694
 20
130.80125
 30
0.0
 40
1.750000000000028
  0
LINE
  5
205
330
1F
100
AcDbEntity
  8
0
  6
Continuous
 62
     7
100
AcDbLine
 10
243.0880484694
 20
37.8702608606
 30
0.0
 11
243.0880484694
 21
135.1322391394
 31
0.0
  0
LINE
  5
206
330
1F
100
AcDbEntity
  8
0
  6
Continuous
 62
     7
100
AcDbLine
 10
197.0880484694
 20
21.9181486423
 30
0.0
 11
197.0880484694
 21
139.9180815278
 31
0.0
  0
LINE
  5
207
330
1F
100
AcDbEntity
  8
0
  6
Continuous
 62
     7
100
AcDbLine
 10
197.0880484694
 20
152.2960300886
 30
0.0
 11
197.0880484694
 21
153.8661113711
 31
0.0
  0
LINE
  5
208
330
1F
100
AcDbEntity
  8
0
  6
Continuous
 62
     7
100
AcDbLine
 10
187.3333806337
 20
69.00125
 30
0.0
 11
187.2880484694
 21
69.00125
 31
0.0
  0
LINE
  5
209
330
1F
100
AcDbEntity
  8
0
  6
Continuous
 62
     7
100
AcDbLine
 10
187.2880484694
 20
73.1451007582
 30
0.0
 11
187.2880484694
 21
69.00125
 31
0.0
  0
SPLINE
  5
20A
330
1F
100
AcDbEntity
  8
0
  6
Continuous
 62
     7
100
AcDbSpline
210
0.0
220
0.0
230
1.0
 70
     8
 71
     3
 72
    10
 73
     6
 74
     0
 42
0.00000001
 43
0.00000001
 40
0.0
 40
0.0
 40
0.0
 40
0.0
 40
0.5000000000000001
 40
0.5000000000000001
 40
1.0
 40
1.0
 40
1.0
 40
1.0
 10
187.3333806336524
 20
73.05088957086703
 30
0.0
 10
187.3238063805793
 20
73.07177651815381
 30
0.0
 10
187.3141053934255
 20
73.09221801329011
 30
0.0
 10
187.2967026965507
 20
73.1279529532367
 30
0.0
 10
187.2880484693877
 20
73.14510075822884
 30
0.0
 10
187.2880484693877
 20
73.14510075822884
 30
0.0
  0
ARC
  5
20B
330
1F
100
AcDbEntity
  8
0
  6
Continuous
 62
     7
100
AcDbCircle
 10
179.4880484694
 20
33.9034249414
 30
0.0
 40
2.300000000000006
100
AcDbArc
 50
0.0
 51
87.508093631
  0
LINE
  5
20C
330
1F
100
AcDbEntity
  8
0
  6
Continuous
 62
     7
100
AcDbLine
 10
181.7880484694
 20
33.9034249414
 30
0.0
 11
181.7880484694
 21
30.2990750586
 31
0.0
  0
ARC
  5
20D
330
1F
100
AcDbEntity
  8
0
  6
Continuous
 62
     7
100
AcDbCircle
 10
179.4880484694
 20
30.2990750586
 30
0.0
 40
2.300000000000002
100
AcDbArc
 50
272.491906369
 51
0.0
  0
LINE
  5
20E
330
1F
100
AcDbEntity
  8
0
  6
Continuous
 62
     7
100
AcDbLine
 10
179.5880484694
 20
18.9365849919
 30
0.0
 11
179.5880484694
 21
28.00125
 31
0.0
  0
LINE
  5
20F
330
1F
100
AcDbEntity
  8
0
  6
Continuous
 62
     7
100
AcDbLine
 10
185.0788300497
 20
18.8886676669
 30
0.0
 11
179.5880484694
 21
18.9365849919
 31
0.0
  0
LINE
  5
210
330
1F
100
AcDbEntity
  8
0
  6
Continuous
 62
     7
100
AcDbLine
 10
185.0788300497
 20
17.7886257807
 30
0.0
 11
185.0788300497
 21
18.8886676669
 31
0.0
  0
LINE
  5
211
330
1F
100
AcDbEntity
  8
0
  6
Continuous
 62
     7
100
AcDbLine
 10
195.0880484694
 20
17.7012766549
 30
0.0
 11
185.0788300497
 21
17.7886257807
 31
0.0
  0
LINE
  5
212
330
1F
100
AcDbEntity
  8
0
  6
Continuous
 62
     7
100
AcDbLine
 10
195.0880484694
 20
17.00125
 30
0.0
 11
195.0880484694
 21
17.7012766549
 31
0.0
  0
LINE
  5
213
330
1F
100
AcDbEntity
  8
0
  6
Continuous
 62
     7
100
AcDbLine
 10
195.0880484694
 20
17.00125
 30
0.0
 11
178.5836852016
 21
17.1452813962
 31
0.0
  0
ARC
  5
214
330
1F
100
AcDbEntity
  8
0
  6
Continuous
 62
     7
100
AcDbCircle
 10
178.5880484694
 20
17.6452623577
 30
0.0
 40
0.5000000000000029
100
AcDbArc
 50
180.0
 51
269.5
  0
LINE
  5
215
330
1F
100
AcDbEntity
  8
0
  6
Continuous
 62
     7
100
AcDbLine
 10
178.0880484694
 20
17.6452623577
 30
0.0
 11
178.0880484694
 21
25.00125
 31
0.0
  0
LINE
  5
216
330
1F
100
AcDbEntity
  8
0
  6
Continuous
 62
     7
100
AcDbLine
 10
178.0880484694
 20
25.00125
 30
0.0
 11
177.7880484694
 21
25.00125
 31
0.0
  0
LINE
  5
217
330
1F
100
AcDbEntity
  8
0
  6
Continuous
 62
     7
100
AcDbLine
 10
177.7880484694
 20
25.50125
 30
0.0
 11
177.7880484694
 21
25.00125
 31
0.0
  0
LINE
  5
218
330
1F
100
AcDbEntity
  8
0
  6
Continuous
 62
     7
100
AcDbLine
 10
177.7880484694
 20
25.50125
 30
0.0
 11
178.0880484694
 21
25.50125
 31
0.0
  0
LINE
  5
219
330
1F
100
AcDbEntity
  8
0
  6
Continuous
 62
     7
100
AcDbLine
 10
178.0880484694
 20
25.50125
 30
0.0
 11
178.0880484694
 21
29.4628488572
 31
0.0
  0
LINE
  5
21A
330
1F
100
AcDbEntity
  8
0
  6
Continuous
 62
     7
100
AcDbLine
 10
178.0880484694
 20
29.4628488572
 30
0.0
 11
179.7967746726
 21
29.492674784
 31
0.0
  0
ARC
  5
21B
330
1F
100
AcDbEntity
  8
0
  6
Continuous
 62
     7
100
AcDbCircle
 10
179.7880484694
 20
29.9925986316
 30
0.0
 40
0.5
100
AcDbArc
 50
271.0
 51
0.0
  0
LINE
  5
21C
330
1F
100
AcDbEntity
  8
0
  6
Continuous
 62
     7
100
AcDbLine
 10
180.2880484694
 20
29.9925986316
 30
0.0
 11
180.2880484694
 21
34.2099013684
 31
0.0
  0
ARC
  5
21D
330
1F
100
AcDbEntity
  8
0
  6
Continuous
 62
     7
100
AcDbCircle
 10
179.7880484694
 20
34.2099013684
 30
0.0
 40
0.5
100
AcDbArc
 50
0.0
 51
89.0
  0
LINE
  5
21E
330
1F
100
AcDbEntity
  8
0
  6
Continuous
 62
     7
100
AcDbLine
 10
179.7967746726
 20
34.709825216
 30
0.0
 11
178.0880484694
 21
34.7396511428
 31
0.0
  0
LINE
  5
21F
330
1F
100
AcDbEntity
  8
0
  6
Continuous
 62
     7
100
AcDbLine
 10
178.0880484694
 20
34.7396511428
 30
0.0
 11
178.0880484694
 21
46.5274325974
 31
0.0
  0
LINE
  5
220
330
1F
100
AcDbEntity
  8
0
  6
Continuous
 62
     7
100
AcDbLine
 10
178.0880484694
 20
46.5274325974
 30
0.0
 11
179.5880484694
 21
46.50125
 31
0.0
  0
LINE
  5
221
330
1F
100
AcDbEntity
  8
0
  6
Continuous
 62
     7
100
AcDbLine
 10
179.5880484694
 20
36.20125
 30
0.0
 11
179.5880484694
 21
46.50125
 31
0.0
  0
LINE
  5
222
330
1F
100
AcDbEntity
  8
0
  6
Continuous
 62
     7
100
AcDbLine
 10
179.5880484694
 20
154.0659150081
 30
0.0
 11
185.0788300497
 21
154.1138323331
 31
0.0
  0
LINE
  5
223
330
1F
100
AcDbEntity
  8
0
  6
Continuous
 62
     7
100
AcDbLine
 10
179.5880484694
 20
145.00125
 30
0.0
 11
179.5880484694
 21
154.0659150081
 31
0.0
  0
ARC
  5
224
330
1F
100
AcDbEntity
  8
0
  6
Continuous
 62
     7
100
AcDbCircle
 10
179.4880484694
 20
142.7034249414
 30
0.0
 40
2.299999999999983
100
AcDbArc
 50
0.0
 51
87.508093631
  0
LINE
  5
225
330
1F
100
AcDbEntity
  8
0
  6
Continuous
 62
     7
100
AcDbLine
 10
181.7880484694
 20
142.7034249414
 30
0.0
 11
181.7880484694
 21
139.0990750586
 31
0.0
  0
ARC
  5
226
330
1F
100
AcDbEntity
  8
0
  6
Continuous
 62
     7
100
AcDbCircle
 10
179.4880484694
 20
139.0990750586
 30
0.0
 40
2.300000000000006
100
AcDbArc
 50
272.491906369
 51
0.0
  0
LINE
  5
227
330
1F
100
AcDbEntity
  8
0
  6
Continuous
 62
     7
100
AcDbLine
 10
179.5880484694
 20
126.50125
 30
0.0
 11
179.5880484694
 21
136.80125
 31
0.0
  0
LINE
  5
228
330
1F
100
AcDbEntity
  8
0
  6
Continuous
 62
     7
100
AcDbLine
 10
179.5880484694
 20
126.50125
 30
0.0
 11
178.0880484694
 21
126.4750674026
 31
0.0
  0
LINE
  5
229
330
1F
100
AcDbEntity
  8
0
  6
Continuous
 62
     7
100
AcDbLine
 10
178.0880484694
 20
126.4750674026
 30
0.0
 11
178.0880484694
 21
131.50125
 31
0.0
  0
LINE
  5
22A
330
1F
100
AcDbEntity
  8
0
  6
Continuous
 62
     7
100
AcDbLine
 10
178.0880484694
 20
131.50125
 30
0.0
 11
177.7880484694
 21
131.50125
 31
0.0
  0
LINE
  5
22B
330
1F
100
AcDbEntity
  8
0
  6
Continuous
 62
     7
100
AcDbLine
 10
177.7880484694
 20
131.50125
 30
0.0
 11
177.7880484694
 21
132.00125
 31
0.0
  0
LINE
  5
22C
330
1F
100
AcDbEntity
  8
0
  6
Continuous
 62
     7
100
AcDbLine
 10
177.7880484694
 20
132.00125
 30
0.0
 11
178.0880484694
 21
132.00125
 31
0.0
  0
LINE
  5
22D
330
1F
100
AcDbEntity
  8
0
  6
Continuous
 62
     7
100
AcDbLine
 10
178.0880484694
 20
132.00125
 30
0.0
 11
178.0880484694
 21
138.2628488572
 31
0.0
  0
LINE
  5
22E
330
1F
100
AcDbEntity
  8
0
  6
Continuous
 62
     7
100
AcDbLine
 10
178.0880484694
 20
138.2628488572
 30
0.0
 11
179.7967746726
 21
138.292674784
 31
0.0
  0
ARC
  5
22F
330
1F
100
AcDbEntity
  8
0
  6
Continuous
 62
     7
100
AcDbCircle
 10
179.7880484694
 20
138.7925986316
 30
0.0
 40
0.5000000000000068
100
AcDbArc
 50
271.0
 51
360.0
  0
LINE
  5
230
330
1F
100
AcDbEntity
  8
0
  6
Continuous
 62
     7
100
AcDbLine
 10
180.2880484694
 20
138.7925986316
 30
0.0
 11
180.2880484694
 21
143.0099013684
 31
0.0
  0
ARC
  5
231
330
1F
100
AcDbEntity
  8
0
  6
Continuous
 62
     7
100
AcDbCircle
 10
179.7880484694
 20
143.0099013684
 30
0.0
 40
0.5
100
AcDbArc
 50
360.0
 51
89.0
  0
LINE
  5
232
330
1F
100
AcDbEntity
  8
0
  6
Continuous
 62
     7
100
AcDbLine
 10
179.7967746726
 20
143.509825216
 30
0.0
 11
178.0880484694
 21
143.5396511428
 31
0.0
  0
LINE
  5
233
330
1F
100
AcDbEntity
  8
0
  6
Continuous
 62
     7
100
AcDbLine
 10
178.0880484694
 20
143.5396511428
 30
0.0
 11
178.0880484694
 21
155.3572376423
 31
0.0
  0
ARC
  5
234
330
1F
100
AcDbEntity
  8
0
  6
Continuous
 62
     7
100
AcDbCircle
 10
178.5880484694
 20
155.3572376423
 30
0.0
 40
0.5000000000000029
100
AcDbArc
 50
90.5
 51
180.0
  0
LINE
  5
235
330
1F
100
AcDbEntity
  8
0
  6
Continuous
 62
     7
100
AcDbLine
 10
178.5836852016
 20
155.8572186038
 30
0.0
 11
195.0880484694
 21
156.00125
 31
0.0
  0
LINE
  5
236
330
1F
100
AcDbEntity
  8
0
  6
Continuous
 62
     7
100
AcDbLine
 10
195.0880484694
 20
155.3012233451
 30
0.0
 11
195.0880484694
 21
156.00125
 31
0.0
  0
LINE
  5
237
330
1F
100
AcDbEntity
  8
0
  6
Continuous
 62
     7
100
AcDbLine
 10
185.0788300497
 20
155.2138742193
 30
0.0
 11
195.0880484694
 21
155.3012233451
 31
0.0
  0
LINE
  5
238
330
1F
100
AcDbEntity
  8
0
  6
Continuous
 62
     7
100
AcDbLine
 10
185.0788300497
 20
154.1138323331
 30
0.0
 11
185.0788300497
 21
155.2138742193
 31
0.0
  0
LINE
  5
239
330
1F
100
AcDbEntity
  8
0
  6
Continuous
 62
     7
100
AcDbLine
 10
186.5880484694
 20
104.00125
 30
0.0
 11
187.2880484694
 21
104.00125
 31
0.0
  0
LINE
  5
23A
330
1F
100
AcDbEntity
  8
0
  6
Continuous
 62
     7
100
AcDbLine
 10
187.2880484694
 20
104.00125
 30
0.0
 11
187.2880484694
 21
99.8573992418
 31
0.0
  0
ARC
  5
23B
330
1F
100
AcDbEntity
  8
0
  6
Continuous
 62
     7
100
AcDbCircle
 10
184.7880484694
 20
101.1183512631
 30
0.0
 40
2.800000000000022
100
AcDbArc
 50
271.0
 51
333.2344994232
  0
LINE
  5
23C
330
1F
100
AcDbEntity
  8
0
  6
Continuous
 62
     7
100
AcDbLine
 10
184.8369152074
 20
98.3187777166
 30
0.0
 11
180.3740865442
 21
98.2408787525
 31
0.0
  0
ARC
  5
23D
330
1F
100
AcDbEntity
  8
0
  6
Continuous
 62
     7
100
AcDbCircle
 10
180.3880484694
 20
97.4410005964
 30
0.0
 40
0.8000000000000048
100
AcDbArc
 50
91.0
 51
180.0
  0
LINE
  5
23E
330
1F
100
AcDbEntity
  8
0
  6
Continuous
 62
     7
100
AcDbLine
 10
179.5880484694
 20
91.50125
 30
0.0
 11
179.5880484694
 21
97.4410005964
 31
0.0
  0
LINE
  5
23F
330
1F
100
AcDbEntity
  8
0
  6
Continuous
 62
     7
100
AcDbLine
 10
179.5880484694
 20
91.50125
 30
0.0
 11
178.0880484694
 21
91.4750674026
 31
0.0
  0
LINE
  5
240
330
1F
100
AcDbEntity
  8
0
  6
Continuous
 62
     7
100
AcDbLine
 10
178.0880484694
 20
91.4750674026
 30
0.0
 11
178.0880484694
 21
97.2496976633
 31
0.0
  0
ARC
  5
241
330
1F
100
AcDbEntity
  8
0
  6
Continuous
 62
     7
100
AcDbCircle
 10
180.8880484694
 20
97.2496976633
 30
0.0
 40
2.800000000000002
100
AcDbArc
 50
91.0
 51
180.0
  0
LINE
  5
242
330
1F
100
AcDbEntity
  8
0
  6
Continuous
 62
     7
100
AcDbLine
 10
180.8391817314
 20
100.0492712097
 30
0.0
 11
185.2474364388
 21
100.1262175819
 31
0.0
  0
ARC
  5
243
330
1F
100
AcDbEntity
  8
0
  6
Continuous
 62
     7
100
AcDbCircle
 10
185.2334745136
 20
100.926095738
 30
0.0
 40
0.8000000000000038
100
AcDbArc
 50
271.0
 51
350.0
  0
LINE
  5
244
330
1F
100
AcDbEntity
  8
0
  6
Continuous
 62
     7
100
AcDbLine
 10
186.0213207161
 20
100.7871771958
 30
0.0
 11
186.5880484694
 21
104.00125
 31
0.0
  0
LINE
  5
245
330
1F
100
AcDbEntity
  8
0
  6
Continuous
 62
     7
100
AcDbLine
 10
187.2880484694
 20
69.00125
 30
0.0
 11
186.5880484694
 21
69.00125
 31
0.0
  0
LINE
  5
246
330
1F
100
AcDbEntity
  8
0
  6
Continuous
 62
     7
100
AcDbLine
 10
186.5880484694
 20
69.00125
 30
0.0
 11
186.0213207161
 21
72.2153228042
 31
0.0
  0
ARC
  5
247
330
1F
100
AcDbEntity
  8
0
  6
Continuous
 62
     7
100
AcDbCircle
 10
185.2334745136
 20
72.076404262
 30
0.0
 40
0.8000000000000038
100
AcDbArc
 50
10.0
 51
89.0
  0
LINE
  5
248
330
1F
100
AcDbEntity
  8
0
  6
Continuous
 62
     7
100
AcDbLine
 10
185.2474364388
 20
72.8762824181
 30
0.0
 11
180.8391817314
 21
72.9532287903
 31
0.0
  0
ARC
  5
249
330
1F
100
AcDbEntity
  8
0
  6
Continuous
 62
     7
100
AcDbCircle
 10
180.8880484694
 20
75.7528023367
 30
0.0
 40
2.799999999999988
100
AcDbArc
 50
180.0
 51
269.0
  0
LINE
  5
24A
330
1F
100
AcDbEntity
  8
0
  6
Continuous
 62
     7
100
AcDbLine
 10
178.0880484694
 20
75.7528023367
 30
0.0
 11
178.0880484694
 21
81.5274325974
 31
0.0
  0
LINE
  5
24B
330
1F
100
AcDbEntity
  8
0
  6
Continuous
 62
     7
100
AcDbLine
 10
178.0880484694
 20
81.5274325974
 30
0.0
 11
179.5880484694
 21
81.50125
 31
0.0
  0
LINE
  5
24C
330
1F
100
AcDbEntity
  8
0
  6
Continuous
 62
     7
100
AcDbLine
 10
179.5880484694
 20
75.5614994036
 30
0.0
 11
179.5880484694
 21
81.50125
 31
0.0
  0
ARC
  5
24D
330
1F
100
AcDbEntity
  8
0
  6
Continuous
 62
     7
100
AcDbCircle
 10
180.3880484694
 20
75.5614994036
 30
0.0
 40
0.8000000000000048
100
AcDbArc
 50
180.0
 51
269.0
  0
LINE
  5
24E
330
1F
100
AcDbEntity
  8
0
  6
Continuous
 62
     7
100
AcDbLine
 10
180.3740865442
 20
74.7616212475
 30
0.0
 11
184.8369152074
 21
74.6837222834
 31
0.0
  0
ARC
  5
24F
330
1F
100
AcDbEntity
  8
0
  6
Continuous
 62
     7
100
AcDbCircle
 10
184.7880484694
 20
71.8841487369
 30
0.0
 40
2.800000000000022
100
AcDbArc
 50
26.7655005768
 51
89.0
  0
LINE
  5
250
330
1F
100
AcDbEntity
  8
0
  6
Continuous
 62
     7
100
AcDbLine
 10
178.0880484694
 20
64.00125
 30
0.0
 11
179.5880484694
 21
64.0274325974
 31
0.0
  0
LINE
  5
251
330
1F
100
AcDbEntity
  8
0
  6
Continuous
 62
     7
100
AcDbLine
 10
179.5880484694
 20
56.50125
 30
0.0
 11
179.5880484694
 21
64.0274325974
 31
0.0
  0
LINE
  5
252
330
1F
100
AcDbEntity
  8
0
  6
Continuous
 62
     7
100
AcDbLine
 10
179.5880484694
 20
56.50125
 30
0.0
 11
178.0880484694
 21
56.4750674026
 31
0.0
  0
LINE
  5
253
330
1F
100
AcDbEntity
  8
0
  6
Continuous
 62
     7
100
AcDbLine
 10
178.0880484694
 20
56.4750674026
 30
0.0
 11
178.0880484694
 21
64.00125
 31
0.0
  0
LINE
  5
254
330
1F
100
AcDbEntity
  8
0
  6
Continuous
 62
     7
100
AcDbLine
 10
178.0880484694
 20
109.00125
 30
0.0
 11
178.0880484694
 21
116.5274325974
 31
0.0
  0
LINE
  5
255
330
1F
100
AcDbEntity
  8
0
  6
Continuous
 62
     7
100
AcDbLine
 10
178.0880484694
 20
116.5274325974
 30
0.0
 11
179.5880484694
 21
116.50125
 31
0.0
  0
LINE
  5
256
330
1F
100
AcDbEntity
  8
0
  6
Continuous
 62
     7
100
AcDbLine
 10
179.5880484694
 20
108.9750674026
 30
0.0
 11
179.5880484694
 21
116.50125
 31
0.0
  0
LINE
  5
257
330
1F
100
AcDbEntity
  8
0
  6
Continuous
 62
     7
100
AcDbLine
 10
179.5880484694
 20
108.9750674026
 30
0.0
 11
178.0880484694
 21
109.00125
 31
0.0
  0
LINE
  5
258
330
1F
100
AcDbEntity
  8
0
  6
Continuous
 62
     7
100
AcDbLine
 10
179.5880484694
 20
81.50125
 30
0.0
 11
179.5880484694
 21
91.50125
 31
0.0
  0
LINE
  5
259
330
1F
100
AcDbEntity
  8
0
  6
Continuous
 62
     7
100
AcDbLine
 10
178.0880484694
 20
81.5274325974
 30
0.0
 11
178.0880484694
 21
91.4750674026
 31
0.0
  0
LINE
  5
25A
330
1F
100
AcDbEntity
  8
0
  6
Continuous
 62
     7
100
AcDbLine
 10
195.0880484694
 20
154.2011814589
 30
0.0
 11
185.0788300497
 21
154.1138323331
 31
0.0
  0
LINE
  5
25B
330
1F
100
AcDbEntity
  8
0
  6
Continuous
 62
     7
100
AcDbLine
 10
187.2880484694
 20
104.00125
 30
0.0
 11
187.3333806337
 21
104.00125
 31
0.0
  0
SPLINE
  5
25C
330
1F
100
AcDbEntity
  8
0
  6
Continuous
 62
     7
100
AcDbSpline
210
0.0
220
0.0
230
1.0
 70
     8
 71
     3
 72
    10
 73
     6
 74
     0
 42
0.00000001
 43
0.00000001
 40
0.0
 40
0.0
 40
0.0
 40
0.0
 40
0.5
 40
0.5
 40
1.0
 40
1.0
 40
1.0
 40
1.0
 10
187.2880484693877
 20
99.85739924177089
 30
0.0
 10
187.2880484693877
 20
99.85739924177089
 30
0.0
 10
187.2966978309808
 20
99.87453496937783
 30
0.0
 10
187.3142225171988
 20
99.91052459005728
 30
0.0
 10
187.3238538198632
 20
99.93082697418221
 30
0.0
 10
187.3333806336511
 20
99.95161042912953
 30
0.0
  0
LINE
  5
25D
330
1F
100
AcDbEntity
  8
0
  6
Continuous
 62
     7
100
AcDbLine
 10
185.0788300497
 20
18.8886676669
 30
0.0
 11
195.0880484694
 21
18.8013185411
 31
0.0
  0
LINE
  5
25E
330
1F
100
AcDbEntity
  8
0
  6
Continuous
 62
     7
100
AcDbLine
 10
187.5880484694
 20
101.1183512631
 30
0.0
 11
187.5880484694
 21
104.00125
 31
0.0
  0
LINE
  5
25F
330
1F
100
AcDbEntity
  8
0
  6
Continuous
 62
     7
100
AcDbLine
 10
187.3333806337
 20
104.00125
 30
0.0
 11
187.5880484694
 21
104.00125
 31
0.0
  0
ARC
  5
260
330
1F
100
AcDbEntity
  8
0
  6
Continuous
 62
     7
100
AcDbCircle
 10
184.7880484694
 20
101.1183512631
 30
0.0
 40
2.800000000000029
100
AcDbArc
 50
335.3740121436
 51
0.0
  0
LINE
  5
261
330
1F
100
AcDbEntity
  8
0
  6
Continuous
 62
     7
100
AcDbLine
 10
187.5880484694
 20
69.00125
 30
0.0
 11
187.5880484694
 21
71.8841487369
 31
0.0
  0
LINE
  5
262
330
1F
100
AcDbEntity
  8
0
  6
Continuous
 62
     7
100
AcDbLine
 10
187.5880484694
 20
69.00125
 30
0.0
 11
187.3333806337
 21
69.00125
 31
0.0
  0
ARC
  5
263
330
1F
100
AcDbEntity
  8
0
  6
Continuous
 62
     7
100
AcDbCircle
 10
184.7880484694
 20
71.8841487369
 30
0.0
 40
2.800000000000022
100
AcDbArc
 50
0.0
 51
24.6259878564
  0
LINE
  5
264
330
1F
100
AcDbEntity
  8
0
  6
Continuous
 62
     7
100
AcDbLine
 10
179.8880484694
 20
25.00125
 30
0.0
 11
179.5880484694
 21
25.00125
 31
0.0
  0
LINE
  5
265
330
1F
100
AcDbEntity
  8
0
  6
Continuous
 62
     7
100
AcDbLine
 10
179.8880484694
 20
24.5525320513
 30
0.0
 11
179.8880484694
 21
25.00125
 31
0.0
  0
LINE
  5
266
330
1F
100
AcDbEntity
  8
0
  6
Continuous
 62
     7
100
AcDbLine
 10
179.8880484694
 20
24.5525320513
 30
0.0
 11
179.5880484694
 21
24.5525320513
 31
0.0
  0
LINE
  5
267
330
1F
100
AcDbEntity
  8
0
  6
Continuous
 62
     7
100
AcDbLine
 10
179.8880484694
 20
21.50125
 30
0.0
 11
179.8880484694
 21
24.0589423077
 31
0.0
  0
LINE
  5
268
330
1F
100
AcDbEntity
  8
0
  6
Continuous
 62
     7
100
AcDbLine
 10
179.8880484694
 20
24.0589423077
 30
0.0
 11
179.5880484694
 21
24.0589423077
 31
0.0
  0
LINE
  5
269
330
1F
100
AcDbEntity
  8
0
  6
Continuous
 62
     7
100
AcDbLine
 10
179.8880484694
 20
21.50125
 30
0.0
 11
179.5880484694
 21
21.50125
 31
0.0
  0
LINE
  5
26A
330
1F
100
AcDbEntity
  8
0
  6
Continuous
 62
     7
100
AcDbLine
 10
177.7880484694
 20
133.25125
 30
0.0
 11
178.0880484694
 21
133.25125
 31
0.0
  0
LINE
  5
26B
330
1F
100
AcDbEntity
  8
0
  6
Continuous
 62
     7
100
AcDbLine
 10
177.7880484694
 20
136.2127884615
 30
0.0
 11
178.0880484694
 21
136.2127884615
 31
0.0
  0
SPLINE
  5
26C
330
1F
100
AcDbEntity
  8
0
  6
Continuous
 62
     7
100
AcDbSpline
210
0.0
220
0.0
230
1.0
 70
    24
 71
     3
 72
    27
 73
    23
 74
     0
 42
0.00000001
 43
0.00000001
 40
0.0
 40
0.0
 40
0.0
 40
0.0
 40
0.0314272898339571
 40
0.0646054795207685
 40
0.0994393445169617
 40
0.136456304806596
 40
0.1753519851952027
 40
0.2161008675321624
 40
0.2589775198518817
 40
0.3040074750734801
 40
0.3957568126458638
 40
0.4876156308966688
 40
0.5798735059012288
 40
0.6727070790515447
 40
0.7186945783923683
 40
0.7630792377552901
 40
0.8058934434386099
 40
0.8473863361294187
 40
0.8876001486816195
 40
0.9263862120921268
 40
0.9637547278604682
 40
1.0
 40
1.0
 40
1.0
 40
1.0
 10
177.7880484693877
 20
136.2127884615383
 30
0.0
 10
177.7880484693877
 20
136.1884984906335
 30
0.0
 10
177.7880484693877
 20
136.1385652884344
 30
0.0
 10
177.7880484693877
 20
136.0568446371855
 30
0.0
 10
177.7880484693877
 20
135.968163390661
 30
0.0
 10
177.7880484693877
 20
135.8713265712355
 30
0.0
 10
177.7880484693877
 20
135.7678638856967
 30
0.0
 10
177.7880484693877
 20
135.6557920180079
 30
0.0
 10
177.7880484693877
 20
135.5365648759271
 30
0.0
 10
177.7880484693877
 20
135.3679178452239
 30
0.0
 10
177.7880484693877
 20
135.1476127150486
 30
0.0
 10
177.7880484693877
 20
134.8737621854658
 30
0.0
 10
177.7880484693877
 20
134.5915014545473
 30
0.0
 10
177.7880484693877
 20
134.3509945032684
 30
0.0
 10
177.7880484693877
 20
134.1582285519596
 30
0.0
 10
177.7880484693877
 20
134.0172735194291
 30
0.0
 10
177.7880484693877
 20
133.8802851452752
 30
0.0
 10
177.7880484693877
 20
133.747022675851
 30
0.0
 10
177.7880484693877
 20
133.6174253166957
 30
0.0
 10
177.7880484693877
 20
133.4919436331034
 30
0.0
 10
177.7880484693877
 20
133.3702716358571
 30
0.0
 10
177.7880484693877
 20
133.2905182367778
 30
0.0
 10
177.7880484693877
 20
133.2512499999999
 30
0.0
  0
LINE
  5
26D
330
1F
100
AcDbEntity
  8
0
  6
Continuous
 62
     7
100
AcDbLine
 10
177.7880484694
 20
136.7063782051
 30
0.0
 11
177.7880484694
 21
136.2127884615
 31
0.0
  0
LINE
  5
26E
330
1F
100
AcDbEntity
  8
0
  6
Continuous
 62
     7
100
AcDbLine
 10
177.7880484694
 20
136.7063782051
 30
0.0
 11
178.0880484694
 21
136.7063782051
 31
0.0
  0
SPLINE
  5
26F
330
1F
100
AcDbEntity
  8
0
  6
Continuous
 62
     7
100
AcDbSpline
210
0.0
220
0.0
230
1.0
 70
     8
 71
     3
 72
     8
 73
     4
 74
     0
 42
0.00000001
 43
0.00000001
 40
0.0
 40
0.0
 40
0.0
 40
0.0
 40
1.0
 40
1.0
 40
1.0
 40
1.0
 10
185.8519235651589
 20
17.78187909580797
 30
0.0
 10
186.1552235849203
 20
17.94798444417497
 30
0.0
 10
186.4606007207293
 20
18.11216120055245
 30
0.0
 10
186.7686053151781
 20
18.27389837456221
 30
0.0
  0
LINE
  5
270
330
1F
100
AcDbEntity
  8
0
  6
Continuous
 62
     7
100
AcDbLine
 10
188.9231653125
 20
18.2550958143
 30
0.0
 11
186.7686053152
 21
18.2738983746
 31
0.0
  0
ARC
  5
271
330
1F
100
AcDbEntity
  8
0
  6
Continuous
 62
     7
100
AcDbCircle
 10
195.0836852016
 20
17.2012956933
 30
0.0
 40
6.250000000000021
100
AcDbArc
 50
170.2931037787
 51
174.9114342642
  0
LINE
  5
272
330
1F
100
AcDbEntity
  8
0
  6
Continuous
 62
     7
100
AcDbLine
 10
190.8241748855
 20
18.2385059551
 30
0.0
 11
188.9231653125
 21
18.2550958143
 31
0.0
  0
LINE
  5
273
330
1F
100
AcDbEntity
  8
0
  6
Continuous
 62
     7
100
AcDbLine
 10
193.0769240466
 20
18.218846511
 30
0.0
 11
190.8241748855
 21
18.2385059551
 31
0.0
  0
ARC
  5
274
330
1F
100
AcDbEntity
  8
0
  6
Continuous
 62
     7
100
AcDbCircle
 10
195.0836852016
 20
17.2012956933
 30
0.0
 40
2.25000000000001
100
AcDbArc
 50
153.1122000388
 51
166.6604115931
  0
SPLINE
  5
275
330
1F
100
AcDbEntity
  8
0
  6
Continuous
 62
     7
100
AcDbSpline
210
0.0
220
0.0
230
1.0
 70
     8
 71
     3
 72
     8
 73
     4
 74
     0
 42
0.00000001
 43
0.00000001
 40
0.0
 40
0.0
 40
0.0
 40
0.0
 40
1.0
 40
1.0
 40
1.0
 40
1.0
 10
189.8621112245502
 20
17.74688271828832
 30
0.0
 10
190.178015236416
 20
17.91542004868556
 30
0.0
 10
190.4979699763966
 20
18.08000907084752
 30
0.0
 10
190.8241748855168
 20
18.23850595510568
 30
0.0
  0
LINE
  5
276
330
1F
100
AcDbEntity
  8
0
  6
Continuous
 62
     7
100
AcDbLine
 10
195.0880484694
 20
18.2012956941
 30
0.0
 11
193.0769240466
 21
18.218846511
 31
0.0
  0
LINE
  5
277
330
1F
100
AcDbEntity
  8
0
  6
Continuous
 62
     7
100
AcDbLine
 10
195.0880484694
 20
18.2012956941
 30
0.0
 11
195.0880484694
 21
17.7012766549
 31
0.0
  0
ARC
  5
278
330
1F
100
AcDbEntity
  8
0
  6
Continuous
 62
     7
100
AcDbCircle
 10
195.0836852016
 20
155.8012043067
 30
0.0
 40
6.250000000000021
100
AcDbArc
 50
185.0885657358
 51
189.7068962213
  0
LINE
  5
279
330
1F
100
AcDbEntity
  8
0
  6
Continuous
 62
     7
100
AcDbLine
 10
186.7686053152
 20
154.7286016254
 30
0.0
 11
188.9231653125
 21
154.7474041857
 31
0.0
  0
SPLINE
  5
27A
330
1F
100
AcDbEntity
  8
0
  6
Continuous
 62
     7
100
AcDbSpline
210
0.0
220
0.0
230
1.0
 70
     8
 71
     3
 72
     8
 73
     4
 74
     0
 42
0.00000001
 43
0.00000001
 40
0.0
 40
0.0
 40
0.0
 40
0.0
 40
1.0
 40
1.0
 40
1.0
 40
1.0
 10
186.7686053151781
 20
154.7286016254374
 30
0.0
 10
186.4606007207293
 20
154.8903387994472
 30
0.0
 10
186.1552235849203
 20
155.0545155558247
 30
0.0
 10
185.8519235651589
 20
155.2206209041917
 30
0.0
  0
SPLINE
  5
27B
330
1F
100
AcDbEntity
  8
0
  6
Continuous
 62
     7
100
AcDbSpline
210
0.0
220
0.0
230
1.0
 70
     8
 71
     3
 72
     8
 73
     4
 74
     0
 42
0.00000001
 43
0.00000001
 40
0.0
 40
0.0
 40
0.0
 40
0.0
 40
1.0
 40
1.0
 40
1.0
 40
1.0
 10
190.8241748855168
 20
154.763994044894
 30
0.0
 10
190.4979699763966
 20
154.9224909291522
 30
0.0
 10
190.178015236416
 20
155.0870799513141
 30
0.0
 10
189.8621112245502
 20
155.2556172817114
 30
0.0
  0
ARC
  5
27C
330
1F
100
AcDbEntity
  8
0
  6
Continuous
 62
     7
100
AcDbCircle
 10
195.0836852016
 20
155.8012043067
 30
0.0
 40
2.250000000000033
100
AcDbArc
 50
193.3395884069
 51
206.8877999612
  0
LINE
  5
27D
330
1F
100
AcDbEntity
  8
0
  6
Continuous
 62
     7
100
AcDbLine
 10
190.8241748855
 20
154.7639940449
 30
0.0
 11
193.0769240466
 21
154.783653489
 31
0.0
  0
LINE
  5
27E
330
1F
100
AcDbEntity
  8
0
  6
Continuous
 62
     7
100
AcDbLine
 10
193.0769240466
 20
154.783653489
 30
0.0
 11
195.0880484694
 21
154.8012043059
 31
0.0
  0
LINE
  5
27F
330
1F
100
AcDbEntity
  8
0
  6
Continuous
 62
     7
100
AcDbLine
 10
195.0880484694
 20
155.3012233451
 30
0.0
 11
195.0880484694
 21
154.8012043059
 31
0.0
  0
LINE
  5
280
330
1F
100
AcDbEntity
  8
0
  6
Continuous
 62
     7
100
AcDbLine
 10
188.9231653125
 20
154.7474041857
 30
0.0
 11
190.8241748855
 21
154.7639940449
 31
0.0
  0
LINE
  5
281
330
1F
100
AcDbEntity
  8
0
  6
Continuous
 62
     7
100
AcDbLine
 10
179.8880484694
 20
24.1038141026
 30
0.0
 11
179.5880484694
 21
24.1038141026
 31
0.0
  0
LINE
  5
282
330
1F
100
AcDbEntity
  8
0
  6
Continuous
 62
     7
100
AcDbLine
 10
179.8880484694
 20
21.4563782051
 30
0.0
 11
179.5880484694
 21
21.4563782051
 31
0.0
  0
LINE
  5
283
330
1F
100
AcDbEntity
  8
0
  6
Continuous
 62
     7
100
AcDbLine
 10
179.6316794855
 20
136.4583739199
 30
0.0
 11
179.5880484694
 21
136.4576123377
 31
0.0
  0
LINE
  5
284
330
1F
100
AcDbEntity
  8
0
  6
Continuous
 62
     7
100
AcDbLine
 10
179.5880484694
 20
36.5448876623
 30
0.0
 11
179.6316794855
 21
36.5441260801
 31
0.0
  0
LINE
  5
285
330
1F
100
AcDbEntity
  8
0
  6
Continuous
 62
     7
100
AcDbLine
 10
179.5880484694
 20
145.3448876623
 30
0.0
 11
179.6316794855
 21
145.3441260801
 31
0.0
  0
LINE
  5
286
330
1F
100
AcDbEntity
  8
0
  6
Continuous
 62
     7
100
AcDbLine
 10
179.6316794855
 20
27.6583739199
 30
0.0
 11
179.5880484694
 21
27.6576123377
 31
0.0
  0
ARC
  5
287
330
1F
100
AcDbEntity
  8
0
  6
Continuous
 62
     7
100
AcDbCircle
 10
179.5880484694
 20
30.1579931578
 30
0.0
 40
2.500000000000008
100
AcDbArc
 50
271.0
 51
0.0
  0
ARC
  5
288
330
1F
100
AcDbEntity
  8
0
  6
Continuous
 62
     7
100
AcDbCircle
 10
179.5880484694
 20
34.0445068422
 30
0.0
 40
2.500000000000004
100
AcDbArc
 50
0.0
 51
89.0
  0
ARC
  5
289
330
1F
100
AcDbEntity
  8
0
  6
Continuous
 62
     7
100
AcDbCircle
 10
179.5880484694
 20
142.8445068422
 30
0.0
 40
2.5
100
AcDbArc
 50
0.0
 51
89.0
  0
ARC
  5
28A
330
1F
100
AcDbEntity
  8
0
  6
Continuous
 62
     7
100
AcDbCircle
 10
179.5880484694
 20
138.9579931578
 30
0.0
 40
2.5
100
AcDbArc
 50
271.0
 51
0.0
  0
LINE
  5
28B
330
1F
100
AcDbEntity
  8
0
  6
Continuous
 62
     7
100
AcDbLine
 10
182.0880484694
 20
34.0445068422
 30
0.0
 11
182.0880484694
 21
30.1579931578
 31
0.0
  0
LINE
  5
28C
330
1F
100
AcDbEntity
  8
0
  6
Continuous
 62
     7
100
AcDbLine
 10
182.0880484694
 20
142.8445068422
 30
0.0
 11
182.0880484694
 21
138.9579931578
 31
0.0
  0
LINE
  5
28D
330
1F
100
AcDbEntity
  8
0
  6
Continuous
 62
     7
100
AcDbLine
 10
178.0880484694
 20
138.2628488572
 30
0.0
 11
178.0880484694
 21
143.5396511428
 31
0.0
  0
LINE
  5
28E
330
1F
100
AcDbEntity
  8
0
  6
Continuous
 62
     7
100
AcDbLine
 10
178.0880484694
 20
29.4628488572
 30
0.0
 11
178.0880484694
 21
34.7396511428
 31
0.0
  0
LINE
  5
28F
330
1F
100
AcDbEntity
  8
0
  6
Continuous
 62
     7
100
AcDbLine
 10
179.5880484694
 20
143.5134685454
 30
0.0
 11
179.5880484694
 21
138.2890314546
 31
0.0
  0
LINE
  5
290
330
1F
100
AcDbEntity
  8
0
  6
Continuous
 62
     7
100
AcDbLine
 10
179.5880484694
 20
34.7134685454
 30
0.0
 11
179.5880484694
 21
29.4890314546
 31
0.0
  0
LINE
  5
291
330
1F
100
AcDbEntity
  8
0
  6
Continuous
 62
     7
100
AcDbLine
 10
179.8880484694
 20
24.1910346733
 30
0.0
 11
179.8880484694
 21
24.5525320513
 31
0.0
  0
LINE
  5
292
330
1F
100
AcDbEntity
  8
0
  6
Continuous
 62
     7
100
AcDbLine
 10
196.2950296978
 20
18.7907853755
 30
0.0
 11
195.0880484694
 21
18.8013185411
 31
0.0
  0
LINE
  5
293
330
1F
100
AcDbEntity
  8
0
  6
Continuous
 62
     7
100
AcDbLine
 10
196.2950296978
 20
154.2117146245
 30
0.0
 11
195.0880484694
 21
154.2011814589
 31
0.0
  0
LINE
  5
294
330
1F
100
AcDbEntity
  8
0
  6
Continuous
 62
     7
100
AcDbLine
 10
196.2950296978
 20
18.7907853755
 30
0.0
 11
197.0880484694
 21
18.7838648055
 31
0.0
  0
LINE
  5
295
330
1F
100
AcDbEntity
  8
0
  6
Continuous
 62
     7
100
AcDbLine
 10
197.0880484694
 20
154.2186351945
 30
0.0
 11
196.2950296978
 21
154.2117146245
 31
0.0
  0
LINE
  5
296
330
1F
100
AcDbEntity
  8
0
  6
Continuous
 62
     7
100
AcDbLine
 10
179.5880484694
 20
116.50125
 30
0.0
 11
179.5880484694
 21
126.50125
 31
0.0
  0
LINE
  5
297
330
1F
100
AcDbEntity
  8
0
  6
Continuous
 62
     7
100
AcDbLine
 10
178.0880484694
 20
116.5274325974
 30
0.0
 11
178.0880484694
 21
126.4750674026
 31
0.0
  0
LINE
  5
298
330
1F
100
AcDbEntity
  8
0
  6
Continuous
 62
     7
100
AcDbLine
 10
179.5880484694
 20
46.50125
 30
0.0
 11
179.5880484694
 21
56.50125
 31
0.0
  0
LINE
  5
299
330
1F
100
AcDbEntity
  8
0
  6
Continuous
 62
     7
100
AcDbLine
 10
178.0880484694
 20
46.5274325974
 30
0.0
 11
178.0880484694
 21
56.4750674026
 31
0.0
  0
LINE
  5
29A
330
1F
100
AcDbEntity
  8
0
  6
Continuous
 62
     7
100
AcDbLine
 10
179.7380484694
 20
135.1274325974
 30
0.0
 11
179.7380484694
 21
136.4624972151
 31
0.0
  0
LINE
  5
29B
330
1F
100
AcDbEntity
  8
0
  6
Continuous
 62
     7
100
AcDbLine
 10
179.7380484694
 20
135.1274325974
 30
0.0
 11
179.5880484694
 21
135.1274325974
 31
0.0
  0
LINE
  5
29C
330
1F
100
AcDbEntity
  8
0
  6
Continuous
 62
     7
100
AcDbLine
 10
177.0880484694
 20
151.7014937249
 30
0.0
 11
177.0880484694
 21
153.0014937249
 31
0.0
  0
ARC
  5
29D
330
1F
100
AcDbEntity
  8
0
  6
Continuous
 62
     7
100
AcDbCircle
 10
177.5880484694
 20
153.0014937249
 30
0.0
 40
0.5
100
AcDbArc
 50
90.0
 51
180.0
  0
LINE
  5
29E
330
1F
100
AcDbEntity
  8
0
  6
Continuous
 62
     7
100
AcDbLine
 10
177.5880484694
 20
153.5014937249
 30
0.0
 11
178.0880484694
 21
153.5014937249
 31
0.0
  0
LINE
  5
29F
330
1F
100
AcDbEntity
  8
0
  6
Continuous
 62
     7
100
AcDbLine
 10
177.0880484694
 20
138.00125
 30
0.0
 11
177.0880484694
 21
151.7014937249
 31
0.0
  0
ARC
  5
2A0
330
1F
100
AcDbEntity
  8
0
  6
Continuous
 62
     7
100
AcDbCircle
 10
177.5880484694
 20
136.70125
 30
0.0
 40
0.5
100
AcDbArc
 50
180.0
 51
270.0
  0
LINE
  5
2A1
330
1F
100
AcDbEntity
  8
0
  6
Continuous
 62
     7
100
AcDbLine
 10
177.0880484694
 20
136.70125
 30
0.0
 11
177.0880484694
 21
138.00125
 31
0.0
  0
LINE
  5
2A2
330
1F
100
AcDbEntity
  8
0
  6
Continuous
 62
     7
100
AcDbLine
 10
177.7880484694
 20
136.20125
 30
0.0
 11
177.5880484694
 21
136.20125
 31
0.0
  0
LINE
  5
2A3
330
1F
100
AcDbEntity
  8
0
  6
Continuous
 62
     7
100
AcDbLine
 10
184.5880484694
 20
32.1726260438
 30
0.0
 11
184.5880484694
 21
18.8929506529
 31
0.0
  0
LINE
  5
2A4
330
1F
100
AcDbEntity
  8
0
  6
Continuous
 62
     7
100
AcDbLine
 10
179.7380484694
 20
129.1774325974
 30
0.0
 11
179.5880484694
 21
129.1774325974
 31
0.0
  0
LINE
  5
2A5
330
1F
100
AcDbEntity
  8
0
  6
Continuous
 62
     7
100
AcDbLine
 10
179.7380484694
 20
129.0774325974
 30
0.0
 11
179.5880484694
 21
129.0774325974
 31
0.0
  0
LINE
  5
2A6
330
1F
100
AcDbEntity
  8
0
  6
Continuous
 62
     7
100
AcDbLine
 10
179.7380484694
 20
129.1774325974
 30
0.0
 11
179.7380484694
 21
129.0774325974
 31
0.0
  0
LINE
  5
2A7
330
1F
100
AcDbEntity
  8
0
  6
Continuous
 62
     7
100
AcDbLine
 10
179.7380484694
 20
127.1774325974
 30
0.0
 11
179.5880484694
 21
127.1774325974
 31
0.0
  0
LINE
  5
2A8
330
1F
100
AcDbEntity
  8
0
  6
Continuous
 62
     7
100
AcDbLine
 10
179.7380484694
 20
129.0774325974
 30
0.0
 11
179.7380484694
 21
127.1774325974
 31
0.0
  0
LINE
  5
2A9
330
1F
100
AcDbEntity
  8
0
  6
Continuous
 62
     7
100
AcDbLine
 10
179.7380484694
 20
127.0774325974
 30
0.0
 11
179.5880484694
 21
127.0774325974
 31
0.0
  0
LINE
  5
2AA
330
1F
100
AcDbEntity
  8
0
  6
Continuous
 62
     7
100
AcDbLine
 10
179.7380484694
 20
127.1774325974
 30
0.0
 11
179.7380484694
 21
127.0774325974
 31
0.0
  0
LINE
  5
2AB
330
1F
100
AcDbEntity
  8
0
  6
Continuous
 62
     7
100
AcDbLine
 10
177.0880484694
 20
25.25125
 30
0.0
 11
177.0880484694
 21
31.4909664747
 31
0.0
  0
LINE
  5
2AC
330
1F
100
AcDbEntity
  8
0
  6
Continuous
 62
     7
100
AcDbLine
 10
177.0880484694
 20
19.0115335253
 30
0.0
 11
177.0880484694
 21
25.25125
 31
0.0
  0
LINE
  5
2AD
330
1F
100
AcDbEntity
  8
0
  6
Continuous
 62
     7
100
AcDbLine
 10
179.7380484694
 20
132.3787146487
 30
0.0
 11
179.7380484694
 21
132.7440592
 31
0.0
  0
LINE
  5
2AE
330
1F
100
AcDbEntity
  8
0
  6
Continuous
 62
     7
100
AcDbLine
 10
179.7380484694
 20
132.3787146487
 30
0.0
 11
179.5880484694
 21
132.3787146487
 31
0.0
  0
LINE
  5
2AF
330
1F
100
AcDbEntity
  8
0
  6
Continuous
 62
     7
100
AcDbLine
 10
179.7380484694
 20
132.7440592
 30
0.0
 11
179.5880484694
 21
132.7440592
 31
0.0
  0
LINE
  5
2B0
330
1F
100
AcDbEntity
  8
0
  6
Continuous
 62
     7
100
AcDbLine
 10
179.7380484694
 20
134.0992274692
 30
0.0
 11
179.5880484694
 21
134.0992274692
 31
0.0
  0
LINE
  5
2B1
330
1F
100
AcDbEntity
  8
0
  6
Continuous
 62
     7
100
AcDbLine
 10
179.7380484694
 20
132.7440592
 30
0.0
 11
179.7380484694
 21
134.0992274692
 31
0.0
  0
LINE
  5
2B2
330
1F
100
AcDbEntity
  8
0
  6
Continuous
 62
     7
100
AcDbLine
 10
179.7380484694
 20
129.5774325974
 30
0.0
 11
179.5880484694
 21
129.5774325974
 31
0.0
  0
LINE
  5
2B3
330
1F
100
AcDbEntity
  8
0
  6
Continuous
 62
     7
100
AcDbLine
 10
179.7380484694
 20
129.5774325974
 30
0.0
 11
179.7380484694
 21
129.1774325974
 31
0.0
  0
LINE
  5
2B4
330
1F
100
AcDbEntity
  8
0
  6
Continuous
 62
     7
100
AcDbLine
 10
179.7380484694
 20
131.9274325974
 30
0.0
 11
179.5880484694
 21
131.9274325974
 31
0.0
  0
LINE
  5
2B5
330
1F
100
AcDbEntity
  8
0
  6
Continuous
 62
     7
100
AcDbLine
 10
179.7380484694
 20
131.9274325974
 30
0.0
 11
179.7380484694
 21
132.3787146487
 31
0.0
  0
LINE
  5
2B6
330
1F
100
AcDbEntity
  8
0
  6
Continuous
 62
     7
100
AcDbLine
 10
177.0880484694
 20
87.50125
 30
0.0
 11
177.0880484694
 21
91.9968675269
 31
0.0
  0
LINE
  5
2B7
330
1F
100
AcDbEntity
  8
0
  6
Continuous
 62
     7
100
AcDbLine
 10
177.0880484694
 20
85.50125
 30
0.0
 11
177.0880484694
 21
87.50125
 31
0.0
  0
LINE
  5
2B8
330
1F
100
AcDbEntity
  8
0
  6
Continuous
 62
     7
100
AcDbLine
 10
177.0880484694
 20
81.0056324731
 30
0.0
 11
177.0880484694
 21
85.50125
 31
0.0
  0
LINE
  5
2B9
330
1F
100
AcDbEntity
  8
0
  6
Continuous
 62
     7
100
AcDbLine
 10
179.7380484694
 20
126.6774325974
 30
0.0
 11
179.5880484694
 21
126.6774325974
 31
0.0
  0
LINE
  5
2BA
330
1F
100
AcDbEntity
  8
0
  6
Continuous
 62
     7
100
AcDbLine
 10
179.7380484694
 20
127.0774325974
 30
0.0
 11
179.7380484694
 21
126.6774325974
 31
0.0
  0
LINE
  5
2BB
330
1F
100
AcDbEntity
  8
0
  6
Continuous
 62
     7
100
AcDbLine
 10
177.7880484694
 20
132.75125
 30
0.0
 11
178.0880484694
 21
132.75125
 31
0.0
  0
LINE
  5
2BC
330
1F
100
AcDbEntity
  8
0
  6
Continuous
 62
     7
100
AcDbLine
 10
177.7880484694
 20
132.00125
 30
0.0
 11
177.7880484694
 21
132.75125
 31
0.0
  0
LINE
  5
2BD
330
1F
100
AcDbEntity
  8
0
  6
Continuous
 62
     7
100
AcDbLine
 10
177.7880484694
 20
130.75125
 30
0.0
 11
178.0880484694
 21
130.75125
 31
0.0
  0
LINE
  5
2BE
330
1F
100
AcDbEntity
  8
0
  6
Continuous
 62
     7
100
AcDbLine
 10
177.7880484694
 20
130.75125
 30
0.0
 11
177.7880484694
 21
131.50125
 31
0.0
  0
SPLINE
  5
2BF
330
1F
100
AcDbEntity
  8
0
  6
Continuous
 62
     7
100
AcDbSpline
210
0.0
220
0.0
230
1.0
 70
    24
 71
     3
 72
    15
 73
    11
 74
     0
 42
0.00000001
 43
0.00000001
 40
0.0
 40
0.0
 40
0.0
 40
0.0
 40
0.1392449771444393
 40
0.2657021051015593
 40
0.3809368040136037
 40
0.4893585640324664
 40
0.6001902458324825
 40
0.720743413981996
 40
0.8531871022797538
 40
1.0
 40
1.0
 40
1.0
 40
1.0
 10
179.7380484693877
 20
131.5889710589307
 30
0.0
 10
179.7380484693877
 20
131.5967316993415
 30
0.0
 10
179.7380484693877
 20
131.6115402657715
 30
0.0
 10
179.7380484693877
 20
131.640066893003
 30
0.0
 10
179.7380484693877
 20
131.6736357707105
 30
0.0
 10
179.7380484693877
 20
131.7116797450647
 30
0.0
 10
179.7380484693877
 20
131.7564310720061
 30
0.0
 10
179.7380484693877
 20
131.8071340238857
 30
0.0
 10
179.7380484693877
 20
131.8650855715512
 30
0.0
 10
179.7380484693877
 20
131.9059493701786
 30
0.0
 10
179.7380484693877
 20
131.9274325973923
 30
0.0
  0
LINE
  5
2C0
330
1F
100
AcDbEntity
  8
0
  6
Continuous
 62
     7
100
AcDbLine
 10
179.7380484694
 20
131.5889710589
 30
0.0
 11
179.5880484694
 21
131.5889710589
 31
0.0
  0
LINE
  5
2C1
330
1F
100
AcDbEntity
  8
0
  6
Continuous
 62
     7
100
AcDbLine
 10
179.7380484694
 20
131.4197402897
 30
0.0
 11
179.7380484694
 21
131.5889710589
 31
0.0
  0
LINE
  5
2C2
330
1F
100
AcDbEntity
  8
0
  6
Continuous
 62
     7
100
AcDbLine
 10
179.7380484694
 20
131.4197402897
 30
0.0
 11
179.5880484694
 21
131.4197402897
 31
0.0
  0
LINE
  5
2C3
330
1F
100
AcDbEntity
  8
0
  6
Continuous
 62
     7
100
AcDbLine
 10
179.7380484694
 20
134.1274325974
 30
0.0
 11
179.5880484694
 21
134.1274325974
 31
0.0
  0
LINE
  5
2C4
330
1F
100
AcDbEntity
  8
0
  6
Continuous
 62
     7
100
AcDbLine
 10
177.7880484694
 20
109.75125
 30
0.0
 11
177.7880484694
 21
130.75125
 31
0.0
  0
LINE
  5
2C5
330
1F
100
AcDbEntity
  8
0
  6
Continuous
 62
     7
100
AcDbLine
 10
177.7880484694
 20
132.75125
 30
0.0
 11
177.7880484694
 21
133.1640294293
 31
0.0
  0
LINE
  5
2C6
330
1F
100
AcDbEntity
  8
0
  6
Continuous
 62
     7
100
AcDbLine
 10
177.7880484694
 20
109.75125
 30
0.0
 11
178.0880484694
 21
109.75125
 31
0.0
  0
LINE
  5
2C7
330
1F
100
AcDbEntity
  8
0
  6
Continuous
 62
     7
100
AcDbLine
 10
177.7880484694
 20
76.50125
 30
0.0
 11
178.0880484694
 21
76.50125
 31
0.0
  0
LINE
  5
2C8
330
1F
100
AcDbEntity
  8
0
  6
Continuous
 62
     7
100
AcDbLine
 10
177.7880484694
 20
76.50125
 30
0.0
 11
177.7880484694
 21
79.50125
 31
0.0
  0
LINE
  5
2C9
330
1F
100
AcDbEntity
  8
0
  6
Continuous
 62
     7
100
AcDbLine
 10
177.7880484694
 20
79.50125
 30
0.0
 11
178.0880484694
 21
79.50125
 31
0.0
  0
LINE
  5
2CA
330
1F
100
AcDbEntity
  8
0
  6
Continuous
 62
     7
100
AcDbLine
 10
177.7880484694
 20
33.25125
 30
0.0
 11
178.0880484694
 21
33.25125
 31
0.0
  0
LINE
  5
2CB
330
1F
100
AcDbEntity
  8
0
  6
Continuous
 62
     7
100
AcDbLine
 10
177.7880484694
 20
63.25125
 30
0.0
 11
178.0880484694
 21
63.25125
 31
0.0
  0
LINE
  5
2CC
330
1F
100
AcDbEntity
  8
0
  6
Continuous
 62
     7
100
AcDbLine
 10
177.7880484694
 20
33.25125
 30
0.0
 11
177.7880484694
 21
63.25125
 31
0.0
  0
LINE
  5
2CD
330
1F
100
AcDbEntity
  8
0
  6
Continuous
 62
     7
100
AcDbLine
 10
177.7880484694
 20
93.50125
 30
0.0
 11
177.7880484694
 21
96.50125
 31
0.0
  0
LINE
  5
2CE
330
1F
100
AcDbEntity
  8
0
  6
Continuous
 62
     7
100
AcDbLine
 10
177.7880484694
 20
93.50125
 30
0.0
 11
178.0880484694
 21
93.50125
 31
0.0
  0
LINE
  5
2CF
330
1F
100
AcDbEntity
  8
0
  6
Continuous
 62
     7
100
AcDbLine
 10
177.7880484694
 20
96.50125
 30
0.0
 11
178.0880484694
 21
96.50125
 31
0.0
  0
LINE
  5
2D0
330
1F
100
AcDbEntity
  8
0
  6
Continuous
 62
     7
100
AcDbLine
 10
179.7380484694
 20
135.0992274692
 30
0.0
 11
179.5880484694
 21
135.0992274692
 31
0.0
  0
LINE
  5
2D1
330
1F
100
AcDbEntity
  8
0
  6
Continuous
 62
     7
100
AcDbLine
 10
188.3967746726
 20
104.00125
 30
0.0
 11
187.5880484694
 21
104.00125
 31
0.0
  0
LINE
  5
2D2
330
1F
100
AcDbEntity
  8
0
  6
Continuous
 62
     7
100
AcDbLine
 10
188.3967746726
 20
69.00125
 30
0.0
 11
187.5880484694
 21
69.00125
 31
0.0
  0
LINE
  5
2D3
330
1F
100
AcDbEntity
  8
0
  6
Continuous
 62
     7
100
AcDbLine
 10
188.3967746726
 20
101.5153663684
 30
0.0
 11
187.5880484694
 21
101.50125
 31
0.0
  0
LINE
  5
2D4
330
1F
100
AcDbEntity
  8
0
  6
Continuous
 62
     7
100
AcDbLine
 10
187.5880484694
 20
71.50125
 30
0.0
 11
188.3967746726
 21
71.4871336316
 31
0.0
  0
ARC
  5
2D5
330
1F
100
AcDbEntity
  8
0
  6
Continuous
 62
     7
100
AcDbCircle
 10
188.3880484694
 20
70.987209784
 30
0.0
 40
0.5000000000000284
100
AcDbArc
 50
0.0
 51
89.0
  0
ARC
  5
2D6
330
1F
100
AcDbEntity
  8
0
  6
Continuous
 62
     7
100
AcDbCircle
 10
188.3880484694
 20
102.015290216
 30
0.0
 40
0.5000000000000284
100
AcDbArc
 50
271.0
 51
0.0
  0
LINE
  5
2D7
330
1F
100
AcDbEntity
  8
0
  6
Continuous
 62
     7
100
AcDbLine
 10
188.8880484694
 20
104.00125
 30
0.0
 11
188.8880484694
 21
102.015290216
 31
0.0
  0
LINE
  5
2D8
330
1F
100
AcDbEntity
  8
0
  6
Continuous
 62
     7
100
AcDbLine
 10
188.3967746726
 20
104.00125
 30
0.0
 11
188.8880484694
 21
104.00125
 31
0.0
  0
LINE
  5
2D9
330
1F
100
AcDbEntity
  8
0
  6
Continuous
 62
     7
100
AcDbLine
 10
188.8880484694
 20
70.987209784
 30
0.0
 11
188.8880484694
 21
69.00125
 31
0.0
  0
LINE
  5
2DA
330
1F
100
AcDbEntity
  8
0
  6
Continuous
 62
     7
100
AcDbLine
 10
188.8880484694
 20
69.00125
 30
0.0
 11
188.3967746726
 21
69.00125
 31
0.0
  0
LINE
  5
2DB
330
1F
100
AcDbEntity
  8
0
  6
Continuous
 62
     7
100
AcDbLine
 10
179.7380484694
 20
130.9274325974
 30
0.0
 11
179.5880484694
 21
130.9274325974
 31
0.0
  0
LINE
  5
2DC
330
1F
100
AcDbEntity
  8
0
  6
Continuous
 62
     7
100
AcDbLine
 10
179.7380484694
 20
130.9274325974
 30
0.0
 11
179.7380484694
 21
129.5774325974
 31
0.0
  0
LINE
  5
2DD
330
1F
100
AcDbEntity
  8
0
  6
Continuous
 62
     7
100
AcDbLine
 10
179.7380484694
 20
125.3274325974
 30
0.0
 11
179.5880484694
 21
125.3274325974
 31
0.0
  0
LINE
  5
2DE
330
1F
100
AcDbEntity
  8
0
  6
Continuous
 62
     7
100
AcDbLine
 10
179.7380484694
 20
126.6774325974
 30
0.0
 11
179.7380484694
 21
125.3274325974
 31
0.0
  0
LINE
  5
2DF
330
1F
100
AcDbEntity
  8
0
  6
Continuous
 62
     7
100
AcDbLine
 10
197.0880484694
 20
19.0703120551
 30
0.0
 11
197.0880484694
 21
18.949548197
 31
0.0
  0
SPLINE
  5
2E0
330
1F
100
AcDbEntity
  8
0
  6
Continuous
 62
     7
100
AcDbSpline
210
0.0
220
0.0
230
1.0
 70
    24
 71
     3
 72
    10
 73
     6
 74
     0
 42
0.00000001
 43
0.00000001
 40
2.356232566403778
 40
2.356232566403778
 40
2.356232566403778
 40
2.356232566403778
 40
3.141592653590274
 40
3.141592653590274
 40
3.92695274077677
 40
3.92695274077677
 40
3.92695274077677
 40
3.92695274077677
 10
197.0880484693877
 20
154.2186351944871
 30
0.0
 10
197.0880484693877
 20
154.2186351937224
 30
0.0
 10
197.0880484693877
 20
154.1844242420978
 30
0.0
 10
197.0880484693877
 20
154.0668955169338
 30
0.0
 10
197.0880484693877
 20
153.9845343623281
 30
0.0
 10
197.0880484693877
 20
153.9011928819863
 30
0.0
  0
LINE
  5
2E1
330
1F
100
AcDbEntity
  8
0
  6
Continuous
 62
     7
100
AcDbLine
 10
197.0880484694
 20
21.860639922
 30
0.0
 11
197.0880484694
 21
21.6199133612
 31
0.0
  0
LINE
  5
2E2
330
1F
100
AcDbEntity
  8
0
  6
Continuous
 62
     7
100
AcDbLine
 10
197.0880484694
 20
21.9181486423
 30
0.0
 11
197.0880484694
 21
21.860639922
 31
0.0
  0
LINE
  5
2E3
330
1F
100
AcDbEntity
  8
0
  6
Continuous
 62
     7
100
AcDbLine
 10
178.0880484694
 20
109.00125
 30
0.0
 11
178.0880484694
 21
97.2496976633
 31
0.0
  0
LINE
  5
2E4
330
1F
100
AcDbEntity
  8
0
  6
Continuous
 62
     7
100
AcDbLine
 10
178.0880484694
 20
75.7528023367
 30
0.0
 11
178.0880484694
 21
64.00125
 31
0.0
  0
LINE
  5
2E5
330
1F
100
AcDbEntity
  8
ОСНОВНОЙ
370
    35
100
AcDbLine
 10
197.0880484694
 20
139.9180815278
 30
0.0
 11
197.0880484694
 21
152.2960300886
 31
0.0
  0
HATCH
  5
2E6
330
1F
100
AcDbEntity
  8
ОСНОВНОЙ
  6
Continuous
370
    18
100
AcDbHatch
 10
0.0
 20
0.0
 30
0.0
210
0.0
220
0.0
230
1.0
  2
ANSI37
 70
     0
 71
     0
 91
        1
 92
        0
 93
       23
 72
     1
 10
185.0788300496979
 20
154.1138323330681
 11
185.0788300496978
 21
155.2138742192924
 72
     1
 10
185.0788300496978
 20
155.2138742192924
 11
195.0880484693877
 21
155.3012233451299
 72
     1
 10
195.0880484693877
 20
155.3012233451299
 11
195.0880484693877
 21
156.0012499999999
 72
     1
 10
195.0880484693877
 20
156.0012499999999
 11
178.5836852016385
 21
155.8572186037916
 72
     2
 10
178.5880484693877
 20
155.3572376422595
 40
0.5
 50
90.50000000000132
 51
179.9999999999967
 73
     1
 72
     1
 10
178.0880484693877
 20
155.3572376422595
 11
178.0880484693877
 21
143.539651142842
 72
     1
 10
178.0880484693877
 20
143.539651142842
 11
179.7967746726063
 21
143.5098252160202
 72
     2
 10
179.7880484693877
 20
143.009901368442
 40
0.5
 50
270.9999999999994
 51
360.0000000000041
 73
     0
 72
     1
 10
180.2880484693877
 20
143.009901368442
 11
180.2880484693877
 21
138.7925986315577
 72
     2
 10
179.7880484693877
 20
138.7925986315577
 40
0.5
 50
0.0000000000032569
 51
89.0000000000015
 73
     0
 72
     1
 10
179.7967746726063
 20
138.2926747839795
 11
178.0880484693877
 21
138.2628488571578
 72
     1
 10
178.0880484693877
 20
138.2628488571578
 11
178.0880484693877
 21
132.0012499999999
 72
     1
 10
178.0880484693877
 20
132.0012499999999
 11
177.7880484693877
 21
132.0012499999999
 72
     1
 10
177.7880484693877
 20
132.0012499999999
 11
177.7880484693877
 21
131.5012499999999
 72
     1
 10
177.7880484693877
 20
131.5012499999999
 11
178.0880484693877
 21
131.5012499999999
 72
     1
 10
178.0880484693877
 20
131.5012499999999
 11
178.0880484693877
 21
126.4750674026076
 72
     1
 10
178.0880484693877
 20
126.4750674026076
 11
179.5880484693877
 21
126.5012499999999
 72
     1
 10
179.5880484693877
 20
126.5012499999999
 11
179.5880484693877
 21
136.8012499999999
 72
     2
 10
179.4880484693877
 20
139.0990750586151
 40
2.3
 50
272.4919063689805
 51
360.0000000000008
 73
     1
 72
     1
 10
181.7880484693877
 20
139.0990750586151
 11
181.7880484693877
 21
142.7034249413847
 72
     2
 10
179.4880484693877
 20
142.7034249413847
 40
2.3
 50
0.0
 51
87.50809363102022
 73
     1
 72
     1
 10
179.5880484693877
 20
145.0012499999999
 11
179.5880484693877
 21
154.0659150081488
 72
     1
 10
179.5880484693877
 20
154.0659150081488
 11
185.0788300496979
 21
154.1138323330681
 97
        0
 75
     0
 76
     1
 52
0.0
 41
1.0
 77
     0
 78
     2
 53
45.0
 43
0.0
 44
0.0
 45
-2.245064030267288
 46
2.245064030267288
 79
     0
 53
135.0
 43
0.0
 44
0.0
 45
-2.245064030267288
 46
-2.245064030267288
 79
     0
 98
        1
 10
0.0
 20
0.0
  0
HATCH
  5
2E7
330
1F
100
AcDbEntity
  8
ОСНОВНОЙ
  6
Continuous
370
    18
100
AcDbHatch
 10
0.0
 20
0.0
 30
0.0
210
0.0
220
0.0
230
1.0
  2
ANSI37
 70
     0
 71
     0
 91
        1
 92
        0
 93
       23
 72
     1
 10
179.5880484693877
 20
36.20124999999986
 11
179.5880484693877
 21
46.50124999999986
 72
     1
 10
179.5880484693877
 20
46.50124999999986
 11
178.0880484693877
 21
46.52743259739218
 72
     1
 10
178.0880484693877
 20
46.52743259739218
 11
178.0880484693877
 21
34.73965114284194
 72
     1
 10
178.0880484693877
 20
34.73965114284194
 11
179.7967746726063
 21
34.70982521602021
 72
     2
 10
179.7880484693877
 20
34.20990136844201
 40
0.5
 50
270.9999999999993
 51
359.9999999999992
 73
     0
 72
     1
 10
180.2880484693877
 20
34.20990136844203
 11
180.2880484693877
 21
29.99259863155772
 72
     2
 10
179.7880484693877
 20
29.9925986315577
 40
0.5
 50
359.9999999999992
 51
449.0000000000023
 73
     0
 72
     1
 10
179.7967746726063
 20
29.49267478397951
 11
178.0880484693877
 21
29.46284885715778
 72
     1
 10
178.0880484693877
 20
29.46284885715778
 11
178.0880484693877
 21
25.50124999999984
 72
     1
 10
178.0880484693877
 20
25.50124999999984
 11
177.7880484693877
 21
25.50124999999984
 72
     1
 10
177.7880484693877
 20
25.50124999999984
 11
177.7880484693877
 21
25.00124999999984
 72
     1
 10
177.7880484693877
 20
25.00124999999984
 11
178.0880484693877
 21
25.00124999999984
 72
     1
 10
178.0880484693877
 20
25.00124999999984
 11
178.0880484693877
 21
17.64526235774025
 72
     2
 10
178.5880484693877
 20
17.64526235774025
 40
0.5
 50
180.0
 51
269.4999999999995
 73
     1
 72
     1
 10
178.5836852016385
 20
17.14528139620816
 11
195.0880484693877
 21
17.00124999999986
 72
     1
 10
195.0880484693877
 20
17.00124999999986
 11
195.0880484693877
 21
17.70127665486983
 72
     1
 10
195.0880484693877
 20
17.70127665486983
 11
185.0788300496978
 21
17.78862578070732
 72
     1
 10
185.0788300496978
 20
17.78862578070732
 11
185.0788300496978
 21
18.88866766693165
 72
     1
 10
185.0788300496978
 20
18.88866766693165
 11
179.5880484693877
 21
18.93658499185095
 72
     1
 10
179.5880484693877
 20
18.93658499185095
 11
179.5880484693877
 21
28.00124999999986
 72
     2
 10
179.4880484693877
 20
30.29907505861507
 40
2.3
 50
272.4919063689806
 51
360.0000000000008
 73
     1
 72
     1
 10
181.7880484693877
 20
30.29907505861507
 11
181.7880484693877
 21
33.90342494138464
 72
     2
 10
179.4880484693877
 20
33.90342494138464
 40
2.3
 50
0.0
 51
87.50809363102026
 73
     1
 97
        0
 75
     0
 76
     1
 52
0.0
 41
1.0
 77
     0
 78
     2
 53
45.0
 43
0.0
 44
0.0
 45
-2.245064030267288
 46
2.245064030267288
 79
     0
 53
135.0
 43
0.0
 44
0.0
 45
-2.245064030267288
 46
-2.245064030267288
 79
     0
 98
        1
 10
0.0
 20
0.0
  0
HATCH
  5
2E8
330
1F
100
AcDbEntity
  8
ОСНОВНОЙ
  6
Continuous
370
    18
100
AcDbHatch
 10
0.0
 20
0.0
 30
0.0
210
0.0
220
0.0
230
1.0
  2
ANSI37
 70
     0
 71
     0
 91
        1
 92
        0
 93
        4
 72
     1
 10
178.0880484693877
 20
64.00124999999987
 11
178.0880484693877
 21
56.47506740260754
 72
     1
 10
178.0880484693877
 20
56.47506740260754
 11
179.5880484693877
 21
56.50124999999986
 72
     1
 10
179.5880484693877
 20
56.50124999999986
 11
179.5880484693877
 21
64.0274325973922
 72
     1
 10
179.5880484693877
 20
64.0274325973922
 11
178.0880484693877
 21
64.00124999999987
 97
        0
 75
     0
 76
     1
 52
0.0
 41
1.0
 77
     0
 78
     2
 53
45.0
 43
0.0
 44
0.0
 45
-2.245064030267288
 46
2.245064030267288
 79
     0
 53
135.0
 43
0.0
 44
0.0
 45
-2.245064030267288
 46
-2.245064030267288
 79
     0
 98
        1
 10
0.0
 20
0.0
  0
HATCH
  5
2E9
330
1F
100
AcDbEntity
  8
ОСНОВНОЙ
  6
Continuous
370
    18
100
AcDbHatch
 10
0.0
 20
0.0
 30
0.0
210
0.0
220
0.0
230
1.0
  2
ANSI37
 70
     0
 71
     0
 91
        1
 92
        0
 93
        4
 72
     1
 10
179.5880484693877
 20
108.9750674026075
 11
179.5880484693877
 21
116.5012499999999
 72
     1
 10
179.5880484693877
 20
116.5012499999999
 11
178.0880484693877
 21
116.5274325973922
 72
     1
 10
178.0880484693877
 20
116.5274325973922
 11
178.0880484693877
 21
109.0012499999999
 72
     1
 10
178.0880484693877
 20
109.0012499999999
 11
179.5880484693877
 21
108.9750674026075
 97
        0
 75
     0
 76
     1
 52
0.0
 41
1.0
 77
     0
 78
     2
 53
45.0
 43
0.0
 44
0.0
 45
-2.245064030267288
 46
2.245064030267288
 79
     0
 53
135.0
 43
0.0
 44
0.0
 45
-2.245064030267288
 46
-2.245064030267288
 79
     0
 98
        1
 10
0.0
 20
0.0
  0
HATCH
  5
2EA
330
1F
100
AcDbEntity
  8
ОСНОВНОЙ
  6
Continuous
370
    18
100
AcDbHatch
 10
0.0
 20
0.0
 30
0.0
210
0.0
220
0.0
230
1.0
  2
ANSI37
 70
     0
 71
     0
 91
        1
 92
        0
 93
       12
 72
     2
 10
184.7880484693877
 20
71.88414873693692
 40
2.8
 50
26.76550057675728
 51
89.00000000000044
 73
     1
 72
     1
 10
184.8369152074121
 20
74.68372228337482
 11
180.3740865442379
 21
74.76162124745402
 72
     2
 10
180.3880484693877
 20
75.56149940357913
 40
0.8
 50
91.00000000000014
 51
180.0
 73
     0
 72
     1
 10
179.5880484693877
 20
75.56149940357913
 11
179.5880484693877
 21
81.50124999999986
 72
     1
 10
179.5880484693877
 20
81.50124999999986
 11
178.0880484693877
 21
81.52743259739219
 72
     1
 10
178.0880484693877
 20
81.52743259739219
 11
178.0880484693877
 21
75.7528023367238
 72
     2
 10
180.8880484693877
 20
75.7528023367238
 40
2.8
 50
180.0
 51
269.0000000000013
 73
     1
 72
     1
 10
180.8391817313633
 20
72.95322879028592
 11
185.2474364387937
 21
72.87628241814761
 72
     2
 10
185.2334745136439
 20
72.07640426202249
 40
0.8
 50
270.9999999999989
 51
350.0000000000005
 73
     0
 72
     1
 10
186.0213207160537
 20
72.21532280415605
 11
186.5880484693877
 21
69.00124999999986
 72
     1
 10
186.5880484693877
 20
69.00124999999986
 11
187.2880484693877
 21
69.00124999999986
 72
     1
 10
187.2880484693877
 20
69.00124999999986
 11
187.2880484693877
 21
73.14510075822882
 97
        0
 75
     0
 76
     1
 52
0.0
 41
1.0
 77
     0
 78
     2
 53
45.0
 43
0.0
 44
0.0
 45
-2.245064030267288
 46
2.245064030267288
 79
     0
 53
135.0
 43
0.0
 44
0.0
 45
-2.245064030267288
 46
-2.245064030267288
 79
     0
 98
        1
 10
0.0
 20
0.0
  0
HATCH
  5
2EB
330
1F
100
AcDbEntity
  8
ОСНОВНОЙ
  6
Continuous
370
    18
100
AcDbHatch
 10
0.0
 20
0.0
 30
0.0
210
0.0
220
0.0
230
1.0
  2
ANSI37
 70
     0
 71
     0
 91
        1
 92
        0
 93
       12
 72
     1
 10
186.5880484693877
 20
104.0012499999999
 11
186.0213207160537
 21
100.7871771958437
 72
     2
 10
185.2334745136439
 20
100.9260957379772
 40
0.8
 50
9.99999999999975
 51
89.00000000000394
 73
     0
 72
     1
 10
185.2474364387937
 20
100.1262175818521
 11
180.8391817313633
 21
100.0492712097138
 72
     2
 10
180.8880484693877
 20
97.24969766327591
 40
2.8
 50
90.99999999999957
 51
180.0
 73
     1
 72
     1
 10
178.0880484693877
 20
97.24969766327591
 11
178.0880484693877
 21
91.47506740260754
 72
     1
 10
178.0880484693877
 20
91.47506740260754
 11
179.5880484693877
 21
91.50124999999987
 72
     1
 10
179.5880484693877
 20
91.50124999999987
 11
179.5880484693877
 21
97.4410005964206
 72
     2
 10
180.3880484693877
 20
97.4410005964206
 40
0.8
 50
180.0
 51
269.0000000000007
 73
     0
 72
     1
 10
180.3740865442379
 20
98.24087875254571
 11
184.8369152074121
 21
98.31877771662491
 72
     2
 10
184.7880484693877
 20
101.1183512630628
 40
2.8
 50
271.0000000000003
 51
333.2344994232435
 73
     1
 72
     1
 10
187.2880484693877
 20
99.8573992417709
 11
187.2880484693877
 21
104.0012499999999
 72
     1
 10
187.2880484693877
 20
104.0012499999999
 11
186.5880484693877
 21
104.0012499999999
 97
        0
 75
     0
 76
     1
 52
0.0
 41
1.0
 77
     0
 78
     2
 53
45.0
 43
0.0
 44
0.0
 45
-2.245064030267288
 46
2.245064030267288
 79
     0
 53
135.0
 43
0.0
 44
0.0
 45
-2.245064030267288
 46
-2.245064030267288
 79
     0
 98
        1
 10
0.0
 20
0.0
  0
HATCH
  5
2EC
330
1F
100
AcDbEntity
  8
ОСНОВНОЙ
  6
Continuous
370
    18
100
AcDbHatch
 10
0.0
 20
0.0
 30
0.0
210
0.0
220
0.0
230
1.0
  2
ANSI37
 70
     0
 71
     0
 91
        1
 92
        0
 93
       14
 72
     1
 10
235.5880484693877
 20
37.50124999999986
 11
235.5880484693877
 21
63.00124999999987
 72
     1
 10
235.5880484693877
 20
63.00124999999987
 11
234.0880484693877
 21
63.00124999999987
 72
     1
 10
234.0880484693877
 20
63.00124999999987
 11
234.0880484693877
 21
36.02720410532633
 72
     1
 10
234.0880484693877
 20
36.02720410532633
 11
241.2880484693877
 21
35.90152763784316
 72
     1
 10
241.2880484693877
 20
35.90152763784316
 11
241.2880484693877
 21
27.66606574771121
 72
     2
 10
233.0880484693877
 20
27.66606574771121
 40
8.200000000000001
 50
0.0
 51
89.00000000000006
 73
     0
 72
     1
 10
233.2311582021734
 20
19.46731464742879
 11
205.3364873447407
 21
18.98041135646103
 72
     1
 10
205.3364873447407
 20
18.98041135646103
 11
205.3556849918217
 21
17.880578891789
 72
     1
 10
205.3556849918217
 20
17.880578891789
 11
195.0880484693877
 21
17.70135662963057
 72
     1
 10
195.0880484693877
 20
17.70135662963057
 11
195.0880484693877
 21
17.00124999999986
 72
     1
 10
195.0880484693877
 20
17.00124999999986
 11
233.2625725337605
 21
17.66758879614729
 72
     2
 10
233.0880484693877
 20
27.66606574771121
 40
10.0
 50
271.0000000000008
 51
360.0000000000008
 73
     1
 72
     1
 10
243.0880484693877
 20
27.66606574771121
 11
243.0880484693877
 21
37.37033701303822
 72
     1
 10
243.0880484693877
 20
37.37033701303822
 11
235.5880484693877
 21
37.50124999999986
 97
        0
 75
     0
 76
     1
 52
0.0
 41
1.0
 77
     0
 78
     2
 53
45.0
 43
0.0
 44
0.0
 45
-2.245064030267288
 46
2.245064030267288
 79
     0
 53
135.0
 43
0.0
 44
0.0
 45
-2.245064030267288
 46
-2.245064030267288
 79
     0
 98
        1
 10
0.0
 20
0.0
  0
HATCH
  5
2ED
330
1F
100
AcDbEntity
  8
ОСНОВНОЙ
  6
Continuous
370
    18
100
AcDbHatch
 10
0.0
 20
0.0
 30
0.0
210
0.0
220
0.0
230
1.0
  2
ANSI37
 70
     0
 71
     0
 91
        1
 92
        0
 93
       14
 72
     1
 10
243.0880484693877
 20
135.6321629869615
 11
243.0880484693877
 21
145.3364342522885
 72
     2
 10
233.0880484693877
 20
145.3364342522885
 40
10.0
 50
0.0
 51
89.00000000000003
 73
     1
 72
     1
 10
233.2625725337605
 20
155.3349112038524
 11
195.0880484693877
 21
156.0012499999999
 72
     1
 10
195.0880484693877
 20
156.0012499999999
 11
195.0880484693877
 21
155.3011433703691
 72
     1
 10
195.0880484693877
 20
155.3011433703691
 11
205.3556849918217
 21
155.1219211082107
 72
     1
 10
205.3556849918217
 20
155.1219211082107
 11
205.3364873447407
 21
154.0220886435387
 72
     1
 10
205.3364873447407
 20
154.0220886435387
 11
233.2311582021734
 21
153.5351853525709
 72
     2
 10
233.0880484693877
 20
145.3364342522885
 40
8.200000000000001
 50
271.0000000000007
 51
360.0000000000008
 73
     0
 72
     1
 10
241.2880484693877
 20
145.3364342522885
 11
241.2880484693877
 21
137.1009723621566
 72
     1
 10
241.2880484693877
 20
137.1009723621566
 11
234.0880484693877
 21
136.9752958946734
 72
     1
 10
234.0880484693877
 20
136.9752958946734
 11
234.0880484693877
 21
110.0012499999999
 72
     1
 10
234.0880484693877
 20
110.0012499999999
 11
235.5880484693877
 21
110.0012499999999
 72
     1
 10
235.5880484693877
 20
110.0012499999999
 11
235.5880484693877
 21
135.5012499999999
 72
     1
 10
235.5880484693877
 20
135.5012499999999
 11
243.0880484693877
 21
135.6321629869615
 97
        0
 75
     0
 76
     1
 52
0.0
 41
1.0
 77
     0
 78
     2
 53
45.0
 43
0.0
 44
0.0
 45
-2.245064030267288
 46
2.245064030267288
 79
     0
 53
135.0
 43
0.0
 44
0.0
 45
-2.245064030267288
 46
-2.245064030267288
 79
     0
 98
        1
 10
0.0
 20
0.0
  0
DIMENSION
  5
2EE
330
1F
100
AcDbEntity
  8
ОСНОВНОЙ
100
AcDbDimension
  2
_D_2
 10
187.5880484694
 20
53.5203930609
 30
0.0
 11
183.5880484694
 21
53.5203930609
 31
0.0
 70
   160
  1
<>
 71
     2
 42
-1.0
  3
SLDDIMSTYLE1
100
AcDbAlignedDimension
 13
179.5880484694
 23
56.50125
 33
0.0
 14
187.5880484694
 24
69.00125
 34
0.0
100
AcDbRotatedDimension
  0
DIMENSION
  5
2FB
330
1F
100
AcDbEntity
  8
ОСНОВНОЙ
100
AcDbDimension
  2
_D_3
 10
234.0880484694
 20
53.5203930609
 30
0.0
 11
210.8380484694
 21
53.5203930609
 31
0.0
 70
   160
  1
<>
 71
     2
 42
-1.0
  3
SLDDIMSTYLE0
100
AcDbAlignedDimension
 13
187.5880484694
 23
69.00125
 33
0.0
 14
234.0880484694
 24
36.0272041053
 34
0.0
100
AcDbRotatedDimension
  0
LINE
  5
304
330
1F
100
AcDbEntity
  8
0
  6
Continuous
 62
     7
100
AcDbLine
 10
107.8053409312
 20
192.145
 30
0.0
 11
108.3562559725
 21
191.3582117818
 31
0.0
  0
LINE
  5
305
330
1F
100
AcDbEntity
  8
0
  6
Continuous
 62
     7
100
AcDbLine
 10
121.6548409663
 20
191.3582117818
 30
0.0
 11
122.2057560076
 21
192.145
 31
0.0
  0
ARC
  5
306
330
1F
100
AcDbEntity
  8
0
  6
Continuous
 62
     7
100
AcDbCircle
 10
121.2452649441
 20
191.645
 30
0.0
 40
0.5
100
AcDbArc
 50
270.0
 51
325.0
  0
ARC
  5
307
330
1F
100
AcDbEntity
  8
0
  6
Continuous
 62
     7
100
AcDbCircle
 10
108.7658319947
 20
191.645
 30
0.0
 40
0.5
100
AcDbArc
 50
215.0
 51
270.0
  0
LINE
  5
308
330
1F
100
AcDbEntity
  8
0
  6
Continuous
 62
     7
100
AcDbLine
 10
36.5055484694
 20
192.145
 30
0.0
 11
36.5099499809
 21
191.6406367323
 31
0.0
  0
ARC
  5
309
330
1F
100
AcDbEntity
  8
0
  6
Continuous
 62
     7
100
AcDbCircle
 10
37.0099309425
 20
191.645
 30
0.0
 40
0.5000000000000029
100
AcDbArc
 50
180.5
 51
270.0
  0
LINE
  5
30A
330
1F
100
AcDbEntity
  8
0
  6
Continuous
 62
     7
100
AcDbLine
 10
35.3053409312
 20
192.145
 30
0.0
 11
35.8562559725
 21
191.3582117818
 31
0.0
  0
ARC
  5
30B
330
1F
100
AcDbEntity
  8
0
  6
Continuous
 62
     7
100
AcDbCircle
 10
36.2658319947
 20
191.645
 30
0.0
 40
0.5
100
AcDbArc
 50
215.0
 51
270.0
  0
LINE
  5
30C
330
1F
100
AcDbEntity
  8
0
  6
Continuous
 62
     7
100
AcDbLine
 10
120.1555941608
 20
210.645
 30
0.0
 11
122.7294420244
 21
210.645
 31
0.0
  0
LINE
  5
30D
330
1F
100
AcDbEntity
  8
0
  6
Continuous
 62
     7
100
AcDbLine
 10
34.755472317
 20
209.145
 30
0.0
 11
122.7556246218
 21
209.145
 31
0.0
  0
LINE
  5
30E
330
1F
100
AcDbEntity
  8
0
  6
Continuous
 62
     7
100
AcDbLine
 10
34.2555484694
 20
209.145
 30
0.0
 11
34.9218872655
 21
247.3195240644
 31
0.0
  0
LINE
  5
30F
330
1F
100
AcDbEntity
  8
0
  6
Continuous
 62
     7
100
AcDbLine
 10
34.755472317
 20
209.145
 30
0.0
 11
34.2555484694
 21
209.145
 31
0.0
  0
LINE
  5
310
330
1F
100
AcDbEntity
  8
0
  6
Continuous
 62
     7
100
AcDbLine
 10
123.229365872
 20
210.645
 30
0.0
 11
122.7294420244
 21
210.645
 31
0.0
  0
LINE
  5
311
330
1F
100
AcDbEntity
  8
0
  6
Continuous
 62
     7
100
AcDbLine
 10
123.229365872
 20
210.645
 30
0.0
 11
123.2555484694
 21
209.145
 31
0.0
  0
LINE
  5
312
330
1F
100
AcDbEntity
  8
0
  6
Continuous
 62
     7
100
AcDbLine
 10
123.2555484694
 20
209.145
 30
0.0
 11
122.7556246218
 21
209.145
 31
0.0
  0
LINE
  5
313
330
1F
100
AcDbEntity
  8
0
  6
Continuous
 62
     7
100
AcDbLine
 10
119.8153922706
 20
247.3195240644
 30
0.0
 11
120.4555484694
 21
210.645
 31
0.0
  0
LINE
  5
314
330
1F
100
AcDbEntity
  8
0
  6
Continuous
 62
     7
100
AcDbLine
 10
35.5847402175
 20
257.145
 30
0.0
 11
40.6555484694
 21
257.145
 31
0.0
  0
LINE
  5
315
330
1F
100
AcDbEntity
  8
0
  6
Continuous
 62
     7
100
AcDbLine
 10
40.6555484694
 20
257.1420758586
 30
0.0
 11
40.6555484694
 21
257.145
 31
0.0
  0
LINE
  5
316
330
1F
100
AcDbEntity
  8
0
  6
Continuous
 62
     7
100
AcDbLine
 10
40.648763293
 20
257.1420758586
 30
0.0
 11
40.6555484694
 21
257.1420758586
 31
0.0
  0
SPLINE
  5
317
330
1F
100
AcDbEntity
  8
0
  6
Continuous
 62
     7
100
AcDbSpline
210
0.0
220
0.0
230
1.0
 70
     8
 71
     3
 72
    11
 73
     7
 74
     0
 42
0.00000001
 43
0.00000001
 40
0.0
 40
0.0
 40
0.0
 40
0.0
 40
0.2747331712046277
 40
0.5509888175402233
 40
0.7896628800750102
 40
1.0
 40
1.0
 40
1.0
 40
1.0
 10
40.3621809727731
 20
255.3449999999999
 30
0.0
 10
40.0953302856522
 20
255.6226824514561
 30
0.0
 10
39.56015011824883
 20
256.179586173379
 30
0.0
 10
39.41742507640288
 20
256.7829092973982
 30
0.0
 10
39.79112695410942
 20
257.0867763876522
 30
0.0
 10
40.37517078232656
 20
257.1244349070468
 30
0.0
 10
40.64876329301681
 20
257.1420758585855
 30
0.0
  0
SPLINE
  5
318
330
1F
100
AcDbEntity
  8
0
  6
Continuous
 62
     7
100
AcDbSpline
210
0.0
220
0.0
230
1.0
 70
     8
 71
     3
 72
    14
 73
    10
 74
     0
 42
0.00000001
 43
0.00000001
 40
0.0
 40
0.0
 40
0.0
 40
0.0
 40
0.207344867183454
 40
0.3585486156668465
 40
0.4776971896694925
 40
0.5972154242409449
 40
0.7378902318913335
 40
0.9330220044288161
 40
1.0
 40
1.0
 40
1.0
 40
1.0
 10
47.14891596600248
 20
255.3449999999999
 30
0.0
 10
46.80089908244845
 20
255.0529243161303
 30
0.0
 10
46.19909507580965
 20
254.5478559556544
 30
0.0
 10
45.03649603221633
 20
254.0054806542188
 30
0.0
 10
43.94933643125309
 20
253.797847001371
 30
0.0
 10
42.85760460879057
 20
253.8946994000312
 30
0.0
 10
41.69437490447669
 20
254.3333325838085
 30
0.0
 10
40.87141063943577
 20
254.8887865617703
 30
0.0
 10
40.46582257274347
 20
255.2521485937259
 30
0.0
 10
40.3621809727731
 20
255.3449999999999
 30
0.0
  0
SPLINE
  5
319
330
1F
100
AcDbEntity
  8
0
  6
Continuous
 62
     7
100
AcDbSpline
210
0.0
220
0.0
230
1.0
 70
     8
 71
     3
 72
    12
 73
     8
 74
     0
 42
0.00000001
 43
0.00000001
 40
0.0
 40
0.0
 40
0.0
 40
0.0
 40
0.2148519667571578
 40
0.4304516530037883
 40
0.6444827688672239
 40
0.8743306998724173
 40
1.0
 40
1.0
 40
1.0
 40
1.0
 10
46.86233364575871
 20
257.1420758585855
 30
0.0
 10
47.14151816758744
 20
257.1237999445959
 30
0.0
 10
47.70085881839974
 20
257.0871845134891
 30
0.0
 10
48.0507094777344
 20
256.82281370429
 30
0.0
 10
48.00511463220086
 20
256.3627829265502
 30
0.0
 10
47.64983844906394
 20
255.8326654895156
 30
0.0
 10
47.27973961499287
 20
255.4723613802183
 30
0.0
 10
47.14891596600248
 20
255.3449999999999
 30
0.0
  0
LINE
  5
31A
330
1F
100
AcDbEntity
  8
0
  6
Continuous
 62
     7
100
AcDbLine
 10
46.8555484694
 20
257.1420758586
 30
0.0
 11
46.8623336458
 21
257.1420758586
 31
0.0
  0
LINE
  5
31B
330
1F
100
AcDbEntity
  8
0
  6
Continuous
 62
     7
100
AcDbLine
 10
46.8555484694
 20
257.1420758586
 30
0.0
 11
46.8555484694
 21
257.145
 31
0.0
  0
LINE
  5
31C
330
1F
100
AcDbEntity
  8
0
  6
Continuous
 62
     7
100
AcDbLine
 10
46.8555484694
 20
257.145
 30
0.0
 11
121.9263567213
 21
257.145
 31
0.0
  0
ARC
  5
31D
330
1F
100
AcDbEntity
  8
0
  6
Continuous
 62
     7
100
AcDbCircle
 10
35.5847402175
 20
256.645
 30
0.0
 40
0.5000000000000058
100
AcDbArc
 50
90.0
 51
179.0
  0
LINE
  5
31E
330
1F
100
AcDbEntity
  8
0
  6
Continuous
 62
     7
100
AcDbLine
 10
34.9218872655
 20
247.3195240644
 30
0.0
 11
35.0848163699
 21
256.6537262032
 31
0.0
  0
LINE
  5
31F
330
1F
100
AcDbEntity
  8
0
  6
Continuous
 62
     7
100
AcDbLine
 10
119.7496153747
 20
251.0878799109
 30
0.0
 11
119.8153922706
 21
247.3195240644
 31
0.0
  0
LINE
  5
320
330
1F
100
AcDbEntity
  8
0
  6
Continuous
 62
     7
100
AcDbLine
 10
122.4765221361
 20
253.7753887445
 30
0.0
 11
123.229365872
 21
210.645
 31
0.0
  0
LINE
  5
321
330
1F
100
AcDbEntity
  8
0
  6
Continuous
 62
     7
100
AcDbLine
 10
40.3621809728
 20
255.345
 30
0.0
 11
47.148915966
 21
255.345
 31
0.0
  0
ARC
  5
322
330
1F
100
AcDbEntity
  8
0
  6
Continuous
 62
     7
100
AcDbCircle
 10
121.9263567213
 20
256.645
 30
0.0
 40
0.5
100
AcDbArc
 50
1.0
 51
90.0
  0
LINE
  5
323
330
1F
100
AcDbEntity
  8
0
  6
Continuous
 62
     7
100
AcDbLine
 10
122.4262805689
 20
256.6537262032
 30
0.0
 11
122.4765221361
 21
253.7753887445
 31
0.0
  0
LINE
  5
324
330
1F
100
AcDbEntity
  8
0
  6
Continuous
 62
     7
100
AcDbLine
 10
40.648763293
 20
257.1420758586
 30
0.0
 11
40.6555484694
 21
255.345
 31
0.0
  0
LINE
  5
325
330
1F
100
AcDbEntity
  8
0
  6
Continuous
 62
     7
100
AcDbLine
 10
46.8623336458
 20
257.1420758586
 30
0.0
 11
46.8555484694
 21
255.345
 31
0.0
  0
LINE
  5
326
330
1F
100
AcDbEntity
  8
0
  6
Continuous
 62
     7
100
AcDbLine
 10
46.8555484694
 20
257.1420758586
 30
0.0
 11
46.8555484694
 21
255.345
 31
0.0
  0
LINE
  5
327
330
1F
100
AcDbEntity
  8
0
  6
Continuous
 62
     7
100
AcDbLine
 10
40.6555484694
 20
257.1420758586
 30
0.0
 11
40.6555484694
 21
255.345
 31
0.0
  0
LINE
  5
328
330
1F
100
AcDbEntity
  8
0
  6
Continuous
 62
     7
100
AcDbLine
 10
45.9431661399
 20
257.145
 30
0.0
 11
46.8555484694
 21
257.145
 31
0.0
  0
LINE
  5
329
330
1F
100
AcDbEntity
  8
0
  6
Continuous
 62
     7
100
AcDbLine
 10
40.6555484694
 20
257.145
 30
0.0
 11
41.5679307989
 21
257.145
 31
0.0
  0
LINE
  5
32A
330
1F
100
AcDbEntity
  8
0
  6
Continuous
 62
     7
100
AcDbLine
 10
41.5679307989
 20
257.145
 30
0.0
 11
45.9431661399
 21
257.145
 31
0.0
  0
LINE
  5
32B
330
1F
100
AcDbEntity
  8
0
  6
Continuous
 62
     7
100
AcDbLine
 10
46.7250429138
 20
257.445
 30
0.0
 11
46.7250429138
 21
257.145
 31
0.0
  0
LINE
  5
32C
330
1F
100
AcDbEntity
  8
0
  6
Continuous
 62
     7
100
AcDbLine
 10
46.7250429138
 20
257.445
 30
0.0
 11
48.5192984694
 21
257.445
 31
0.0
  0
LINE
  5
32D
330
1F
100
AcDbEntity
  8
0
  6
Continuous
 62
     7
100
AcDbLine
 10
48.5192984694
 20
257.445
 30
0.0
 11
48.5192984694
 21
257.145
 31
0.0
  0
LINE
  5
32E
330
1F
100
AcDbEntity
  8
0
  6
Continuous
 62
     7
100
AcDbLine
 10
45.5085984694
 20
257.445
 30
0.0
 11
45.5085984694
 21
257.145
 31
0.0
  0
LINE
  5
32F
330
1F
100
AcDbEntity
  8
0
  6
Continuous
 62
     7
100
AcDbLine
 10
45.5085984694
 20
257.445
 30
0.0
 11
46.7250429138
 21
257.445
 31
0.0
  0
LINE
  5
330
330
1F
100
AcDbEntity
  8
0
  6
Continuous
 62
     7
100
AcDbLine
 10
40.0802151361
 20
257.445
 30
0.0
 11
40.0802151361
 21
257.145
 31
0.0
  0
LINE
  5
331
330
1F
100
AcDbEntity
  8
0
  6
Continuous
 62
     7
100
AcDbLine
 10
40.0802151361
 20
257.445
 30
0.0
 11
43.2277651361
 21
257.445
 31
0.0
  0
LINE
  5
332
330
1F
100
AcDbEntity
  8
0
  6
Continuous
 62
     7
100
AcDbLine
 10
43.2277651361
 20
257.445
 30
0.0
 11
43.2277651361
 21
257.145
 31
0.0
  0
LINE
  5
333
330
1F
100
AcDbEntity
  8
0
  6
Continuous
 62
     7
100
AcDbLine
 10
43.6839318027
 20
257.445
 30
0.0
 11
43.6839318027
 21
257.145
 31
0.0
  0
LINE
  5
334
330
1F
100
AcDbEntity
  8
0
  6
Continuous
 62
     7
100
AcDbLine
 10
45.0524318027
 20
257.445
 30
0.0
 11
45.0524318027
 21
257.145
 31
0.0
  0
LINE
  5
335
330
1F
100
AcDbEntity
  8
0
  6
Continuous
 62
     7
100
AcDbLine
 10
43.6839318027
 20
257.445
 30
0.0
 11
45.0524318027
 21
257.445
 31
0.0
  0
LINE
  5
336
330
1F
100
AcDbEntity
  8
0
  6
Continuous
 62
     7
100
AcDbLine
 10
38.2555484694
 20
257.445
 30
0.0
 11
38.2555484694
 21
257.145
 31
0.0
  0
LINE
  5
337
330
1F
100
AcDbEntity
  8
0
  6
Continuous
 62
     7
100
AcDbLine
 10
39.6240484694
 20
257.445
 30
0.0
 11
39.6240484694
 21
257.145
 31
0.0
  0
LINE
  5
338
330
1F
100
AcDbEntity
  8
0
  6
Continuous
 62
     7
100
AcDbLine
 10
38.2555484694
 20
257.445
 30
0.0
 11
39.6240484694
 21
257.445
 31
0.0
  0
LINE
  5
339
330
1F
100
AcDbEntity
  8
0
  6
Continuous
 62
     7
100
AcDbLine
 10
45.0524318027
 20
257.445
 30
0.0
 11
45.5085984694
 21
257.445
 31
0.0
  0
LINE
  5
33A
330
1F
100
AcDbEntity
  8
0
  6
Continuous
 62
     7
100
AcDbLine
 10
34.2555484694
 20
209.145
 30
0.0
 11
34.7555294309
 21
209.145
 31
0.0
  0
LINE
  5
33B
330
1F
100
AcDbEntity
  8
0
  6
Continuous
 62
     7
100
AcDbLine
 10
34.3995798656
 20
192.6406367323
 30
0.0
 11
34.2555484694
 21
209.145
 31
0.0
  0
LINE
  5
33C
330
1F
100
AcDbEntity
  8
0
  6
Continuous
 62
     7
100
AcDbLine
 10
34.7555294309
 20
209.145
 30
0.0
 11
122.7555675079
 21
209.145
 31
0.0
  0
LINE
  5
33D
330
1F
100
AcDbEntity
  8
0
  6
Continuous
 62
     7
100
AcDbLine
 10
120.1555484676
 20
207.645
 30
0.0
 11
122.7424772062
 21
207.645
 31
0.0
  0
LINE
  5
33E
330
1F
100
AcDbEntity
  8
0
  6
Continuous
 62
     7
100
AcDbLine
 10
122.7555675079
 20
209.145
 30
0.0
 11
123.2555484694
 21
209.145
 31
0.0
  0
LINE
  5
33F
330
1F
100
AcDbEntity
  8
0
  6
Continuous
 62
     7
100
AcDbLine
 10
123.2555484694
 20
209.145
 30
0.0
 11
123.2424581677
 21
207.645
 31
0.0
  0
LINE
  5
340
330
1F
100
AcDbEntity
  8
0
  6
Continuous
 62
     7
100
AcDbLine
 10
123.2424581677
 20
207.645
 30
0.0
 11
122.7424772062
 21
207.645
 31
0.0
  0
LINE
  5
341
330
1F
100
AcDbEntity
  8
0
  6
Continuous
 62
     7
100
AcDbLine
 10
120.4555484694
 20
207.645
 30
0.0
 11
120.1936006411
 21
192.638018971
 31
0.0
  0
ARC
  5
342
330
1F
100
AcDbEntity
  8
0
  6
Continuous
 62
     7
100
AcDbCircle
 10
120.118630998
 20
201.2340099964
 30
0.0
 40
8.596317941841168
100
AcDbArc
 50
268.5002713978
 51
270.4996905214
  0
ARC
  5
343
330
1F
100
AcDbEntity
  8
0
  6
Continuous
 62
     7
100
AcDbCircle
 10
34.8995608271
 20
192.645
 30
0.0
 40
0.5000000000000029
100
AcDbArc
 50
180.5
 51
270.0
  0
LINE
  5
344
330
1F
100
AcDbEntity
  8
0
  6
Continuous
 62
     7
100
AcDbLine
 10
119.6936463314
 20
192.145
 30
0.0
 11
34.8995608271
 21
192.145
 31
0.0
  0
LINE
  5
345
330
1F
100
AcDbEntity
  8
0
  6
Continuous
 62
     7
100
AcDbLine
 10
120.1936006411
 20
192.638018971
 30
0.0
 11
120.1935701779
 21
192.6362737303
 31
0.0
  0
ARC
  5
346
330
1F
100
AcDbEntity
  8
0
  6
Continuous
 62
     7
100
AcDbCircle
 10
120.0435939762
 20
196.9347919238
 30
0.0
 40
4.301133748230439
100
AcDbArc
 50
268.0017234297
 51
271.9982511898
  0
ARC
  5
347
330
1F
100
AcDbEntity
  8
0
  6
Continuous
 62
     7
100
AcDbCircle
 10
119.6936463314
 20
192.645
 30
0.0
 40
0.5000000000000021
100
AcDbArc
 50
270.0
 51
358.9999923859
  0
LINE
  5
348
330
1F
100
AcDbEntity
  8
0
  6
Continuous
 62
     7
100
AcDbLine
 10
121.245264738
 20
191.145
 30
0.0
 11
108.7658319947
 21
191.145
 31
0.0
  0
LINE
  5
349
330
1F
100
AcDbEntity
  8
0
  6
Continuous
 62
     7
100
AcDbLine
 10
121.4555484694
 20
192.145
 30
0.0
 11
119.6936463314
 21
192.145
 31
0.0
  0
LINE
  5
34A
330
1F
100
AcDbEntity
  8
0
  6
Continuous
 62
     7
100
AcDbLine
 10
39.2555484694
 20
191.145
 30
0.0
 11
37.9555484694
 21
191.145
 31
0.0
  0
ARC
  5
34B
330
1F
100
AcDbEntity
  8
0
  6
Continuous
 62
     7
100
AcDbCircle
 10
37.9555484694
 20
191.645
 30
0.0
 40
0.5
100
AcDbArc
 50
180.0
 51
270.0
  0
LINE
  5
34C
330
1F
100
AcDbEntity
  8
0
  6
Continuous
 62
     7
100
AcDbLine
 10
49.5555484694
 20
191.145
 30
0.0
 11
48.2555484694
 21
191.145
 31
0.0
  0
ARC
  5
34D
330
1F
100
AcDbEntity
  8
0
  6
Continuous
 62
     7
100
AcDbCircle
 10
49.5555484694
 20
191.645
 30
0.0
 40
0.5
100
AcDbArc
 50
270.0
 51
0.0
  0
LINE
  5
34E
330
1F
100
AcDbEntity
  8
0
  6
Continuous
 62
     7
100
AcDbLine
 10
50.0555484694
 20
192.145
 30
0.0
 11
50.0555484694
 21
191.645
 31
0.0
  0
LINE
  5
34F
330
1F
100
AcDbEntity
  8
0
  6
Continuous
 62
     7
100
AcDbLine
 10
37.4555484694
 20
191.645
 30
0.0
 11
37.4555484694
 21
192.145
 31
0.0
  0
LINE
  5
350
330
1F
100
AcDbEntity
  8
0
  6
Continuous
 62
     7
100
AcDbLine
 10
48.2555484694
 20
191.145
 30
0.0
 11
39.2555484694
 21
191.145
 31
0.0
  0
LINE
  5
351
330
1F
100
AcDbEntity
  8
0
  6
Continuous
 62
     7
100
AcDbLine
 10
123.2424581677
 20
207.645
 30
0.0
 11
123.1115170732
 21
192.6406367323
 31
0.0
  0
ARC
  5
352
330
1F
100
AcDbEntity
  8
0
  6
Continuous
 62
     7
100
AcDbCircle
 10
122.6115361116
 20
192.645
 30
0.0
 40
0.5000000000000068
100
AcDbArc
 50
359.0
 51
359.5
  0
ARC
  5
353
330
1F
100
AcDbEntity
  8
0
  6
Continuous
 62
     7
100
AcDbCircle
 10
122.9614866128
 20
196.9344990189
 30
0.0
 40
4.300840855513083
100
AcDbArc
 50
268.0016507316
 51
271.9983492684
  0
ARC
  5
354
330
1F
100
AcDbEntity
  8
0
  6
Continuous
 62
     7
100
AcDbCircle
 10
122.6115361116
 20
192.645
 30
0.0
 40
0.5000000000000068
100
AcDbArc
 50
270.0
 51
359.0
  0
LINE
  5
355
330
1F
100
AcDbEntity
  8
0
  6
Continuous
 62
     7
100
AcDbLine
 10
122.6115361116
 20
192.145
 30
0.0
 11
121.4555484694
 21
192.145
 31
0.0
  0
LINE
  5
356
330
1F
100
AcDbEntity
  8
0
  6
Continuous
 62
     7
100
AcDbLine
 10
107.0055484694
 20
191.845
 30
0.0
 11
107.0055484694
 21
192.145
 31
0.0
  0
LINE
  5
357
330
1F
100
AcDbEntity
  8
0
  6
Continuous
 62
     7
100
AcDbLine
 10
54.5055484694
 20
191.845
 30
0.0
 11
54.5055484694
 21
192.145
 31
0.0
  0
LINE
  5
358
330
1F
100
AcDbEntity
  8
0
  6
Continuous
 62
     7
100
AcDbLine
 10
107.0055484694
 20
191.845
 30
0.0
 11
54.5055484694
 21
191.845
 31
0.0
  0
LINE
  5
359
330
1F
100
AcDbEntity
  8
0
  6
Continuous
 62
     7
100
AcDbLine
 10
37.9555484694
 20
191.145
 30
0.0
 11
37.0099309425
 21
191.145
 31
0.0
  0
LINE
  5
35A
330
1F
100
AcDbEntity
  8
0
  6
Continuous
 62
     7
100
AcDbLine
 10
108.0154031926
 20
191.845
 30
0.0
 11
107.0055484694
 21
191.845
 31
0.0
  0
LINE
  5
35B
330
1F
100
AcDbEntity
  8
0
  6
Continuous
 62
     7
100
AcDbLine
 10
54.5055484694
 20
191.845
 30
0.0
 11
50.0555484694
 21
191.845
 31
0.0
  0
LINE
  5
35C
330
1F
100
AcDbEntity
  8
0
  6
Continuous
 62
     7
100
AcDbLine
 10
108.7658319947
 20
191.145
 30
0.0
 11
107.9555484694
 21
191.145
 31
0.0
  0
ARC
  5
35D
330
1F
100
AcDbEntity
  8
0
  6
Continuous
 62
     7
100
AcDbCircle
 10
107.9555484694
 20
191.645
 30
0.0
 40
0.5
100
AcDbArc
 50
180.0
 51
270.0
  0
LINE
  5
35E
330
1F
100
AcDbEntity
  8
0
  6
Continuous
 62
     7
100
AcDbLine
 10
107.4555484694
 20
191.645
 30
0.0
 11
107.4555484694
 21
191.845
 31
0.0
  0
LINE
  5
35F
330
1F
100
AcDbEntity
  8
0
  6
Continuous
 62
     7
100
AcDbLine
 10
37.0099309425
 20
191.145
 30
0.0
 11
36.2658319947
 21
191.145
 31
0.0
  0
SPLINE
  5
360
330
1F
100
AcDbEntity
  8
0
  6
Continuous
 62
     7
100
AcDbSpline
210
0.0
220
0.0
230
1.0
 70
     8
 71
     3
 72
    13
 73
     9
 74
     0
 42
0.00000001
 43
0.00000001
 40
0.0
 40
0.0
 40
0.0
 40
0.0
 40
0.0946860606418518
 40
0.2047581873768334
 40
0.3733527601744116
 40
0.5462239501724533
 40
0.9205767849393041
 40
1.0
 40
1.0
 40
1.0
 40
1.0
 10
121.4555484693878
 20
254.0606795991819
 30
0.0
 10
121.3206923581653
 20
254.049797641614
 30
0.0
 10
121.0290666140651
 20
254.0262654565005
 30
0.0
 10
120.5665444969754
 20
253.8047027883119
 30
0.0
 10
120.1718288810345
 20
253.393776427862
 30
0.0
 10
119.8168930461739
 20
252.5947082866078
 30
0.0
 10
119.7434862335173
 20
251.7918621918996
 30
0.0
 10
119.7487024024789
 20
251.1927422762419
 30
0.0
 10
119.7496153746584
 20
251.0878799109265
 30
0.0
  0
LINE
  5
361
330
1F
100
AcDbEntity
  8
0
  6
Continuous
 62
     7
100
AcDbLine
 10
121.9740446482
 20
254.0606795992
 30
0.0
 11
121.4555484694
 21
254.0606795992
 31
0.0
  0
SPLINE
  5
362
330
1F
100
AcDbEntity
  8
0
  6
Continuous
 62
     7
100
AcDbSpline
210
0.0
220
0.0
230
1.0
 70
     8
 71
     3
 72
    12
 73
     8
 74
     0
 42
0.00000001
 43
0.00000001
 40
0.0
 40
0.0
 40
0.0
 40
0.0
 40
0.2473974769327522
 40
0.5257765741234237
 40
0.723053826650774
 40
0.8611798617273937
 40
1.0
 40
1.0
 40
1.0
 40
1.0
 10
122.176567827534
 20
253.7753887445
 30
0.0
 10
122.1739884553733
 20
253.8070033955873
 30
0.0
 10
122.1685066959196
 20
253.8741918048907
 30
0.0
 10
122.1319315331947
 20
253.9615296295952
 30
0.0
 10
122.080279734834
 20
254.0217013359793
 30
0.0
 10
122.0274337298253
 20
254.054588150053
 30
0.0
 10
121.9918707189426
 20
254.0586457263386
 30
0.0
 10
121.9740446481634
 20
254.0606795991819
 30
0.0
  0
ARC
  5
363
330
1F
100
AcDbEntity
  8
0
  6
Continuous
 62
     7
100
AcDbCircle
 10
122.3265449818
 20
249.4771261837
 30
0.0
 40
4.300878304260577
100
AcDbArc
 50
88.0016173803
 51
91.9983826197
  0
DIMENSION
  5
364
330
1F
100
AcDbEntity
  8
ОСНОВНОЙ
100
AcDbDimension
  2
_D_4
 10
24.2555484694
 20
257.145
 30
0.0
 11
24.2555484694
 21
224.145
 31
0.0
 70
   160
  1
<>
 71
     2
 42
-1.0
  3
SLDDIMSTYLE0
100
AcDbAlignedDimension
 13
39.2555484694
 23
191.145
 33
0.0
 14
35.5847402175
 24
257.145
 34
0.0
 50
90.0
100
AcDbRotatedDimension
  0
LINE
  5
36E
330
1F
100
AcDbEntity
  8
0
  6
Continuous
 62
     7
100
AcDbLine
 10
338.2820587992
 20
29.4688552068
 30
0.0
 11
338.2820587992
 21
34.7336447932
 31
0.0
  0
LINE
  5
36F
330
1F
100
AcDbEntity
  8
0
  6
Continuous
 62
     7
100
AcDbLine
 10
338.2820587992
 20
138.2688552068
 30
0.0
 11
338.2820587992
 21
143.5336447932
 31
0.0
  0
LINE
  5
370
330
1F
100
AcDbEntity
  8
0
  6
Continuous
 62
     7
100
AcDbLine
 10
346.4040381396
 20
34.7336447932
 30
0.0
 11
346.4040381396
 21
29.4688552068
 31
0.0
  0
LINE
  5
371
330
1F
100
AcDbEntity
  8
0
  6
Continuous
 62
     7
100
AcDbLine
 10
346.4040381396
 20
143.5336447932
 30
0.0
 11
346.4040381396
 21
138.2688552068
 31
0.0
  0
LINE
  5
372
330
1F
100
AcDbEntity
  8
0
  6
Continuous
 62
     7
100
AcDbLine
 10
297.8430484694
 20
17.5011738476
 30
0.0
 11
297.8430484694
 21
155.5013261524
 31
0.0
  0
ELLIPSE
  5
373
330
1F
100
AcDbEntity
  8
0
  6
Continuous
 62
     7
100
AcDbEllipse
 10
298.3431246334
 20
155.501173836
 30
0.0
 11
-0.3536610945848224
 21
0.353661094584794
 31
0.0
210
0.0
220
0.0
230
0.9999999999999998
 40
0.9996954599
 41
5.497939437029586
 42
7.068431177329463
  0
LINE
  5
374
330
1F
100
AcDbEntity
  8
0
  6
Continuous
 62
     7
100
AcDbLine
 10
298.342972317
 20
156.00125
 30
0.0
 11
386.3431246218
 21
156.00125
 31
0.0
  0
ELLIPSE
  5
375
330
1F
100
AcDbEntity
  8
0
  6
Continuous
 62
     7
100
AcDbEllipse
 10
386.3429723054
 20
155.501173836
 30
0.0
 11
0.3536610945848224
 21
0.353661094584794
 31
0.0
210
0.0
220
0.0
230
0.9999999999999998
 40
0.9996954599
 41
5.497939437029804
 42
7.068431177329519
  0
LINE
  5
376
330
1F
100
AcDbEntity
  8
0
  6
Continuous
 62
     7
100
AcDbLine
 10
386.8430484694
 20
155.5013261524
 30
0.0
 11
386.8430484694
 21
17.5011738476
 31
0.0
  0
ELLIPSE
  5
377
330
1F
100
AcDbEntity
  8
0
  6
Continuous
 62
     7
100
AcDbEllipse
 10
386.3429723054
 20
17.501326164
 30
0.0
 11
0.3536610945848225
 21
-0.3536610945847905
 31
0.0
210
0.0
220
0.0
230
1.0
 40
0.9996954599
 41
5.497939437029641
 42
7.068431177329419
  0
LINE
  5
378
330
1F
100
AcDbEntity
  8
0
  6
Continuous
 62
     7
100
AcDbLine
 10
386.3431246218
 20
17.00125
 30
0.0
 11
298.342972317
 21
17.00125
 31
0.0
  0
ELLIPSE
  5
379
330
1F
100
AcDbEntity
  8
0
  6
Continuous
 62
     7
100
AcDbEllipse
 10
298.3431246334
 20
17.501326164
 30
0.0
 11
-0.3536610945848225
 21
-0.3536610945847905
 31
0.0
210
0.0
220
0.0
230
1.0
 40
0.9996954599
 41
5.497939437029767
 42
7.068431177329544
  0
LINE
  5
37A
330
1F
100
AcDbEntity
  8
0
  6
Continuous
 62
     7
100
AcDbLine
 10
300.3240701921
 20
108.9750674026
 30
0.0
 11
300.3240701921
 21
104.00125
 31
0.0
  0
LINE
  5
37B
330
1F
100
AcDbEntity
  8
0
  6
Continuous
 62
     7
100
AcDbLine
 10
300.3240701921
 20
69.00125
 30
0.0
 11
300.3240701921
 21
64.0274325974
 31
0.0
  0
LINE
  5
37C
330
1F
100
AcDbEntity
  8
0
  6
Continuous
 62
     7
100
AcDbLine
 10
384.3620267467
 20
108.9750674026
 30
0.0
 11
384.3620267467
 21
104.00125
 31
0.0
  0
LINE
  5
37D
330
1F
100
AcDbEntity
  8
0
  6
Continuous
 62
     7
100
AcDbLine
 10
384.3620267467
 20
69.00125
 30
0.0
 11
384.3620267467
 21
64.0274325974
 31
0.0
  0
ARC
  5
37E
330
1F
100
AcDbEntity
  8
0
  6
Continuous
 62
     7
100
AcDbCircle
 10
304.5930484694
 20
25.25125
 30
0.0
 40
2.5
100
AcDbArc
 50
90.0
 51
270.0
  0
LINE
  5
37F
330
1F
100
AcDbEntity
  8
0
  6
Continuous
 62
     7
100
AcDbLine
 10
307.5930484694
 20
22.75125
 30
0.0
 11
304.5930484694
 21
22.75125
 31
0.0
  0
ARC
  5
380
330
1F
100
AcDbEntity
  8
0
  6
Continuous
 62
     7
100
AcDbCircle
 10
307.5930484694
 20
25.25125
 30
0.0
 40
2.5
100
AcDbArc
 50
270.0
 51
90.0
  0
LINE
  5
381
330
1F
100
AcDbEntity
  8
0
  6
Continuous
 62
     7
100
AcDbLine
 10
304.5930484694
 20
27.75125
 30
0.0
 11
307.5930484694
 21
27.75125
 31
0.0
  0
LINE
  5
382
330
1F
100
AcDbEntity
  8
0
  6
Continuous
 62
     7
100
AcDbLine
 10
301.0430484694
 20
138.00125
 30
0.0
 11
301.0430484694
 21
151.7014937249
 31
0.0
  0
ARC
  5
383
330
1F
100
AcDbEntity
  8
0
  6
Continuous
 62
     7
100
AcDbCircle
 10
302.8430484694
 20
138.00125
 30
0.0
 40
1.800000000000011
100
AcDbArc
 50
180.0
 51
270.0
  0
ARC
  5
384
330
1F
100
AcDbEntity
  8
0
  6
Continuous
 62
     7
100
AcDbCircle
 10
302.8430484694
 20
151.7014937249
 30
0.0
 40
1.800000000000011
100
AcDbArc
 50
90.0
 51
180.0
  0
ARC
  5
385
330
1F
100
AcDbEntity
  8
0
  6
Continuous
 62
     7
100
AcDbCircle
 10
306.0930484694
 20
87.50125
 30
0.0
 40
3.404401511556159
100
AcDbArc
 50
0.0
 51
180.0
  0
ARC
  5
386
330
1F
100
AcDbEntity
  8
0
  6
Continuous
 62
     7
100
AcDbCircle
 10
306.0930484694
 20
85.50125
 30
0.0
 40
3.404401511556159
100
AcDbArc
 50
180.0
 51
0.0
  0
LINE
  5
387
330
1F
100
AcDbEntity
  8
0
  6
Continuous
 62
     7
100
AcDbLine
 10
311.8430484694
 20
136.20125
 30
0.0
 11
302.8430484694
 21
136.20125
 31
0.0
  0
LINE
  5
388
330
1F
100
AcDbEntity
  8
0
  6
Continuous
 62
     7
100
AcDbLine
 10
302.8430484694
 20
153.5014937249
 30
0.0
 11
311.8430484694
 21
153.5014937249
 31
0.0
  0
ARC
  5
389
330
1F
100
AcDbEntity
  8
0
  6
Continuous
 62
     7
100
AcDbCircle
 10
311.8430484694
 20
138.00125
 30
0.0
 40
1.800000000000011
100
AcDbArc
 50
270.0
 51
0.0
  0
ARC
  5
38A
330
1F
100
AcDbEntity
  8
0
  6
Continuous
 62
     7
100
AcDbCircle
 10
311.8430484694
 20
151.7014937249
 30
0.0
 40
1.800000000000011
100
AcDbArc
 50
0.0
 51
90.0
  0
LINE
  5
38B
330
1F
100
AcDbEntity
  8
0
  6
Continuous
 62
     7
100
AcDbLine
 10
313.6430484694
 20
151.7014937249
 30
0.0
 11
313.6430484694
 21
138.00125
 31
0.0
  0
ARC
  5
38C
330
1F
100
AcDbEntity
  8
0
  6
Continuous
 62
     7
100
AcDbCircle
 10
372.8430484694
 20
35.00125
 30
0.0
 40
1.800000000000068
100
AcDbArc
 50
90.0
 51
180.0
  0
LINE
  5
38D
330
1F
100
AcDbEntity
  8
0
  6
Continuous
 62
     7
100
AcDbLine
 10
371.0430484694
 20
21.3010062751
 30
0.0
 11
371.0430484694
 21
35.00125
 31
0.0
  0
ARC
  5
38E
330
1F
100
AcDbEntity
  8
0
  6
Continuous
 62
     7
100
AcDbCircle
 10
372.8430484694
 20
21.3010062751
 30
0.0
 40
1.800000000000068
100
AcDbArc
 50
180.0
 51
270.0
  0
ARC
  5
38F
330
1F
100
AcDbEntity
  8
0
  6
Continuous
 62
     7
100
AcDbCircle
 10
378.5930484694
 20
146.75125
 30
0.0
 40
2.5
100
AcDbArc
 50
180.0
 51
0.0
  0
LINE
  5
390
330
1F
100
AcDbEntity
  8
0
  6
Continuous
 62
     7
100
AcDbLine
 10
381.0930484694
 20
148.75125
 30
0.0
 11
381.0930484694
 21
146.75125
 31
0.0
  0
ARC
  5
391
330
1F
100
AcDbEntity
  8
0
  6
Continuous
 62
     7
100
AcDbCircle
 10
378.5930484694
 20
148.75125
 30
0.0
 40
2.5
100
AcDbArc
 50
0.0
 51
180.0
  0
LINE
  5
392
330
1F
100
AcDbEntity
  8
0
  6
Continuous
 62
     7
100
AcDbLine
 10
376.0930484694
 20
146.75125
 30
0.0
 11
376.0930484694
 21
148.75125
 31
0.0
  0
LINE
  5
393
330
1F
100
AcDbEntity
  8
0
  6
Continuous
 62
     7
100
AcDbLine
 10
372.8430484694
 20
36.80125
 30
0.0
 11
381.8430484694
 21
36.80125
 31
0.0
  0
LINE
  5
394
330
1F
100
AcDbEntity
  8
0
  6
Continuous
 62
     7
100
AcDbLine
 10
381.8430484694
 20
19.5010062751
 30
0.0
 11
372.8430484694
 21
19.5010062751
 31
0.0
  0
ARC
  5
395
330
1F
100
AcDbEntity
  8
0
  6
Continuous
 62
     7
100
AcDbCircle
 10
379.5930484694
 20
86.50125
 30
0.0
 40
3.404401511554283
100
AcDbArc
 50
270.0
 51
90.0
  0
ARC
  5
396
330
1F
100
AcDbEntity
  8
0
  6
Continuous
 62
     7
100
AcDbCircle
 10
381.8430484694
 20
35.00125
 30
0.0
 40
1.800000000000011
100
AcDbArc
 50
0.0
 51
90.0
  0
ARC
  5
397
330
1F
100
AcDbEntity
  8
0
  6
Continuous
 62
     7
100
AcDbCircle
 10
381.8430484694
 20
21.3010062751
 30
0.0
 40
1.800000000000011
100
AcDbArc
 50
270.0
 51
0.0
  0
LINE
  5
398
330
1F
100
AcDbEntity
  8
0
  6
Continuous
 62
     7
100
AcDbLine
 10
383.6430484694
 20
35.00125
 30
0.0
 11
383.6430484694
 21
21.3010062751
 31
0.0
  0
CIRCLE
  5
399
330
1F
100
AcDbEntity
  8
0
  6
Continuous
 62
     7
100
AcDbCircle
 10
306.0930484694
 20
25.25125
 30
0.0
 40
7.200207538209725
  0
CIRCLE
  5
39A
330
1F
100
AcDbEntity
  8
0
  6
Continuous
 62
     7
100
AcDbCircle
 10
378.5930484694
 20
147.75125
 30
0.0
 40
7.200207538209725
  0
LINE
  5
39B
330
1F
100
AcDbEntity
  8
0
  6
Continuous
 62
     7
100
AcDbLine
 10
301.0930484694
 20
87.50125
 30
0.0
 11
301.0930484694
 21
85.50125
 31
0.0
  0
ARC
  5
39C
330
1F
100
AcDbEntity
  8
0
  6
Continuous
 62
     7
100
AcDbCircle
 10
306.0930484694
 20
87.50125
 30
0.0
 40
5.0
100
AcDbArc
 50
0.0
 51
180.0
  0
ARC
  5
39D
330
1F
100
AcDbEntity
  8
0
  6
Continuous
 62
     7
100
AcDbCircle
 10
306.0930484694
 20
85.50125
 30
0.0
 40
5.0
100
AcDbArc
 50
180.0
 51
0.0
  0
ARC
  5
39E
330
1F
100
AcDbEntity
  8
0
  6
Continuous
 62
     7
100
AcDbCircle
 10
306.0930484694
 20
87.50125
 30
0.0
 40
3.400000000000034
100
AcDbArc
 50
0.0
 51
180.0
  0
LINE
  5
39F
330
1F
100
AcDbEntity
  8
0
  6
Continuous
 62
     7
100
AcDbLine
 10
302.6930484694
 20
87.50125
 30
0.0
 11
302.6930484694
 21
85.50125
 31
0.0
  0
ARC
  5
3A0
330
1F
100
AcDbEntity
  8
0
  6
Continuous
 62
     7
100
AcDbCircle
 10
306.0930484694
 20
85.50125
 30
0.0
 40
3.400000000000034
100
AcDbArc
 50
180.0
 51
0.0
  0
LINE
  5
3A1
330
1F
100
AcDbEntity
  8
0
  6
Continuous
 62
     7
100
AcDbLine
 10
309.4930484694
 20
85.50125
 30
0.0
 11
309.4930484694
 21
87.50125
 31
0.0
  0
LINE
  5
3A2
330
1F
100
AcDbEntity
  8
0
  6
Continuous
 62
     7
100
AcDbLine
 10
311.0930484694
 20
85.50125
 30
0.0
 11
311.0930484694
 21
87.50125
 31
0.0
  0
ARC
  5
3A3
330
1F
100
AcDbEntity
  8
0
  6
Continuous
 62
     7
100
AcDbCircle
 10
377.5930484694
 20
86.50125
 30
0.0
 40
4.99999999999811
100
AcDbArc
 50
90.0
 51
270.0
  0
ARC
  5
3A4
330
1F
100
AcDbEntity
  8
0
  6
Continuous
 62
     7
100
AcDbCircle
 10
377.5930484694
 20
86.50125
 30
0.0
 40
3.399999999998101
100
AcDbArc
 50
90.0
 51
270.0
  0
LINE
  5
3A5
330
1F
100
AcDbEntity
  8
0
  6
Continuous
 62
     7
100
AcDbLine
 10
379.5930484694
 20
91.50125
 30
0.0
 11
377.5930484694
 21
91.50125
 31
0.0
  0
LINE
  5
3A6
330
1F
100
AcDbEntity
  8
0
  6
Continuous
 62
     7
100
AcDbLine
 10
377.5930484694
 20
83.10125
 30
0.0
 11
379.5930484694
 21
83.10125
 31
0.0
  0
LINE
  5
3A7
330
1F
100
AcDbEntity
  8
0
  6
Continuous
 62
     7
100
AcDbLine
 10
377.5930484694
 20
81.50125
 30
0.0
 11
379.5930484694
 21
81.50125
 31
0.0
  0
LINE
  5
3A8
330
1F
100
AcDbEntity
  8
0
  6
Continuous
 62
     7
100
AcDbLine
 10
379.5930484694
 20
89.90125
 30
0.0
 11
377.5930484694
 21
89.90125
 31
0.0
  0
ARC
  5
3A9
330
1F
100
AcDbEntity
  8
0
  6
Continuous
 62
     7
100
AcDbCircle
 10
379.5930484694
 20
86.50125
 30
0.0
 40
4.99999999999811
100
AcDbArc
 50
270.0
 51
90.0
  0
ARC
  5
3AA
330
1F
100
AcDbEntity
  8
0
  6
Continuous
 62
     7
100
AcDbCircle
 10
379.5930484694
 20
86.50125
 30
0.0
 40
3.399999999998101
100
AcDbArc
 50
270.0
 51
90.0
  0
LINE
  5
3AB
330
1F
100
AcDbEntity
  8
0
  6
Continuous
 62
     7
100
AcDbLine
 10
306.3430484694
 20
96.50125
 30
0.0
 11
305.8430484694
 21
96.50125
 31
0.0
  0
LINE
  5
3AC
330
1F
100
AcDbEntity
  8
0
  6
Continuous
 62
     7
100
AcDbLine
 10
306.3430484694
 20
93.50125
 30
0.0
 11
306.3430484694
 21
96.50125
 31
0.0
  0
LINE
  5
3AD
330
1F
100
AcDbEntity
  8
0
  6
Continuous
 62
     7
100
AcDbLine
 10
305.8430484694
 20
93.50125
 30
0.0
 11
306.3430484694
 21
93.50125
 31
0.0
  0
LINE
  5
3AE
330
1F
100
AcDbEntity
  8
0
  6
Continuous
 62
     7
100
AcDbLine
 10
305.8430484694
 20
96.50125
 30
0.0
 11
305.8430484694
 21
93.50125
 31
0.0
  0
LINE
  5
3AF
330
1F
100
AcDbEntity
  8
0
  6
Continuous
 62
     7
100
AcDbLine
 10
306.3430484694
 20
33.25125
 30
0.0
 11
306.3430484694
 21
63.25125
 31
0.0
  0
LINE
  5
3B0
330
1F
100
AcDbEntity
  8
0
  6
Continuous
 62
     7
100
AcDbLine
 10
306.3430484694
 20
63.25125
 30
0.0
 11
305.8430484694
 21
63.25125
 31
0.0
  0
LINE
  5
3B1
330
1F
100
AcDbEntity
  8
0
  6
Continuous
 62
     7
100
AcDbLine
 10
305.8430484694
 20
33.25125
 30
0.0
 11
306.3430484694
 21
33.25125
 31
0.0
  0
LINE
  5
3B2
330
1F
100
AcDbEntity
  8
0
  6
Continuous
 62
     7
100
AcDbLine
 10
305.8430484694
 20
63.25125
 30
0.0
 11
305.8430484694
 21
33.25125
 31
0.0
  0
LINE
  5
3B3
330
1F
100
AcDbEntity
  8
0
  6
Continuous
 62
     7
100
AcDbLine
 10
306.3430484694
 20
76.50125
 30
0.0
 11
306.3430484694
 21
79.50125
 31
0.0
  0
LINE
  5
3B4
330
1F
100
AcDbEntity
  8
0
  6
Continuous
 62
     7
100
AcDbLine
 10
306.3430484694
 20
79.50125
 30
0.0
 11
305.8430484694
 21
79.50125
 31
0.0
  0
LINE
  5
3B5
330
1F
100
AcDbEntity
  8
0
  6
Continuous
 62
     7
100
AcDbLine
 10
305.8430484694
 20
76.50125
 30
0.0
 11
306.3430484694
 21
76.50125
 31
0.0
  0
LINE
  5
3B6
330
1F
100
AcDbEntity
  8
0
  6
Continuous
 62
     7
100
AcDbLine
 10
305.8430484694
 20
79.50125
 30
0.0
 11
305.8430484694
 21
76.50125
 31
0.0
  0
LINE
  5
3B7
330
1F
100
AcDbEntity
  8
0
  6
Continuous
 62
     7
100
AcDbLine
 10
306.3430484694
 20
109.75125
 30
0.0
 11
306.3430484694
 21
134.75125
 31
0.0
  0
LINE
  5
3B8
330
1F
100
AcDbEntity
  8
0
  6
Continuous
 62
     7
100
AcDbLine
 10
305.8430484694
 20
134.75125
 30
0.0
 11
305.8430484694
 21
109.75125
 31
0.0
  0
LINE
  5
3B9
330
1F
100
AcDbEntity
  8
0
  6
Continuous
 62
     7
100
AcDbLine
 10
305.8430484694
 20
109.75125
 30
0.0
 11
306.3430484694
 21
109.75125
 31
0.0
  0
LINE
  5
3BA
330
1F
100
AcDbEntity
  8
0
  6
Continuous
 62
     7
100
AcDbLine
 10
306.3430484694
 20
134.75125
 30
0.0
 11
305.8430484694
 21
134.75125
 31
0.0
  0
LINE
  5
3BB
330
1F
100
AcDbEntity
  8
0
  6
Continuous
 62
     7
100
AcDbLine
 10
374.3430484694
 20
131.50125
 30
0.0
 11
374.3430484694
 21
130.75125
 31
0.0
  0
LINE
  5
3BC
330
1F
100
AcDbEntity
  8
0
  6
Continuous
 62
     7
100
AcDbLine
 10
310.3430484694
 20
131.50125
 30
0.0
 11
374.3430484694
 21
131.50125
 31
0.0
  0
LINE
  5
3BD
330
1F
100
AcDbEntity
  8
0
  6
Continuous
 62
     7
100
AcDbLine
 10
310.3430484694
 20
130.75125
 30
0.0
 11
310.3430484694
 21
131.50125
 31
0.0
  0
LINE
  5
3BE
330
1F
100
AcDbEntity
  8
0
  6
Continuous
 62
     7
100
AcDbLine
 10
307.3430484694
 20
131.75125
 30
0.0
 11
310.3430484694
 21
130.75125
 31
0.0
  0
LINE
  5
3BF
330
1F
100
AcDbEntity
  8
0
  6
Continuous
 62
     7
100
AcDbLine
 10
310.3430484694
 20
132.00125
 30
0.0
 11
310.3430484694
 21
132.75125
 31
0.0
  0
LINE
  5
3C0
330
1F
100
AcDbEntity
  8
0
  6
Continuous
 62
     7
100
AcDbLine
 10
374.3430484694
 20
132.00125
 30
0.0
 11
310.3430484694
 21
132.00125
 31
0.0
  0
LINE
  5
3C1
330
1F
100
AcDbEntity
  8
0
  6
Continuous
 62
     7
100
AcDbLine
 10
374.3430484694
 20
132.75125
 30
0.0
 11
374.3430484694
 21
132.00125
 31
0.0
  0
LINE
  5
3C2
330
1F
100
AcDbEntity
  8
0
  6
Continuous
 62
     7
100
AcDbLine
 10
377.3430484694
 20
131.75125
 30
0.0
 11
374.3430484694
 21
132.75125
 31
0.0
  0
LINE
  5
3C3
330
1F
100
AcDbEntity
  8
0
  6
Continuous
 62
     7
100
AcDbLine
 10
374.3430484694
 20
130.75125
 30
0.0
 11
377.3430484694
 21
131.75125
 31
0.0
  0
LINE
  5
3C4
330
1F
100
AcDbEntity
  8
0
  6
Continuous
 62
     7
100
AcDbLine
 10
310.3430484694
 20
132.75125
 30
0.0
 11
307.3430484694
 21
131.75125
 31
0.0
  0
LINE
  5
3C5
330
1F
100
AcDbEntity
  8
0
  6
Continuous
 62
     7
100
AcDbLine
 10
366.5930484694
 20
25.00125
 30
0.0
 11
366.5930484694
 21
25.50125
 31
0.0
  0
LINE
  5
3C6
330
1F
100
AcDbEntity
  8
0
  6
Continuous
 62
     7
100
AcDbLine
 10
314.0930484694
 20
25.50125
 30
0.0
 11
314.0930484694
 21
25.00125
 31
0.0
  0
LINE
  5
3C7
330
1F
100
AcDbEntity
  8
0
  6
Continuous
 62
     7
100
AcDbLine
 10
314.0930484694
 20
25.00125
 30
0.0
 11
366.5930484694
 21
25.00125
 31
0.0
  0
LINE
  5
3C8
330
1F
100
AcDbEntity
  8
0
  6
Continuous
 62
     7
100
AcDbLine
 10
366.5930484694
 20
25.50125
 30
0.0
 11
314.0930484694
 21
25.50125
 31
0.0
  0
LINE
  5
3C9
330
1F
100
AcDbEntity
  8
0
  6
Continuous
 62
     7
100
AcDbLine
 10
339.668689495
 20
136.0333012821
 30
0.0
 11
339.668689495
 21
136.7063782051
 31
0.0
  0
LINE
  5
3CA
330
1F
100
AcDbEntity
  8
0
  6
Continuous
 62
     7
100
AcDbLine
 10
339.668689495
 20
136.7063782051
 30
0.0
 11
341.9571510335
 21
136.7063782051
 31
0.0
  0
LINE
  5
3CB
330
1F
100
AcDbEntity
  8
0
  6
Continuous
 62
     7
100
AcDbLine
 10
341.9571510335
 20
136.7063782051
 30
0.0
 11
341.9571510335
 21
136.2127884615
 31
0.0
  0
SPLINE
  5
3CC
330
1F
100
AcDbEntity
  8
0
  6
Continuous
 62
     7
100
AcDbSpline
210
0.0
220
0.0
230
1.0
 70
     8
 71
     3
 72
    27
 73
    23
 74
     0
 42
0.00000001
 43
0.00000001
 40
0.0
 40
0.0
 40
0.0
 40
0.0
 40
0.0314272898339571
 40
0.0646054795207685
 40
0.0994393445169617
 40
0.136456304806596
 40
0.1753519851952027
 40
0.2161008675321624
 40
0.2589775198518817
 40
0.3040074750734801
 40
0.3957568126458638
 40
0.4876156308966688
 40
0.5798735059012288
 40
0.6727070790515447
 40
0.7186945783923683
 40
0.7630792377552901
 40
0.8058934434386099
 40
0.8473863361294187
 40
0.8876001486816195
 40
0.9263862120921268
 40
0.9637547278604682
 40
1.0
 40
1.0
 40
1.0
 40
1.0
 10
341.9571510334905
 20
136.2127884615383
 30
0.0
 10
341.9332780606262
 20
136.1884984906335
 30
0.0
 10
341.8842020866039
 20
136.1385652884344
 30
0.0
 10
341.8139055538452
 20
136.0568446371855
 30
0.0
 10
341.7425674819904
 20
135.968163390661
 30
0.0
 10
341.6716796223747
 20
135.8713265712355
 30
0.0
 10
341.5990384615851
 20
135.7678638856967
 30
0.0
 10
341.5278363224739
 20
135.6557920180079
 30
0.0
 10
341.4556214222488
 20
135.5365648759271
 30
0.0
 10
341.3583973345046
 20
135.3679178452239
 30
0.0
 10
341.2447545070713
 20
135.1476127150486
 30
0.0
 10
341.124526407603
 20
134.8737621854658
 30
0.0
 10
341.022097571628
 20
134.5915014545473
 30
0.0
 10
340.9519588012333
 20
134.3509945032684
 30
0.0
 10
340.9045687718036
 20
134.1582285519596
 30
0.0
 10
340.8736064199242
 20
134.0172735194291
 30
0.0
 10
340.8475426903349
 20
133.8802851452752
 30
0.0
 10
340.8263398637006
 20
133.747022675851
 30
0.0
 10
340.8105155972469
 20
133.6174253166957
 30
0.0
 10
340.7980117283584
 20
133.4919436331034
 30
0.0
 10
340.7918428461014
 20
133.3702716358571
 30
0.0
 10
340.7909325633685
 20
133.2905182367778
 30
0.0
 10
340.7904843668239
 20
133.2512499999999
 30
0.0
  0
LINE
  5
3CD
330
1F
100
AcDbEntity
  8
0
  6
Continuous
 62
     7
100
AcDbLine
 10
340.7904843668
 20
133.25125
 30
0.0
 11
340.1174074437
 21
133.25125
 31
0.0
  0
SPLINE
  5
3CE
330
1F
100
AcDbEntity
  8
0
  6
Continuous
 62
     7
100
AcDbSpline
210
0.0
220
0.0
230
1.0
 70
     8
 71
     3
 72
    23
 73
    19
 74
     0
 42
0.00000001
 43
0.00000001
 40
0.0
 40
0.0
 40
0.0
 40
0.0
 40
0.0589531092367054
 40
0.118561143173803
 40
0.1785228682718506
 40
0.2393530316568938
 40
0.3010260066553669
 40
0.3637735516132113
 40
0.4273825220979517
 40
0.4923338678875933
 40
0.5574758345064422
 40
0.6219603622633539
 40
0.6858892184262912
 40
0.7492545849121934
 40
0.8122671686462053
 40
0.8750355330743743
 40
0.9375335567344807
 40
1.0
 40
1.0
 40
1.0
 40
1.0
 10
340.1174074437469
 20
133.2512499999999
 30
0.0
 10
340.1196580610339
 20
133.3108767113612
 30
0.0
 10
340.1241842982731
 20
133.4307925419972
 30
0.0
 10
340.1411189894687
 20
133.6107822918715
 30
0.0
 10
340.1677167433317
 20
133.7914422453073
 30
0.0
 10
340.2007529388946
 20
133.9731899412399
 30
0.0
 10
340.2443689526132
 20
134.1555829213786
 30
0.0
 10
340.294148187331
 20
134.3392968244816
 30
0.0
 10
340.3544482453033
 20
134.5233504387483
 30
0.0
 10
340.4220429919735
 20
134.7073918431708
 30
0.0
 10
340.4966640392965
 20
134.889673712215
 30
0.0
 10
340.5779904814278
 20
135.0679351602347
 30
0.0
 10
340.6658120814237
 20
135.2410640554541
 30
0.0
 10
340.7589867368858
 20
135.4096686878986
 30
0.0
 10
340.8585984007463
 20
135.573206645076
 30
0.0
 10
340.9647220701693
 20
135.731500340798
 30
0.0
 10
341.0758524072901
 20
135.8856948177556
 30
0.0
 10
341.1553119242771
 20
135.9841074173992
 30
0.0
 10
341.1950316424649
 20
136.0333012820512
 30
0.0
  0
LINE
  5
3CF
330
1F
100
AcDbEntity
  8
0
  6
Continuous
 62
     7
100
AcDbLine
 10
341.1950316425
 20
136.0333012821
 30
0.0
 11
339.668689495
 21
136.0333012821
 31
0.0
  0
LINE
  5
3D0
330
1F
100
AcDbEntity
  8
0
  6
Continuous
 62
     7
100
AcDbLine
 10
344.9725356489
 20
133.9243269231
 30
0.0
 11
344.9725356489
 21
133.25125
 31
0.0
  0
LINE
  5
3D1
330
1F
100
AcDbEntity
  8
0
  6
Continuous
 62
     7
100
AcDbLine
 10
344.9725356489
 20
133.25125
 30
0.0
 11
342.6840741104
 21
133.25125
 31
0.0
  0
SPLINE
  5
3D2
330
1F
100
AcDbEntity
  8
0
  6
Continuous
 62
     7
100
AcDbSpline
210
0.0
220
0.0
230
1.0
 70
     8
 71
     3
 72
    15
 73
    11
 74
     0
 42
0.00000001
 43
0.00000001
 40
0.0
 40
0.0
 40
0.0
 40
0.0
 40
0.1850900618630635
 40
0.3523569643820098
 40
0.5030795117590475
 40
0.637279463974364
 40
0.7524732703005126
 40
0.8518857877882215
 40
0.9343394349213421
 40
1.0
 40
1.0
 40
1.0
 40
1.0
 10
343.6305885334905
 20
134.7390304487178
 30
0.0
 10
343.6651931372274
 20
134.7724333652259
 30
0.0
 10
343.7310701108675
 20
134.8360226803075
 30
0.0
 10
343.8248790491232
 20
134.9270800021722
 30
0.0
 10
343.9073467723904
 20
135.0107875633696
 30
0.0
 10
343.9801975664743
 20
135.0849761418704
 30
0.0
 10
344.0417484749224
 20
135.1515347666754
 30
0.0
 10
344.0928091436037
 20
135.2094181451997
 30
0.0
 10
344.1340262494954
 20
135.2588619962125
 30
0.0
 10
344.1563494698634
 20
135.2902292061725
 30
0.0
 10
344.1662455847726
 20
135.3041346153845
 30
0.0
  0
SPLINE
  5
3D3
330
1F
100
AcDbEntity
  8
0
  6
Continuous
 62
     7
100
AcDbSpline
210
0.0
220
0.0
230
1.0
 70
     8
 71
     3
 72
    11
 73
     7
 74
     0
 42
0.00000001
 43
0.00000001
 40
0.0
 40
0.0
 40
0.0
 40
0.0
 40
0.2727955500866091
 40
0.5261910092278153
 40
0.7669044194616206
 40
0.9999999999999999
 40
0.9999999999999999
 40
0.9999999999999999
 40
0.9999999999999999
 10
344.1662455847726
 20
135.3041346153845
 30
0.0
 10
344.1865104127377
 20
135.3377966594951
 30
0.0
 10
344.2255989179402
 20
135.4027268424018
 30
0.0
 10
344.2684627067486
 20
135.5048307292518
 30
0.0
 10
344.2941911505285
 20
135.6069135250637
 30
0.0
 10
344.2977217890668
 20
135.6751246651891
 30
0.0
 10
344.2994587257982
 20
135.7086818910255
 30
0.0
  0
SPLINE
  5
3D4
330
1F
100
AcDbEntity
  8
0
  6
Continuous
 62
     7
100
AcDbSpline
210
0.0
220
0.0
230
1.0
 70
     8
 71
     3
 72
    15
 73
    11
 74
     0
 42
0.00000001
 43
0.00000001
 40
0.0
 40
0.0
 40
0.0
 40
0.0
 40
0.1491402908464773
 40
0.2821617981976357
 40
0.4046557030353612
 40
0.5211096910238634
 40
0.6344164539698205
 40
0.7487964497315259
 40
0.8687105535463926
 40
1.0
 40
1.0
 40
1.0
 40
1.0
 10
344.2994587257982
 20
135.7086818910255
 30
0.0
 10
344.2981981425829
 20
135.7436026961717
 30
0.0
 10
344.2958132174579
 20
135.8096701358865
 30
0.0
 10
344.2758152080676
 20
135.9029035101663
 30
0.0
 10
344.2403519836299
 20
135.9830508031252
 30
0.0
 10
344.1915256497182
 20
136.0503580283642
 30
0.0
 10
344.1297846526546
 20
136.1030929816839
 30
0.0
 10
344.0576076316227
 20
136.1420589932548
 30
0.0
 10
343.9739380308066
 20
136.1636021192535
 30
0.0
 10
343.9151300994768
 20
136.1664357126454
 30
0.0
 10
343.8843946232341
 20
136.1679166666665
 30
0.0
  0
SPLINE
  5
3D5
330
1F
100
AcDbEntity
  8
0
  6
Continuous
 62
     7
100
AcDbSpline
210
0.0
220
0.0
230
1.0
 70
     8
 71
     3
 72
    19
 73
    15
 74
     0
 42
0.00000001
 43
0.00000001
 40
0.0
 40
0.0
 40
0.0
 40
0.0
 40
0.1168990281982811
 40
0.225823683953068
 40
0.3300860790235584
 40
0.43545148634523
 40
0.4903067309632245
 40
0.5482440571677172
 40
0.610766833147026
 40
0.6776750949389431
 40
0.7491886027449045
 40
0.8268587199157806
 40
0.9101115940212845
 40
1.0
 40
1.0
 40
1.0
 40
1.0
 10
343.8843946232341
 20
136.1679166666665
 30
0.0
 10
343.8538667932067
 20
136.1665335662659
 30
0.0
 10
343.7948936165591
 20
136.1638617149036
 30
0.0
 10
343.7110799370564
 20
136.1405207880326
 30
0.0
 10
343.6377584363788
 20
136.1001151881812
 30
0.0
 10
343.5855056354075
 20
136.0540691094145
 30
0.0
 10
343.550206389852
 20
136.0092926422075
 30
0.0
 10
343.5261547153197
 20
135.9702729006174
 30
0.0
 10
343.5054240495969
 20
135.9259345082412
 30
0.0
 10
343.487054950072
 20
135.8767766412283
 30
0.0
 10
343.472545438199
 20
135.8222361444292
 30
0.0
 10
343.4608603784402
 20
135.7627283987459
 30
0.0
 10
343.4514439107694
 20
135.6979331679811
 30
0.0
 10
343.4484493078441
 20
135.6528569804147
 30
0.0
 10
343.4468946232341
 20
135.629455128205
 30
0.0
  0
LINE
  5
3D6
330
1F
100
AcDbEntity
  8
0
  6
Continuous
 62
     7
100
AcDbLine
 10
343.4468946232
 20
135.6294551282
 30
0.0
 11
342.7738177002
 21
135.6953605769
 31
0.0
  0
SPLINE
  5
3D7
330
1F
100
AcDbEntity
  8
0
  6
Continuous
 62
     7
100
AcDbSpline
210
0.0
220
0.0
230
1.0
 70
     8
 71
     3
 72
    23
 73
    19
 74
     0
 42
0.00000001
 43
0.00000001
 40
0.0
 40
0.0
 40
0.0
 40
0.0
 40
0.0794357226761152
 40
0.154013174283942
 40
0.2241414790393968
 40
0.2899341692032362
 40
0.3527323106719882
 40
0.41272577924969
 40
0.4703027418920644
 40
0.5271687617359285
 40
0.5835022647141632
 40
0.6399482172133528
 40
0.696584966911986
 40
0.7537269142919262
 40
0.8127070377388637
 40
0.8729634806368316
 40
0.9350348604089694
 40
1.0
 40
1.0
 40
1.0
 40
1.0
 10
342.7738177001572
 20
135.695360576923
 30
0.0
 10
342.7792291343744
 20
135.7408017529212
 30
0.0
 10
342.7897210406998
 20
135.8289049327364
 30
0.0
 10
342.8159037688413
 20
135.9554514763582
 30
0.0
 10
342.8490632237765
 20
136.072196375201
 30
0.0
 10
342.8907802284723
 20
136.1789229717445
 30
0.0
 10
342.9393305686307
 20
136.2763099436329
 30
0.0
 10
342.9971907154562
 20
136.3628959385177
 30
0.0
 10
343.0623389742008
 20
136.4396400843069
 30
0.0
 10
343.1348316476046
 20
136.5065015362891
 30
0.0
 10
343.214207876148
 20
136.5636929982207
 30
0.0
 10
343.2974989852439
 20
136.6147451539677
 30
0.0
 10
343.386332716049
 20
136.6566241505325
 30
0.0
 10
343.479731006323
 20
136.6911387358429
 30
0.0
 10
343.5776516475081
 20
136.7187225163878
 30
0.0
 10
343.6805475359813
 20
136.7369605381091
 30
0.0
 10
343.7877836365618
 20
136.7497892326776
 30
0.0
 10
343.8609834464231
 20
136.7507557388903
 30
0.0
 10
343.8984170591315
 20
136.7512499999999
 30
0.0
  0
SPLINE
  5
3D8
330
1F
100
AcDbEntity
  8
0
  6
Continuous
 62
     7
100
AcDbSpline
210
0.0
220
0.0
230
1.0
 70
     8
 71
     3
 72
    23
 73
    19
 74
     0
 42
0.00000001
 43
0.00000001
 40
0.0
 40
0.0
 40
0.0
 40
0.0
 40
0.0756723023817888
 40
0.1473813099735534
 40
0.2160846766840665
 40
0.2816980378616584
 40
0.345459882900248
 40
0.4074856092774465
 40
0.4687312995608476
 40
0.5297823575334705
 40
0.5900329257114968
 40
0.6485481210783028
 40
0.7059535135830391
 40
0.7631016442005155
 40
0.82028942889744
 40
0.8784792630440467
 40
0.9382260550877813
 40
0.9999999999999999
 40
0.9999999999999999
 40
0.9999999999999999
 40
0.9999999999999999
 10
343.8984170591315
 20
136.7512499999999
 30
0.0
 10
343.9391122324032
 20
136.7504678599122
 30
0.0
 10
344.0183711918586
 20
136.7489445438894
 30
0.0
 10
344.1340752020163
 20
136.7363649880044
 30
0.0
 10
344.2427708063246
 20
136.7144307097147
 30
0.0
 10
344.3454082979702
 20
136.6853756536807
 30
0.0
 10
344.440933644715
 20
136.6465850294532
 30
0.0
 10
344.5301428560186
 20
136.5996887777362
 30
0.0
 10
344.6116319350533
 20
136.5429070907308
 30
0.0
 10
344.686615587031
 20
136.4793365155564
 30
0.0
 10
344.753644972291
 20
136.4094294949286
 30
0.0
 10
344.8123566486056
 20
136.334861838633
 30
0.0
 10
344.8615450976719
 20
136.255685497687
 30
0.0
 10
344.9028217601372
 20
136.1728655439275
 30
0.0
 10
344.933469403621
 20
136.0850692846243
 30
0.0
 10
344.9558006091207
 20
135.993510701327
 30
0.0
 10
344.9706070978381
 20
135.8977626536681
 30
0.0
 10
344.9718856889074
 20
135.8323689090246
 30
0.0
 10
344.9725356488751
 20
135.799126602564
 30
0.0
  0
SPLINE
  5
3D9
330
1F
100
AcDbEntity
  8
0
  6
Continuous
 62
     7
100
AcDbSpline
210
0.0
220
0.0
230
1.0
 70
     8
 71
     3
 72
    15
 73
    11
 74
     0
 42
0.00000001
 43
0.00000001
 40
0.0
 40
0.0
 40
0.0
 40
0.0
 40
0.1191762436674494
 40
0.2364273787594477
 40
0.3526638478564011
 40
0.4690860844274167
 40
0.5894629077907653
 40
0.7176014692905088
 40
0.854189466853311
 40
1.0
 40
1.0
 40
1.0
 40
1.0
 10
344.9725356488751
 20
135.799126602564
 30
0.0
 10
344.9716793352456
 20
135.7609749962703
 30
0.0
 10
344.9699805404136
 20
135.685288064094
 30
0.0
 10
344.9537158402662
 20
135.5734001667363
 30
0.0
 10
344.9288665448989
 20
135.464092390033
 30
0.0
 10
344.8921412430433
 20
135.3570975961322
 30
0.0
 10
344.845589072045
 20
135.2498492280454
 30
0.0
 10
344.7855822072587
 20
135.1421065571355
 30
0.0
 10
344.7159096990674
 20
135.0306202556041
 30
0.0
 10
344.6613588711456
 20
134.9585394968987
 30
0.0
 10
344.6331927001572
 20
134.9213221153845
 30
0.0
  0
SPLINE
  5
3DA
330
1F
100
AcDbEntity
  8
0
  6
Continuous
 62
     7
100
AcDbSpline
210
0.0
220
0.0
230
1.0
 70
     8
 71
     3
 72
    25
 73
    21
 74
     0
 42
0.00000001
 43
0.00000001
 40
0.0
 40
0.0
 40
0.0
 40
0.0
 40
0.0369753139213719
 40
0.0791925522967035
 40
0.1267009440549518
 40
0.1791840785794694
 40
0.2373686428140482
 40
0.3005585397445008
 40
0.3691531357212953
 40
0.4431123780003073
 40
0.516018389250616
 40
0.5824731789612753
 40
0.6421368079450548
 40
0.6946199424695689
 40
0.7406794327797179
 40
0.7795890342775155
 40
0.8120737912440674
 40
0.8378140957748627
 40
0.922564880965353
 40
1.0
 40
1.0
 40
1.0
 40
1.0
 10
344.6331927001572
 20
134.9213221153845
 30
0.0
 10
344.6225471241416
 20
134.9079139808886
 30
0.0
 10
344.5997467677433
 20
134.8791968645301
 30
0.0
 10
344.5609573700332
 20
134.8351636076391
 30
0.0
 10
344.5160037944041
 20
134.7870654101276
 30
0.0
 10
344.4655209902818
 20
134.7340019848083
 30
0.0
 10
344.4078414117153
 20
134.6778524526486
 30
0.0
 10
344.3450403731907
 20
134.6162686839462
 30
0.0
 10
344.2743544461227
 20
134.5524008928398
 30
0.0
 10
344.2011409546654
 20
134.4846558886229
 30
0.0
 10
344.1276092273793
 20
134.4187206286633
 30
0.0
 10
344.0600229686324
 20
134.3560967493933
 30
0.0
 10
343.99863215683
 20
134.3006880663817
 30
0.0
 10
343.9462958770745
 20
134.2494357660345
 30
0.0
 10
343.8999357225434
 20
134.2058377812663
 30
0.0
 10
343.8612226668729
 20
134.1676584578024
 30
0.0
 10
343.8294322969412
 20
134.135822085941
 30
0.0
 10
343.7856272131277
 20
134.0861972593311
 30
0.0
 10
343.7298902152476
 20
134.0190796606945
 30
0.0
 10
343.6906769581848
 20
133.9549468971361
 30
0.0
 10
343.6719547193879
 20
133.9243269230768
 30
0.0
  0
LINE
  5
3DB
330
1F
100
AcDbEntity
  8
0
  6
Continuous
 62
     7
100
AcDbLine
 10
343.6719547194
 20
133.9243269231
 30
0.0
 11
344.9725356489
 21
133.9243269231
 31
0.0
  0
SPLINE
  5
3DC
330
1F
100
AcDbEntity
  8
0
  6
Continuous
 62
     7
100
AcDbSpline
210
0.0
220
0.0
230
1.0
 70
     8
 71
     3
 72
    19
 73
    15
 74
     0
 42
0.00000001
 43
0.00000001
 40
0.0
 40
0.0
 40
0.0
 40
0.0
 40
0.0963574538682368
 40
0.1926608788082156
 40
0.2894549334517502
 40
0.3884793011163944
 40
0.4419214173673357
 40
0.5015211030486827
 40
0.5678827758176536
 40
0.6408916507843536
 40
0.7203706588124412
 40
0.806636916281967
 40
0.9000159377788838
 40
0.9999999999999999
 40
0.9999999999999999
 40
0.9999999999999999
 40
0.9999999999999999
 10
342.6840741104136
 20
133.2512499999999
 30
0.0
 10
342.6918223109636
 20
133.3087741887976
 30
0.0
 10
342.7073143675426
 20
133.4237903118019
 30
0.0
 10
342.7552102678388
 20
133.5917999180545
 30
0.0
 10
342.8191348886512
 20
133.7557485883987
 30
0.0
 10
342.8885129225362
 20
133.889163010904
 30
0.0
 10
342.9575170618955
 20
133.9965570301535
 30
0.0
 10
343.0201245213858
 20
134.0845565193183
 30
0.0
 10
343.094812921737
 20
134.1781841986427
 30
0.0
 10
343.1804984535909
 20
134.2781959029821
 30
0.0
 10
343.2767075834236
 20
134.3849042669872
 30
0.0
 10
343.384158093396
 20
134.497912571725
 30
0.0
 10
343.5033625391179
 20
134.6166798147833
 30
0.0
 10
343.5872249899429
 20
134.697328616723
 30
0.0
 10
343.6305885334905
 20
134.7390304487178
 30
0.0
  0
LINE
  5
3DD
330
1F
100
AcDbEntity
  8
0
  6
Continuous
 62
     7
100
AcDbLine
 10
362.4199715463
 20
87.6230448718
 30
0.0
 11
363.0930484694
 21
87.6230448718
 31
0.0
  0
LINE
  5
3DE
330
1F
100
AcDbEntity
  8
0
  6
Continuous
 62
     7
100
AcDbLine
 10
363.0930484694
 20
87.6230448718
 30
0.0
 11
363.0930484694
 21
85.3345833333
 31
0.0
  0
SPLINE
  5
3DF
330
1F
100
AcDbEntity
  8
0
  6
Continuous
 62
     7
100
AcDbSpline
210
0.0
220
0.0
230
1.0
 70
     8
 71
     3
 72
    19
 73
    15
 74
     0
 42
0.00000001
 43
0.00000001
 40
0.0
 40
0.0
 40
0.0
 40
0.0
 40
0.0963580426684083
 40
0.192662056078405
 40
0.2894567021899943
 40
0.388481674951205
 40
0.4419241177646073
 40
0.5015241676347496
 40
0.5678862459121956
 40
0.6406005200831543
 40
0.7203689501142861
 40
0.8066357347208938
 40
0.9000153268180234
 40
1.0
 40
1.0
 40
1.0
 40
1.0
 10
363.093048469388
 20
85.3345833333332
 30
0.0
 10
363.0355242581896
 20
85.34233150795856
 30
0.0
 10
362.9205080903967
 20
85.35782351270294
 30
0.0
 10
362.752498820485
 20
85.40571980225144
 30
0.0
 10
362.5885488560272
 20
85.4696429253679
 30
0.0
 10
362.4551386175195
 20
85.53902580145252
 30
0.0
 10
362.3477352186998
 20
85.60801908570232
 30
0.0
 10
362.2597700310632
 20
85.6706662428369
 30
0.0
 10
362.1661304472551
 20
85.74506943568333
 30
0.0
 10
362.0667636169139
 20
85.83149545932747
 30
0.0
 10
361.9593587888334
 20
85.92691529291388
 30
0.0
 10
361.8464343519956
 20
86.03472185778763
 30
0.0
 10
361.7276051095443
 20
86.15385651536111
 30
0.0
 10
361.646965235984
 20
86.23772901620504
 30
0.0
 10
361.60526802067
 20
86.28109775641012
 30
0.0
  0
SPLINE
  5
3E0
330
1F
100
AcDbEntity
  8
0
  6
Continuous
 62
     7
100
AcDbSpline
210
0.0
220
0.0
230
1.0
 70
     8
 71
     3
 72
    15
 73
    11
 74
     0
 42
0.00000001
 43
0.00000001
 40
0.0
 40
0.0
 40
0.0
 40
0.0
 40
0.185086692103028
 40
0.3523505493513759
 40
0.503070352665281
 40
0.6366244131365992
 40
0.7524777767860199
 40
0.8518884843638644
 40
0.9343406303412674
 40
1.0
 40
1.0
 40
1.0
 40
1.0
 10
361.60526802067
 20
86.28109775641012
 30
0.0
 10
361.5718591125326
 20
86.31569613591945
 30
0.0
 10
361.5082583911534
 20
86.38156126046333
 30
0.0
 10
361.4172777917112
 20
86.47544989954687
 30
0.0
 10
361.3334408009341
 20
86.55754207912864
 30
0.0
 10
361.2600236454815
 20
86.63120105346103
 30
0.0
 10
361.1927702078761
 20
86.69201238695844
 30
0.0
 10
361.1349052687015
 20
86.74334517659392
 30
0.0
 10
361.0854320798621
 20
86.78453075053339
 30
0.0
 10
361.0540679138165
 20
86.80685724246493
 30
0.0
 10
361.0401638540033
 20
86.81675480769218
 30
0.0
  0
SPLINE
  5
3E1
330
1F
100
AcDbEntity
  8
0
  6
Continuous
 62
     7
100
AcDbSpline
210
0.0
220
0.0
230
1.0
 70
     8
 71
     3
 72
    11
 73
     7
 74
     0
 42
0.00000001
 43
0.00000001
 40
0.0
 40
0.0
 40
0.0
 40
0.0
 40
0.2727955500866139
 40
0.5261910092278032
 40
0.7669044194616145
 40
0.9999999999999999
 40
0.9999999999999999
 40
0.9999999999999999
 40
0.9999999999999999
 10
361.0401638540033
 20
86.81675480769218
 30
0.0
 10
361.0065018098928
 20
86.83701963565727
 30
0.0
 10
360.9415716269861
 20
86.87610814085977
 30
0.0
 10
360.8394677401361
 20
86.91897192966812
 30
0.0
 10
360.7373849443241
 20
86.94470037344817
 30
0.0
 10
360.6691738041988
 20
86.94823101198641
 30
0.0
 10
360.6356165783624
 20
86.94996794871781
 30
0.0
  0
SPLINE
  5
3E2
330
1F
100
AcDbEntity
  8
0
  6
Continuous
 62
     7
100
AcDbSpline
210
0.0
220
0.0
230
1.0
 70
     8
 71
     3
 72
    15
 73
    11
 74
     0
 42
0.00000001
 43
0.00000001
 40
0.0
 40
0.0
 40
0.0
 40
0.0
 40
0.1490739315748771
 40
0.2820362516314135
 40
0.405387864976454
 40
0.5217900373102191
 40
0.6350463849444402
 40
0.7489082215708007
 40
0.8687689701686567
 40
1.0
 40
1.0
 40
1.0
 40
1.0
 10
360.6356165783624
 20
86.94996794871781
 30
0.0
 10
360.6006900800571
 20
86.94871955970865
 30
0.0
 10
360.5346118693295
 20
86.94635770507047
 30
0.0
 10
360.4412406157861
 20
86.92615954301087
 30
0.0
 10
360.3606716500496
 20
86.89107275652728
 30
0.0
 10
360.293303625952
 20
86.84198573556516
 30
0.0
 10
360.2403705113322
 20
86.78049109079984
 30
0.0
 10
360.2024146123455
 20
86.70790077029108
 30
0.0
 10
360.1806388467749
 20
86.62447820516688
 30
0.0
 10
360.177843018906
 20
86.5656499463753
 30
0.0
 10
360.1763818027213
 20
86.53490384615371
 30
0.0
  0
SPLINE
  5
3E3
330
1F
100
AcDbEntity
  8
0
  6
Continuous
 62
     7
100
AcDbSpline
210
0.0
220
0.0
230
1.0
 70
     8
 71
     3
 72
    19
 73
    15
 74
     0
 42
0.00000001
 43
0.00000001
 40
0.0
 40
0.0
 40
0.0
 40
0.0
 40
0.1168789425891923
 40
0.2257848828927956
 40
0.3300293635824513
 40
0.4347845767396028
 40
0.489630396120987
 40
0.5483216779436234
 40
0.6108337112499019
 40
0.6777304768539429
 40
0.7492316971979338
 40
0.8268884690772799
 40
0.9101270386610898
 40
0.9999999999999999
 40
0.9999999999999999
 40
0.9999999999999999
 40
0.9999999999999999
 10
360.1763818027213
 20
86.53490384615371
 30
0.0
 10
360.1777684895078
 20
86.50437898905433
 30
0.0
 10
360.1804472689932
 20
86.44541155546173
 30
0.0
 10
360.2037396341693
 20
86.36155762083028
 30
0.0
 10
360.2442446326974
 20
86.28851708780147
 30
0.0
 10
360.2896061523498
 20
86.23590418077558
 30
0.0
 10
360.3344176565194
 20
86.20050818634031
 30
0.0
 10
360.3739193806289
 20
86.17687421784284
 30
0.0
 10
360.4183418855072
 20
86.15589606840997
 30
0.0
 10
360.4675283599095
 20
86.13757518095908
 30
0.0
 10
360.5220603583584
 20
86.12305134680437
 30
0.0
 10
360.5815706553767
 20
86.11137058681406
 30
0.0
 10
360.646365136997
 20
86.10195285660886
 30
0.0
 10
360.6914414327873
 20
86.09895843607363
 30
0.0
 10
360.7148433411829
 20
86.09740384615371
 30
0.0
  0
LINE
  5
3E4
330
1F
100
AcDbEntity
  8
0
  6
Continuous
 62
     7
100
AcDbLine
 10
360.7148433412
 20
86.0974038462
 30
0.0
 11
360.6489378925
 21
85.4243269231
 31
0.0
  0
SPLINE
  5
3E5
330
1F
100
AcDbEntity
  8
0
  6
Continuous
 62
     7
100
AcDbSpline
210
0.0
220
0.0
230
1.0
 70
     8
 71
     3
 72
    23
 73
    19
 74
     0
 42
0.00000001
 43
0.00000001
 40
0.0
 40
0.0
 40
0.0
 40
0.0
 40
0.0794277383747625
 40
0.153997693999329
 40
0.2241189499674202
 40
0.2899050271283511
 40
0.3526968565844613
 40
0.4126842950548488
 40
0.4705649759878923
 40
0.5274252800728539
 40
0.5837531208169117
 40
0.6399844070010033
 40
0.696615463985304
 40
0.7537516678721115
 40
0.812725863065822
 40
0.8729762494242104
 40
0.9350413902325088
 40
1.0
 40
1.0
 40
1.0
 40
1.0
 10
360.6489378924649
 20
85.42432692307679
 30
0.0
 10
360.6034966373149
 20
85.42973826526683
 30
0.0
 10
360.515393304037
 20
85.44022999316645
 30
0.0
 10
360.3888478361384
 20
85.46641397201488
 30
0.0
 10
360.2720992131375
 20
85.49956909699782
 30
0.0
 10
360.165385345167
 20
85.54130090077327
 30
0.0
 10
360.0679542101161
 20
85.58979989392228
 30
0.0
 10
359.9813740567302
 20
85.64793889244076
 30
0.0
 10
359.9039637668239
 20
85.71258938127563
 30
0.0
 10
359.8371739637741
 20
85.78540324522768
 30
0.0
 10
359.7797768415555
 20
85.86449617964499
 30
0.0
 10
359.7296899048864
 20
85.94823148018415
 30
0.0
 10
359.6876233452322
 20
86.0368109782476
 30
0.0
 10
359.6531739234097
 20
86.13024884798334
 30
0.0
 10
359.6255720128831
 20
86.22815847725151
 30
0.0
 10
359.6073390255169
 20
86.33105742352708
 30
0.0
 10
359.5945089446818
 20
86.43829268210702
 30
0.0
 10
359.5935426316876
 20
86.51149260932677
 30
0.0
 10
359.593048469388
 20
86.54892628205114
 30
0.0
  0
SPLINE
  5
3E6
330
1F
100
AcDbEntity
  8
0
  6
Continuous
 62
     7
100
AcDbSpline
210
0.0
220
0.0
230
1.0
 70
     8
 71
     3
 72
    15
 73
    11
 74
     0
 42
0.00000001
 43
0.00000001
 40
0.0
 40
0.0
 40
0.0
 40
0.0
 40
0.1191762436674493
 40
0.2364273787594545
 40
0.3526638478564045
 40
0.4690860844274164
 40
0.5894629077907715
 40
0.717601469290512
 40
0.8541894668533139
 40
1.0
 40
1.0
 40
1.0
 40
1.0
 10
360.5451718668239
 20
87.62304487179473
 30
0.0
 10
360.5833234731176
 20
87.62218855816516
 30
0.0
 10
360.6590104052938
 20
87.62048976333321
 30
0.0
 10
360.7708983026515
 20
87.60422506318582
 30
0.0
 10
360.8802060793549
 20
87.5793757678185
 30
0.0
 10
360.9872008732557
 20
87.54265046596294
 30
0.0
 10
361.0944492413424
 20
87.49609829496455
 30
0.0
 10
361.2021919122523
 20
87.43609143017828
 30
0.0
 10
361.3136782137838
 20
87.36641892198692
 30
0.0
 10
361.3857589724892
 20
87.31186809406525
 30
0.0
 10
361.4229763540033
 20
87.28370192307679
 30
0.0
  0
SPLINE
  5
3E7
330
1F
100
AcDbEntity
  8
0
  6
Continuous
 62
     7
100
AcDbSpline
210
0.0
220
0.0
230
1.0
 70
     8
 71
     3
 72
    25
 73
    21
 74
     0
 42
0.00000001
 43
0.00000001
 40
0.0
 40
0.0
 40
0.0
 40
0.0
 40
0.036976407005883
 40
0.0791948934303669
 40
0.1267046896577458
 40
0.1791893757174639
 40
0.2373756600360403
 40
0.3005674250208791
 40
0.369164048828735
 40
0.4431254775314261
 40
0.5160336440692205
 40
0.58249039835282
 40
0.6421557911455152
 40
0.6946404772052355
 40
0.7407013291512957
 40
0.7796120809160723
 40
0.8120977982148223
 40
0.8378388636946159
 40
0.922986647346031
 40
1.0
 40
1.0
 40
1.0
 40
1.0
 10
361.4229763540033
 20
87.28370192307679
 30
0.0
 10
361.4363844884993
 20
87.2730563470612
 30
0.0
 10
361.4651016048578
 20
87.25025599066298
 30
0.0
 10
361.5091348617485
 20
87.21146659295235
 30
0.0
 10
361.5572330592618
 20
87.1665130173256
 30
0.0
 10
361.610296484573
 20
87.11603021319296
 30
0.0
 10
361.6664460167673
 20
87.0583506346712
 30
0.0
 10
361.7280297853233
 20
86.99554959595677
 30
0.0
 10
361.7918975770464
 20
86.92486366968893
 30
0.0
 10
361.8596425787611
 20
86.85165017498488
 30
0.0
 10
361.9255778477907
 20
86.77811845946721
 30
0.0
 10
361.9882016972191
 20
86.71053216200058
 30
0.0
 10
362.0436104748105
 20
86.64914147291675
 30
0.0
 10
362.0948624821012
 20
86.59680481291639
 30
0.0
 10
362.1384613587566
 20
86.55044581562125
 30
0.0
 10
362.1766380712659
 20
86.51172937220073
 30
0.0
 10
362.2084818259466
 20
86.4799485815802
 30
0.0
 10
362.2582073596512
 20
86.43597565109687
 30
0.0
 10
362.3257694400818
 20
86.3808356502635
 30
0.0
 10
362.3896387961112
 20
86.34125942902266
 30
0.0
 10
362.419971546311
 20
86.32246394230755
 30
0.0
  0
LINE
  5
3E8
330
1F
100
AcDbEntity
  8
0
  6
Continuous
 62
     7
100
AcDbLine
 10
362.4199715463
 20
86.3224639423
 30
0.0
 11
362.4199715463
 21
87.6230448718
 31
0.0
  0
SPLINE
  5
3E9
330
1F
100
AcDbEntity
  8
0
  6
Continuous
 62
     7
100
AcDbSpline
210
0.0
220
0.0
230
1.0
 70
     8
 71
     3
 72
    23
 73
    19
 74
     0
 42
0.00000001
 43
0.00000001
 40
0.0
 40
0.0
 40
0.0
 40
0.0
 40
0.0756649543381274
 40
0.147366998735935
 40
0.2160636941106703
 40
0.2816706840027659
 40
0.3454263375445121
 40
0.4074460410080261
 40
0.4684400979196284
 40
0.5294852276222577
 40
0.589729945260633
 40
0.6485822482776864
 40
0.7059820665192234
 40
0.763124647854524
 40
0.8203068794187222
 40
0.8784910631301147
 40
0.9382320535526143
 40
1.0
 40
1.0
 40
1.0
 40
1.0
 10
359.593048469388
 20
86.54892628205114
 30
0.0
 10
359.593830508229
 20
86.58962152550566
 30
0.0
 10
359.5953536270613
 20
86.66888062165104
 30
0.0
 10
359.6079345830847
 20
86.7845836612507
 30
0.0
 10
359.6298638888906
 20
86.89328271242127
 30
0.0
 10
359.6589364023777
 20
86.99590810278312
 30
0.0
 10
359.6976648079023
 20
87.09147657873909
 30
0.0
 10
359.7447230451574
 20
87.18041360108003
 30
0.0
 10
359.8005912294979
 20
87.26237302640253
 30
0.0
 10
359.8643341726062
 20
87.33705863032483
 30
0.0
 10
359.9341927215005
 20
87.40441410655687
 30
0.0
 10
360.0093809940089
 20
87.46264013398121
 30
0.0
 10
360.088586278138
 20
87.5120881631623
 30
0.0
 10
360.1714400651128
 20
87.55332193127914
 30
0.0
 10
360.2592272362866
 20
87.58398109685406
 30
0.0
 10
360.3507883065227
 20
87.6063091493687
 30
0.0
 10
360.4465356742319
 20
87.62111650013863
 30
0.0
 10
360.511929512679
 20
87.62239497228187
 30
0.0
 10
360.5451718668239
 20
87.62304487179473
 30
0.0
  0
LINE
  5
3EA
330
1F
100
AcDbEntity
  8
0
  6
Continuous
 62
     7
100
AcDbLine
 10
363.0930484694
 20
84.0243269231
 30
0.0
 11
363.0930484694
 21
83.35125
 31
0.0
  0
LINE
  5
3EB
330
1F
100
AcDbEntity
  8
0
  6
Continuous
 62
     7
100
AcDbLine
 10
363.0930484694
 20
83.35125
 30
0.0
 11
360.6012616104
 21
83.35125
 31
0.0
  0
SPLINE
  5
3EC
330
1F
100
AcDbEntity
  8
0
  6
Continuous
 62
     7
100
AcDbSpline
210
0.0
220
0.0
230
1.0
 70
     8
 71
     3
 72
    15
 73
    11
 74
     0
 42
0.00000001
 43
0.00000001
 40
0.0
 40
0.0
 40
0.0
 40
0.0
 40
0.1265666333059106
 40
0.2514162549880785
 40
0.3764123322389739
 40
0.5004673594429215
 40
0.6241933871406629
 40
0.7481419589808749
 40
0.8738732810155253
 40
1.0
 40
1.0
 40
1.0
 40
1.0
 10
360.6012616104136
 20
83.35124999999987
 30
0.0
 10
360.6322272303068
 20
83.32073902657125
 30
0.0
 10
360.6937383883711
 20
83.26013099367114
 30
0.0
 10
360.7796283907161
 20
83.16339335065835
 30
0.0
 10
360.8592545289939
 20
83.06261005086103
 30
0.0
 10
360.9334026128022
 20
82.95815016298849
 30
0.0
 10
360.9996997189547
 20
82.84896584132908
 30
0.0
 10
361.061085887623
 20
82.7363558347356
 30
0.0
 10
361.1167741758078
 20
82.61980145157213
 30
0.0
 10
361.147949271069
 20
82.53909998042963
 30
0.0
 10
361.1635612899008
 20
82.49868589743575
 30
0.0
  0
LINE
  5
3ED
330
1F
100
AcDbEntity
  8
0
  6
Continuous
 62
     7
100
AcDbLine
 10
361.1635612899
 20
82.4986858974
 30
0.0
 11
360.4904843668
 21
82.4986858974
 31
0.0
  0
SPLINE
  5
3EE
330
1F
100
AcDbEntity
  8
0
  6
Continuous
 62
     7
100
AcDbSpline
210
0.0
220
0.0
230
1.0
 70
     8
 71
     3
 72
    19
 73
    15
 74
     0
 42
0.00000001
 43
0.00000001
 40
0.0
 40
0.0
 40
0.0
 40
0.0
 40
0.1044728014505088
 40
0.2186534455744873
 40
0.3428558890245159
 40
0.4792694623690659
 40
0.5495409926991615
 40
0.6174241096395703
 40
0.6835351858950331
 40
0.7485971287880202
 40
0.8121759604466018
 40
0.8748692871861456
 40
0.9374294362357427
 40
1.0
 40
1.0
 40
1.0
 40
1.0
 10
360.4904843668239
 20
82.49868589743575
 30
0.0
 10
360.4736769409557
 20
82.54351082923118
 30
0.0
 10
360.4385003062118
 20
82.63732592415191
 30
0.0
 10
360.3636778209231
 20
82.7757654551609
 30
0.0
 10
360.2710400352187
 20
82.92026505917529
 30
0.0
 10
360.1801838207267
 20
83.04165297529777
 30
0.0
 10
360.0994053849798
 20
83.1380299905524
 30
0.0
 10
360.0344721977324
 20
83.20539019712902
 30
0.0
 10
359.9679772458076
 20
83.26780330165278
 30
0.0
 10
359.8977743157537
 20
83.32292331954746
 30
0.0
 10
359.8252827560728
 20
83.37219717749572
 30
0.0
 10
359.7506209943896
 20
83.41585596372923
 30
0.0
 10
359.6735531787262
 20
83.45428573165036
 30
0.0
 10
359.6198848614509
 20
83.47440344643007
 30
0.0
 10
359.593048469388
 20
83.4844631410255
 30
0.0
  0
LINE
  5
3EF
330
1F
100
AcDbEntity
  8
0
  6
Continuous
 62
     7
100
AcDbLine
 10
359.5930484694
 20
83.484463141
 30
0.0
 11
359.5930484694
 21
84.0243269231
 31
0.0
  0
LINE
  5
3F0
330
1F
100
AcDbEntity
  8
0
  6
Continuous
 62
     7
100
AcDbLine
 10
359.5930484694
 20
84.0243269231
 30
0.0
 11
363.0930484694
 21
84.0243269231
 31
0.0
  0
LINE
  5
3F1
330
1F
100
AcDbEntity
  8
0
  6
Continuous
 62
     7
100
AcDbLine
 10
362.4199715463
 20
90.6384294872
 30
0.0
 11
363.0930484694
 21
90.6384294872
 31
0.0
  0
LINE
  5
3F2
330
1F
100
AcDbEntity
  8
0
  6
Continuous
 62
     7
100
AcDbLine
 10
363.0930484694
 20
90.6384294872
 30
0.0
 11
363.0930484694
 21
88.3499679487
 31
0.0
  0
SPLINE
  5
3F3
330
1F
100
AcDbEntity
  8
0
  6
Continuous
 62
     7
100
AcDbSpline
210
0.0
220
0.0
230
1.0
 70
     8
 71
     3
 72
    19
 73
    15
 74
     0
 42
0.00000001
 43
0.00000001
 40
0.0
 40
0.0
 40
0.0
 40
0.0
 40
0.0963580426684083
 40
0.1926620560784049
 40
0.2894567021899942
 40
0.3884816749512048
 40
0.4419241177646071
 40
0.5015241676347494
 40
0.5678862459121953
 40
0.6406005200831539
 40
0.7203689501142858
 40
0.8066357347208936
 40
0.9000153268180233
 40
0.9999999999999999
 40
0.9999999999999999
 40
0.9999999999999999
 40
0.9999999999999999
 10
363.093048469388
 20
88.34996794871782
 30
0.0
 10
363.0355242581896
 20
88.35771612334318
 30
0.0
 10
362.9205080903967
 20
88.37320812808757
 30
0.0
 10
362.752498820485
 20
88.42110441763606
 30
0.0
 10
362.5885488560273
 20
88.48502754075253
 30
0.0
 10
362.4551386175195
 20
88.55441041683714
 30
0.0
 10
362.3477352186998
 20
88.62340370108694
 30
0.0
 10
362.2597700310632
 20
88.6860508582215
 30
0.0
 10
362.1661304472551
 20
88.76045405106794
 30
0.0
 10
362.0667636169139
 20
88.8468800747121
 30
0.0
 10
361.9593587888334
 20
88.9422999082985
 30
0.0
 10
361.8464343519956
 20
89.05010647317224
 30
0.0
 10
361.7276051095443
 20
89.16924113074573
 30
0.0
 10
361.646965235984
 20
89.25311363158967
 30
0.0
 10
361.6052680206701
 20
89.29648237179472
 30
0.0
  0
SPLINE
  5
3F4
330
1F
100
AcDbEntity
  8
0
  6
Continuous
 62
     7
100
AcDbSpline
210
0.0
220
0.0
230
1.0
 70
     8
 71
     3
 72
    15
 73
    11
 74
     0
 42
0.00000001
 43
0.00000001
 40
0.0
 40
0.0
 40
0.0
 40
0.0
 40
0.1850866921030279
 40
0.3523505493513758
 40
0.503070352665281
 40
0.6366244131365993
 40
0.75247777678602
 40
0.8518884843638648
 40
0.9343406303412677
 40
1.0
 40
1.0
 40
1.0
 40
1.0
 10
361.6052680206701
 20
89.29648237179472
 30
0.0
 10
361.5718591125326
 20
89.33108075130407
 30
0.0
 10
361.5082583911534
 20
89.39694587584796
 30
0.0
 10
361.4172777917112
 20
89.49083451493149
 30
0.0
 10
361.3334408009341
 20
89.57292669451326
 30
0.0
 10
361.2600236454815
 20
89.64658566884565
 30
0.0
 10
361.1927702078761
 20
89.70739700234306
 30
0.0
 10
361.1349052687015
 20
89.75872979197854
 30
0.0
 10
361.0854320798621
 20
89.79991536591803
 30
0.0
 10
361.0540679138165
 20
89.82224185784953
 30
0.0
 10
361.0401638540033
 20
89.83213942307678
 30
0.0
  0
SPLINE
  5
3F5
330
1F
100
AcDbEntity
  8
0
  6
Continuous
 62
     7
100
AcDbSpline
210
0.0
220
0.0
230
1.0
 70
     8
 71
     3
 72
    11
 73
     7
 74
     0
 42
0.00000001
 43
0.00000001
 40
0.0
 40
0.0
 40
0.0
 40
0.0
 40
0.2727955500866141
 40
0.5261910092278034
 40
0.7669044194616146
 40
1.0
 40
1.0
 40
1.0
 40
1.0
 10
361.0401638540033
 20
89.83213942307678
 30
0.0
 10
361.0065018098928
 20
89.85240425104188
 30
0.0
 10
360.9415716269861
 20
89.89149275624439
 30
0.0
 10
360.8394677401361
 20
89.93435654505274
 30
0.0
 10
360.7373849443241
 20
89.96008498883279
 30
0.0
 10
360.6691738041988
 20
89.96361562737103
 30
0.0
 10
360.6356165783624
 20
89.96535256410243
 30
0.0
  0
SPLINE
  5
3F6
330
1F
100
AcDbEntity
  8
0
  6
Continuous
 62
     7
100
AcDbSpline
210
0.0
220
0.0
230
1.0
 70
     8
 71
     3
 72
    15
 73
    11
 74
     0
 42
0.00000001
 43
0.00000001
 40
0.0
 40
0.0
 40
0.0
 40
0.0
 40
0.1490739315748771
 40
0.2820362516314135
 40
0.4053878649764538
 40
0.5217900373102191
 40
0.6350463849444402
 40
0.7489082215708007
 40
0.8687689701686567
 40
1.0
 40
1.0
 40
1.0
 40
1.0
 10
360.6356165783624
 20
89.96535256410243
 30
0.0
 10
360.6006900800571
 20
89.96410417509327
 30
0.0
 10
360.5346118693295
 20
89.96174232045509
 30
0.0
 10
360.4412406157861
 20
89.9415441583955
 30
0.0
 10
360.3606716500496
 20
89.9064573719119
 30
0.0
 10
360.293303625952
 20
89.85737035094978
 30
0.0
 10
360.2403705113322
 20
89.79587570618448
 30
0.0
 10
360.2024146123455
 20
89.72328538567568
 30
0.0
 10
360.1806388467749
 20
89.63986282055149
 30
0.0
 10
360.177843018906
 20
89.58103456175992
 30
0.0
 10
360.1763818027213
 20
89.55028846153833
 30
0.0
  0
SPLINE
  5
3F7
330
1F
100
AcDbEntity
  8
0
  6
Continuous
 62
     7
100
AcDbSpline
210
0.0
220
0.0
230
1.0
 70
     8
 71
     3
 72
    19
 73
    15
 74
     0
 42
0.00000001
 43
0.00000001
 40
0.0
 40
0.0
 40
0.0
 40
0.0
 40
0.1168789425891923
 40
0.2257848828927955
 40
0.330029363582451
 40
0.4347845767396027
 40
0.4896303961209871
 40
0.5483216779436234
 40
0.6108337112499017
 40
0.6777304768539388
 40
0.7492316971979339
 40
0.82688846907728
 40
0.91012703866109
 40
1.0
 40
1.0
 40
1.0
 40
1.0
 10
360.1763818027213
 20
89.55028846153833
 30
0.0
 10
360.1777684895078
 20
89.51976360443895
 30
0.0
 10
360.1804472689932
 20
89.46079617084635
 30
0.0
 10
360.2037396341693
 20
89.3769422362149
 30
0.0
 10
360.2442446326974
 20
89.30390170318609
 30
0.0
 10
360.2896061523498
 20
89.2512887961602
 30
0.0
 10
360.3344176565194
 20
89.21589280172493
 30
0.0
 10
360.3739193806289
 20
89.19225883322746
 30
0.0
 10
360.4183418855072
 20
89.17128068379459
 30
0.0
 10
360.4675283599095
 20
89.1529597963437
 30
0.0
 10
360.5220603583584
 20
89.13843596218898
 30
0.0
 10
360.5815706553767
 20
89.12675520219868
 30
0.0
 10
360.646365136997
 20
89.11733747199348
 30
0.0
 10
360.6914414327873
 20
89.11434305145825
 30
0.0
 10
360.7148433411829
 20
89.11278846153832
 30
0.0
  0
LINE
  5
3F8
330
1F
100
AcDbEntity
  8
0
  6
Continuous
 62
     7
100
AcDbLine
 10
360.7148433412
 20
89.1127884615
 30
0.0
 11
360.6489378925
 21
88.4397115385
 31
0.0
  0
SPLINE
  5
3F9
330
1F
100
AcDbEntity
  8
0
  6
Continuous
 62
     7
100
AcDbSpline
210
0.0
220
0.0
230
1.0
 70
     8
 71
     3
 72
    15
 73
    11
 74
     0
 42
0.00000001
 43
0.00000001
 40
0.0
 40
0.0
 40
0.0
 40
0.0
 40
0.1191762436674494
 40
0.2364273787594547
 40
0.3526638478564045
 40
0.4690860844274197
 40
0.5894629077907714
 40
0.717601469290512
 40
0.8541894668533139
 40
1.0
 40
1.0
 40
1.0
 40
1.0
 10
360.5451718668239
 20
90.63842948717935
 30
0.0
 10
360.5833234731176
 20
90.63757317354978
 30
0.0
 10
360.6590104052938
 20
90.63587437871783
 30
0.0
 10
360.7708983026515
 20
90.61960967857044
 30
0.0
 10
360.8802060793549
 20
90.59476038320312
 30
0.0
 10
360.9872008732557
 20
90.55803508134755
 30
0.0
 10
361.0944492413424
 20
90.51148291034916
 30
0.0
 10
361.2021919122523
 20
90.45147604556288
 30
0.0
 10
361.3136782137838
 20
90.38180353737154
 30
0.0
 10
361.3857589724892
 20
90.32725270944985
 30
0.0
 10
361.4229763540033
 20
90.2990865384614
 30
0.0
  0
SPLINE
  5
3FA
330
1F
100
AcDbEntity
  8
0
  6
Continuous
 62
     7
100
AcDbSpline
210
0.0
220
0.0
230
1.0
 70
     8
 71
     3
 72
    25
 73
    21
 74
     0
 42
0.00000001
 43
0.00000001
 40
0.0
 40
0.0
 40
0.0
 40
0.0
 40
0.036976407005883
 40
0.0791948934303669
 40
0.1267046896577458
 40
0.1791893757174639
 40
0.2373756600360403
 40
0.3005674250208789
 40
0.3691640488287351
 40
0.443125477531426
 40
0.5160336440692205
 40
0.5824903983528181
 40
0.6421557911455151
 40
0.6946404772052355
 40
0.7407013291512957
 40
0.779612080916072
 40
0.8120977982148223
 40
0.8378388636946159
 40
0.922986647346031
 40
1.0
 40
1.0
 40
1.0
 40
1.0
 10
361.4229763540033
 20
90.2990865384614
 30
0.0
 10
361.4363844884993
 20
90.28844096244582
 30
0.0
 10
361.4651016048578
 20
90.2656406060476
 30
0.0
 10
361.5091348617485
 20
90.22685120833697
 30
0.0
 10
361.5572330592618
 20
90.18189763271022
 30
0.0
 10
361.610296484573
 20
90.13141482857758
 30
0.0
 10
361.6664460167673
 20
90.0737352500558
 30
0.0
 10
361.7280297853233
 20
90.0109342113414
 30
0.0
 10
361.7918975770464
 20
89.94024828507355
 30
0.0
 10
361.8596425787611
 20
89.86703479036949
 30
0.0
 10
361.9255778477907
 20
89.79350307485183
 30
0.0
 10
361.9882016972191
 20
89.72591677738518
 30
0.0
 10
362.0436104748105
 20
89.66452608830137
 30
0.0
 10
362.0948624821012
 20
89.612189428301
 30
0.0
 10
362.1384613587566
 20
89.56583043100585
 30
0.0
 10
362.1766380712659
 20
89.52711398758535
 30
0.0
 10
362.2084818259466
 20
89.49533319696482
 30
0.0
 10
362.2582073596512
 20
89.45136026648149
 30
0.0
 10
362.3257694400818
 20
89.39622026564814
 30
0.0
 10
362.3896387961112
 20
89.35664404440728
 30
0.0
 10
362.419971546311
 20
89.33784855769217
 30
0.0
  0
LINE
  5
3FB
330
1F
100
AcDbEntity
  8
0
  6
Continuous
 62
     7
100
AcDbLine
 10
362.4199715463
 20
89.3378485577
 30
0.0
 11
362.4199715463
 21
90.6384294872
 31
0.0
  0
SPLINE
  5
3FC
330
1F
100
AcDbEntity
  8
0
  6
Continuous
 62
     7
100
AcDbSpline
210
0.0
220
0.0
230
1.0
 70
     8
 71
     3
 72
    23
 73
    19
 74
     0
 42
0.00000001
 43
0.00000001
 40
0.0
 40
0.0
 40
0.0
 40
0.0
 40
0.0794277383747645
 40
0.153997693999329
 40
0.2241189499674182
 40
0.289905027128351
 40
0.3526968565844611
 40
0.4126842950548503
 40
0.4705649759878923
 40
0.527425280072854
 40
0.5837531208169116
 40
0.6399844070010032
 40
0.6966154639853039
 40
0.7537516678721112
 40
0.8127258630658217
 40
0.8729762494242105
 40
0.9350413902325088
 40
1.0
 40
1.0
 40
1.0
 40
1.0
 10
360.6489378924649
 20
88.43971153846141
 30
0.0
 10
360.6034966373149
 20
88.44512288065145
 30
0.0
 10
360.515393304037
 20
88.45561460855107
 30
0.0
 10
360.3888478361384
 20
88.48179858739951
 30
0.0
 10
360.2720992131375
 20
88.51495371238245
 30
0.0
 10
360.165385345167
 20
88.55668551615787
 30
0.0
 10
360.0679542101161
 20
88.6051845093069
 30
0.0
 10
359.9813740567302
 20
88.66332350782538
 30
0.0
 10
359.903963766824
 20
88.72797399666024
 30
0.0
 10
359.8371739637741
 20
88.8007878606123
 30
0.0
 10
359.7797768415555
 20
88.8798807950296
 30
0.0
 10
359.7296899048864
 20
88.96361609556875
 30
0.0
 10
359.6876233452322
 20
89.05219559363223
 30
0.0
 10
359.6531739234097
 20
89.14563346336797
 30
0.0
 10
359.6255720128831
 20
89.24354309263613
 30
0.0
 10
359.6073390255169
 20
89.3464420389117
 30
0.0
 10
359.5945089446818
 20
89.45367729749164
 30
0.0
 10
359.5935426316877
 20
89.5268772247114
 30
0.0
 10
359.593048469388
 20
89.56431089743576
 30
0.0
  0
SPLINE
  5
3FD
330
1F
100
AcDbEntity
  8
0
  6
Continuous
 62
     7
100
AcDbSpline
210
0.0
220
0.0
230
1.0
 70
     8
 71
     3
 72
    23
 73
    19
 74
     0
 42
0.00000001
 43
0.00000001
 40
0.0
 40
0.0
 40
0.0
 40
0.0
 40
0.0756649543381275
 40
0.1473669987359348
 40
0.2160636941106701
 40
0.2816706840027657
 40
0.345426337544512
 40
0.4074460410080259
 40
0.4684400979196282
 40
0.529485227622256
 40
0.5897299452606314
 40
0.6485822482776863
 40
0.7059820665192229
 40
0.7631246478545237
 40
0.8203068794187199
 40
0.8784910631301146
 40
0.9382320535526142
 40
0.9999999999999999
 40
0.9999999999999999
 40
0.9999999999999999
 40
0.9999999999999999
 10
359.593048469388
 20
89.56431089743576
 30
0.0
 10
359.593830508229
 20
89.60500614089028
 30
0.0
 10
359.5953536270613
 20
89.68426523703566
 30
0.0
 10
359.6079345830847
 20
89.79996827663531
 30
0.0
 10
359.6298638888906
 20
89.90866732780587
 30
0.0
 10
359.6589364023777
 20
90.01129271816774
 30
0.0
 10
359.6976648079023
 20
90.1068611941237
 30
0.0
 10
359.7447230451574
 20
90.19579821646465
 30
0.0
 10
359.8005912294979
 20
90.27775764178713
 30
0.0
 10
359.8643341726062
 20
90.35244324570944
 30
0.0
 10
359.9341927215005
 20
90.41979872194149
 30
0.0
 10
360.0093809940089
 20
90.47802474936584
 30
0.0
 10
360.088586278138
 20
90.52747277854694
 30
0.0
 10
360.1714400651128
 20
90.56870654666375
 30
0.0
 10
360.2592272362866
 20
90.59936571223867
 30
0.0
 10
360.3507883065227
 20
90.62169376475333
 30
0.0
 10
360.4465356742319
 20
90.63650111552323
 30
0.0
 10
360.511929512679
 20
90.6377795876665
 30
0.0
 10
360.5451718668239
 20
90.63842948717935
 30
0.0
  0
LINE
  5
3FE
330
1F
100
AcDbEntity
  8
0
  6
Continuous
 62
     7
100
AcDbLine
 10
370.5930484694
 20
148.00125
 30
0.0
 11
362.5930484694
 21
148.00125
 31
0.0
  0
LINE
  5
3FF
330
1F
100
AcDbEntity
  8
0
  6
Continuous
 62
     7
100
AcDbLine
 10
370.5930484694
 20
147.50125
 30
0.0
 11
370.5930484694
 21
148.00125
 31
0.0
  0
LINE
  5
400
330
1F
100
AcDbEntity
  8
0
  6
Continuous
 62
     7
100
AcDbLine
 10
362.5930484694
 20
147.50125
 30
0.0
 11
370.5930484694
 21
147.50125
 31
0.0
  0
LINE
  5
401
330
1F
100
AcDbEntity
  8
0
  6
Continuous
 62
     7
100
AcDbLine
 10
362.5930484694
 20
148.00125
 30
0.0
 11
362.5930484694
 21
147.50125
 31
0.0
  0
LINE
  5
402
330
1F
100
AcDbEntity
  8
0
  6
Continuous
 62
     7
100
AcDbLine
 10
364.8430484694
 20
143.50125
 30
0.0
 11
365.5930484694
 21
143.50125
 31
0.0
  0
LINE
  5
403
330
1F
100
AcDbEntity
  8
0
  6
Continuous
 62
     7
100
AcDbLine
 10
364.8430484694
 20
132.75125
 30
0.0
 11
364.8430484694
 21
143.50125
 31
0.0
  0
LINE
  5
404
330
1F
100
AcDbEntity
  8
0
  6
Continuous
 62
     7
100
AcDbLine
 10
364.3430484694
 20
132.75125
 30
0.0
 11
364.8430484694
 21
132.75125
 31
0.0
  0
LINE
  5
405
330
1F
100
AcDbEntity
  8
0
  6
Continuous
 62
     7
100
AcDbLine
 10
364.3430484694
 20
143.50125
 30
0.0
 11
364.3430484694
 21
132.75125
 31
0.0
  0
LINE
  5
406
330
1F
100
AcDbEntity
  8
0
  6
Continuous
 62
     7
100
AcDbLine
 10
363.5930484694
 20
143.50125
 30
0.0
 11
364.3430484694
 21
143.50125
 31
0.0
  0
LINE
  5
407
330
1F
100
AcDbEntity
  8
0
  6
Continuous
 62
     7
100
AcDbLine
 10
365.5930484694
 20
143.50125
 30
0.0
 11
364.5930484694
 21
146.50125
 31
0.0
  0
LINE
  5
408
330
1F
100
AcDbEntity
  8
0
  6
Continuous
 62
     7
100
AcDbLine
 10
364.5930484694
 20
146.50125
 30
0.0
 11
363.5930484694
 21
143.50125
 31
0.0
  0
LINE
  5
409
330
1F
100
AcDbEntity
  8
0
  6
Continuous
 62
     7
100
AcDbLine
 10
364.8430484694
 20
29.50125
 30
0.0
 11
364.8430484694
 21
63.25125
 31
0.0
  0
LINE
  5
40A
330
1F
100
AcDbEntity
  8
0
  6
Continuous
 62
     7
100
AcDbLine
 10
365.5930484694
 20
29.50125
 30
0.0
 11
364.8430484694
 21
29.50125
 31
0.0
  0
LINE
  5
40B
330
1F
100
AcDbEntity
  8
0
  6
Continuous
 62
     7
100
AcDbLine
 10
364.5930484694
 20
26.50125
 30
0.0
 11
365.5930484694
 21
29.50125
 31
0.0
  0
LINE
  5
40C
330
1F
100
AcDbEntity
  8
0
  6
Continuous
 62
     7
100
AcDbLine
 10
364.3430484694
 20
63.25125
 30
0.0
 11
364.3430484694
 21
29.50125
 31
0.0
  0
LINE
  5
40D
330
1F
100
AcDbEntity
  8
0
  6
Continuous
 62
     7
100
AcDbLine
 10
364.8430484694
 20
63.25125
 30
0.0
 11
364.3430484694
 21
63.25125
 31
0.0
  0
LINE
  5
40E
330
1F
100
AcDbEntity
  8
0
  6
Continuous
 62
     7
100
AcDbLine
 10
363.5930484694
 20
29.50125
 30
0.0
 11
364.5930484694
 21
26.50125
 31
0.0
  0
LINE
  5
40F
330
1F
100
AcDbEntity
  8
0
  6
Continuous
 62
     7
100
AcDbLine
 10
364.3430484694
 20
29.50125
 30
0.0
 11
363.5930484694
 21
29.50125
 31
0.0
  0
LINE
  5
410
330
1F
100
AcDbEntity
  8
0
  6
Continuous
 62
     7
100
AcDbLine
 10
364.8430484694
 20
130.75125
 30
0.0
 11
364.3430484694
 21
130.75125
 31
0.0
  0
LINE
  5
411
330
1F
100
AcDbEntity
  8
0
  6
Continuous
 62
     7
100
AcDbLine
 10
364.8430484694
 20
109.75125
 30
0.0
 11
364.8430484694
 21
130.75125
 31
0.0
  0
LINE
  5
412
330
1F
100
AcDbEntity
  8
0
  6
Continuous
 62
     7
100
AcDbLine
 10
364.3430484694
 20
109.75125
 30
0.0
 11
364.8430484694
 21
109.75125
 31
0.0
  0
LINE
  5
413
330
1F
100
AcDbEntity
  8
0
  6
Continuous
 62
     7
100
AcDbLine
 10
364.3430484694
 20
130.75125
 30
0.0
 11
364.3430484694
 21
109.75125
 31
0.0
  0
LINE
  5
414
330
1F
100
AcDbEntity
  8
0
  6
Continuous
 62
     7
100
AcDbLine
 10
364.8430484694
 20
96.50125
 30
0.0
 11
364.3430484694
 21
96.50125
 31
0.0
  0
LINE
  5
415
330
1F
100
AcDbEntity
  8
0
  6
Continuous
 62
     7
100
AcDbLine
 10
364.8430484694
 20
76.50125
 30
0.0
 11
364.8430484694
 21
96.50125
 31
0.0
  0
LINE
  5
416
330
1F
100
AcDbEntity
  8
0
  6
Continuous
 62
     7
100
AcDbLine
 10
364.3430484694
 20
76.50125
 30
0.0
 11
364.8430484694
 21
76.50125
 31
0.0
  0
LINE
  5
417
330
1F
100
AcDbEntity
  8
0
  6
Continuous
 62
     7
100
AcDbLine
 10
364.3430484694
 20
96.50125
 30
0.0
 11
364.3430484694
 21
76.50125
 31
0.0
  0
LINE
  5
418
330
1F
100
AcDbEntity
  8
0
  6
Continuous
 62
     7
100
AcDbLine
 10
378.8430484694
 20
139.75125
 30
0.0
 11
378.3430484694
 21
139.75125
 31
0.0
  0
LINE
  5
419
330
1F
100
AcDbEntity
  8
0
  6
Continuous
 62
     7
100
AcDbLine
 10
378.8430484694
 20
129.75125
 30
0.0
 11
378.8430484694
 21
139.75125
 31
0.0
  0
LINE
  5
41A
330
1F
100
AcDbEntity
  8
0
  6
Continuous
 62
     7
100
AcDbLine
 10
378.3430484694
 20
129.75125
 30
0.0
 11
378.8430484694
 21
129.75125
 31
0.0
  0
LINE
  5
41B
330
1F
100
AcDbEntity
  8
0
  6
Continuous
 62
     7
100
AcDbLine
 10
378.3430484694
 20
139.75125
 30
0.0
 11
378.3430484694
 21
129.75125
 31
0.0
  0
LINE
  5
41C
330
1F
100
AcDbEntity
  8
0
  6
Continuous
 62
     7
100
AcDbLine
 10
346.4216601383
 20
34.7396511428
 30
0.0
 11
346.4216601383
 21
29.4628488572
 31
0.0
  0
LINE
  5
41D
330
1F
100
AcDbEntity
  8
0
  6
Continuous
 62
     7
100
AcDbLine
 10
338.2644368005
 20
34.7396511428
 30
0.0
 11
346.4216601383
 21
34.7396511428
 31
0.0
  0
LINE
  5
41E
330
1F
100
AcDbEntity
  8
0
  6
Continuous
 62
     7
100
AcDbLine
 10
338.2644368005
 20
29.4628488572
 30
0.0
 11
338.2644368005
 21
34.7396511428
 31
0.0
  0
LINE
  5
41F
330
1F
100
AcDbEntity
  8
0
  6
Continuous
 62
     7
100
AcDbLine
 10
346.4216601383
 20
29.4628488572
 30
0.0
 11
338.2644368005
 21
29.4628488572
 31
0.0
  0
LINE
  5
420
330
1F
100
AcDbEntity
  8
0
  6
Continuous
 62
     7
100
AcDbLine
 10
338.2644368005
 20
138.2628488572
 30
0.0
 11
338.2644368005
 21
143.5396511428
 31
0.0
  0
LINE
  5
421
330
1F
100
AcDbEntity
  8
0
  6
Continuous
 62
     7
100
AcDbLine
 10
346.4216601383
 20
138.2628488572
 30
0.0
 11
338.2644368005
 21
138.2628488572
 31
0.0
  0
LINE
  5
422
330
1F
100
AcDbEntity
  8
0
  6
Continuous
 62
     7
100
AcDbLine
 10
346.4216601383
 20
143.5396511428
 30
0.0
 11
346.4216601383
 21
138.2628488572
 31
0.0
  0
LINE
  5
423
330
1F
100
AcDbEntity
  8
0
  6
Continuous
 62
     7
100
AcDbLine
 10
338.2644368005
 20
143.5396511428
 30
0.0
 11
346.4216601383
 21
143.5396511428
 31
0.0
  0
CIRCLE
  5
424
330
1F
100
AcDbEntity
  8
0
  6
Continuous
 62
     7
100
AcDbCircle
 10
342.3430484694
 20
86.50125
 30
0.0
 40
4.973817402607665
  0
ARC
  5
425
330
1F
100
AcDbEntity
  8
0
  6
Continuous
 62
     7
100
AcDbCircle
 10
327.3430484694
 20
121.50125
 30
0.0
 40
4.973817402607679
100
AcDbArc
 50
90.0
 51
270.0
  0
LINE
  5
426
330
1F
100
AcDbEntity
  8
0
  6
Continuous
 62
     7
100
AcDbLine
 10
357.3430484694
 20
116.5274325974
 30
0.0
 11
327.3430484694
 21
116.5274325974
 31
0.0
  0
ARC
  5
427
330
1F
100
AcDbEntity
  8
0
  6
Continuous
 62
     7
100
AcDbCircle
 10
357.3430484694
 20
121.50125
 30
0.0
 40
4.973817402607679
100
AcDbArc
 50
270.0
 51
90.0
  0
LINE
  5
428
330
1F
100
AcDbEntity
  8
0
  6
Continuous
 62
     7
100
AcDbLine
 10
327.3430484694
 20
126.4750674026
 30
0.0
 11
357.3430484694
 21
126.4750674026
 31
0.0
  0
ARC
  5
429
330
1F
100
AcDbEntity
  8
0
  6
Continuous
 62
     7
100
AcDbCircle
 10
327.3430484694
 20
51.50125
 30
0.0
 40
4.973817402607679
100
AcDbArc
 50
90.0
 51
270.0
  0
LINE
  5
42A
330
1F
100
AcDbEntity
  8
0
  6
Continuous
 62
     7
100
AcDbLine
 10
357.3430484694
 20
46.5274325974
 30
0.0
 11
327.3430484694
 21
46.5274325974
 31
0.0
  0
ARC
  5
42B
330
1F
100
AcDbEntity
  8
0
  6
Continuous
 62
     7
100
AcDbCircle
 10
357.3430484694
 20
51.50125
 30
0.0
 40
4.973817402607679
100
AcDbArc
 50
270.0
 51
90.0
  0
LINE
  5
42C
330
1F
100
AcDbEntity
  8
0
  6
Continuous
 62
     7
100
AcDbLine
 10
327.3430484694
 20
56.4750674026
 30
0.0
 11
357.3430484694
 21
56.4750674026
 31
0.0
  0
LINE
  5
42D
330
1F
100
AcDbEntity
  8
0
  6
Continuous
 62
     7
100
AcDbLine
 10
384.8946231759
 20
109.00125
 30
0.0
 11
384.8946231759
 21
97.2496976633
 31
0.0
  0
LINE
  5
42E
330
1F
100
AcDbEntity
  8
0
  6
Continuous
 62
     7
100
AcDbLine
 10
384.8946231759
 20
109.00125
 30
0.0
 11
299.7914737629
 21
109.00125
 31
0.0
  0
LINE
  5
42F
330
1F
100
AcDbEntity
  8
0
  6
Continuous
 62
     7
100
AcDbLine
 10
299.7914737629
 20
109.00125
 30
0.0
 11
299.7914737629
 21
97.2496976633
 31
0.0
  0
LINE
  5
430
330
1F
100
AcDbEntity
  8
0
  6
Continuous
 62
     7
100
AcDbLine
 10
384.8946231759
 20
75.7528023367
 30
0.0
 11
384.8946231759
 21
64.00125
 31
0.0
  0
LINE
  5
431
330
1F
100
AcDbEntity
  8
0
  6
Continuous
 62
     7
100
AcDbLine
 10
299.7914737629
 20
75.7528023367
 30
0.0
 11
299.7914737629
 21
64.00125
 31
0.0
  0
LINE
  5
432
330
1F
100
AcDbEntity
  8
0
  6
Continuous
 62
     7
100
AcDbLine
 10
384.8946231759
 20
64.00125
 30
0.0
 11
299.7914737629
 21
64.00125
 31
0.0
  0
ARC
  5
433
330
1F
100
AcDbEntity
  8
0
  6
Continuous
 62
     7
100
AcDbCircle
 10
299.6430484694
 20
18.80125
 30
0.0
 40
1.26197829036704
100
AcDbArc
 50
0.0
 51
90.0
  0
LINE
  5
434
330
1F
100
AcDbEntity
  8
0
  6
Continuous
 62
     7
100
AcDbLine
 10
384.8946231759
 20
64.0274325974
 30
0.0
 11
299.7914737629
 21
64.0274325974
 31
0.0
  0
LINE
  5
435
330
1F
100
AcDbEntity
  8
0
  6
Continuous
 62
     7
100
AcDbLine
 10
384.8946231759
 20
108.9750674026
 30
0.0
 11
299.7914737629
 21
108.9750674026
 31
0.0
  0
ARC
  5
436
330
1F
100
AcDbEntity
  8
0
  6
Continuous
 62
     7
100
AcDbCircle
 10
306.0930484694
 20
87.50125
 30
0.0
 40
2.513090301686191
100
AcDbArc
 50
0.0
 51
180.0
  0
LINE
  5
437
330
1F
100
AcDbEntity
  8
0
  6
Continuous
 62
     7
100
AcDbLine
 10
303.5799581677
 20
85.50125
 30
0.0
 11
303.5799581677
 21
87.50125
 31
0.0
  0
ARC
  5
438
330
1F
100
AcDbEntity
  8
0
  6
Continuous
 62
     7
100
AcDbCircle
 10
306.0930484694
 20
85.50125
 30
0.0
 40
2.513090301686191
100
AcDbArc
 50
180.0
 51
0.0
  0
LINE
  5
439
330
1F
100
AcDbEntity
  8
0
  6
Continuous
 62
     7
100
AcDbLine
 10
308.6061387711
 20
87.50125
 30
0.0
 11
308.6061387711
 21
85.50125
 31
0.0
  0
ARC
  5
43A
330
1F
100
AcDbEntity
  8
0
  6
Continuous
 62
     7
100
AcDbCircle
 10
306.0930484694
 20
87.50125
 30
0.0
 40
2.5
100
AcDbArc
 50
0.0
 51
180.0
  0
LINE
  5
43B
330
1F
100
AcDbEntity
  8
0
  6
Continuous
 62
     7
100
AcDbLine
 10
303.5930484694
 20
85.50125
 30
0.0
 11
303.5930484694
 21
87.50125
 31
0.0
  0
ARC
  5
43C
330
1F
100
AcDbEntity
  8
0
  6
Continuous
 62
     7
100
AcDbCircle
 10
306.0930484694
 20
85.50125
 30
0.0
 40
2.5
100
AcDbArc
 50
180.0
 51
0.0
  0
LINE
  5
43D
330
1F
100
AcDbEntity
  8
0
  6
Continuous
 62
     7
100
AcDbLine
 10
308.5930484694
 20
87.50125
 30
0.0
 11
308.5930484694
 21
85.50125
 31
0.0
  0
LINE
  5
43E
330
1F
100
AcDbEntity
  8
0
  6
Continuous
 62
     7
100
AcDbLine
 10
346.4040381396
 20
138.2890314546
 30
0.0
 11
345.3430484694
 21
138.2890314546
 31
0.0
  0
LINE
  5
43F
330
1F
100
AcDbEntity
  8
0
  6
Continuous
 62
     7
100
AcDbLine
 10
346.4216601383
 20
138.2628488572
 30
0.0
 11
346.4044492792
 21
138.2685811486
 31
0.0
  0
LINE
  5
440
330
1F
100
AcDbEntity
  8
0
  6
Continuous
 62
     7
100
AcDbLine
 10
338.2644368005
 20
138.2628488572
 30
0.0
 11
338.2816476596
 21
138.2685811486
 31
0.0
  0
LINE
  5
441
330
1F
100
AcDbEntity
  8
0
  6
Continuous
 62
     7
100
AcDbLine
 10
339.3430484694
 20
138.2890314546
 30
0.0
 11
338.2820587992
 21
138.2890314546
 31
0.0
  0
LINE
  5
442
330
1F
100
AcDbEntity
  8
0
  6
Continuous
 62
     7
100
AcDbLine
 10
339.3430484694
 20
138.2890314546
 30
0.0
 11
339.3539873462
 21
138.292674784
 31
0.0
  0
LINE
  5
443
330
1F
100
AcDbEntity
  8
0
  6
Continuous
 62
     7
100
AcDbLine
 10
345.3321095926
 20
138.292674784
 30
0.0
 11
345.3430484694
 21
138.2890314546
 31
0.0
  0
LINE
  5
444
330
1F
100
AcDbEntity
  8
0
  6
Continuous
 62
     7
100
AcDbLine
 10
338.2820587992
 20
143.5134685454
 30
0.0
 11
339.3430484694
 21
143.5134685454
 31
0.0
  0
LINE
  5
445
330
1F
100
AcDbEntity
  8
0
  6
Continuous
 62
     7
100
AcDbLine
 10
338.2644368005
 20
143.5396511428
 30
0.0
 11
338.2816476596
 21
143.5339188514
 31
0.0
  0
LINE
  5
446
330
1F
100
AcDbEntity
  8
0
  6
Continuous
 62
     7
100
AcDbLine
 10
346.4216601383
 20
143.5396511428
 30
0.0
 11
346.4044492792
 21
143.5339188514
 31
0.0
  0
LINE
  5
447
330
1F
100
AcDbEntity
  8
0
  6
Continuous
 62
     7
100
AcDbLine
 10
345.3430484694
 20
143.5134685454
 30
0.0
 11
346.4040381396
 21
143.5134685454
 31
0.0
  0
LINE
  5
448
330
1F
100
AcDbEntity
  8
0
  6
Continuous
 62
     7
100
AcDbLine
 10
345.3430484694
 20
143.5134685454
 30
0.0
 11
345.3321095926
 21
143.509825216
 31
0.0
  0
LINE
  5
449
330
1F
100
AcDbEntity
  8
0
  6
Continuous
 62
     7
100
AcDbLine
 10
339.3539873462
 20
143.509825216
 30
0.0
 11
339.3430484694
 21
143.5134685454
 31
0.0
  0
LINE
  5
44A
330
1F
100
AcDbEntity
  8
0
  6
Continuous
 62
     7
100
AcDbLine
 10
338.2820587992
 20
34.7134685454
 30
0.0
 11
339.3430484694
 21
34.7134685454
 31
0.0
  0
LINE
  5
44B
330
1F
100
AcDbEntity
  8
0
  6
Continuous
 62
     7
100
AcDbLine
 10
338.2644368005
 20
34.7396511428
 30
0.0
 11
338.2816476596
 21
34.7339188514
 31
0.0
  0
LINE
  5
44C
330
1F
100
AcDbEntity
  8
0
  6
Continuous
 62
     7
100
AcDbLine
 10
346.4216601383
 20
34.7396511428
 30
0.0
 11
346.4044492792
 21
34.7339188514
 31
0.0
  0
LINE
  5
44D
330
1F
100
AcDbEntity
  8
0
  6
Continuous
 62
     7
100
AcDbLine
 10
345.3430484694
 20
34.7134685454
 30
0.0
 11
346.4040381396
 21
34.7134685454
 31
0.0
  0
LINE
  5
44E
330
1F
100
AcDbEntity
  8
0
  6
Continuous
 62
     7
100
AcDbLine
 10
345.3430484694
 20
34.7134685454
 30
0.0
 11
345.3321095926
 21
34.709825216
 31
0.0
  0
LINE
  5
44F
330
1F
100
AcDbEntity
  8
0
  6
Continuous
 62
     7
100
AcDbLine
 10
339.3539873462
 20
34.709825216
 30
0.0
 11
339.3430484694
 21
34.7134685454
 31
0.0
  0
LINE
  5
450
330
1F
100
AcDbEntity
  8
0
  6
Continuous
 62
     7
100
AcDbLine
 10
346.4040381396
 20
29.4890314546
 30
0.0
 11
345.3430484694
 21
29.4890314546
 31
0.0
  0
LINE
  5
451
330
1F
100
AcDbEntity
  8
0
  6
Continuous
 62
     7
100
AcDbLine
 10
346.4216601383
 20
29.4628488572
 30
0.0
 11
346.4044492792
 21
29.4685811486
 31
0.0
  0
LINE
  5
452
330
1F
100
AcDbEntity
  8
0
  6
Continuous
 62
     7
100
AcDbLine
 10
338.2644368005
 20
29.4628488572
 30
0.0
 11
338.2816476596
 21
29.4685811486
 31
0.0
  0
LINE
  5
453
330
1F
100
AcDbEntity
  8
0
  6
Continuous
 62
     7
100
AcDbLine
 10
339.3430484694
 20
29.4890314546
 30
0.0
 11
338.2820587992
 21
29.4890314546
 31
0.0
  0
LINE
  5
454
330
1F
100
AcDbEntity
  8
0
  6
Continuous
 62
     7
100
AcDbLine
 10
339.3430484694
 20
29.4890314546
 30
0.0
 11
339.3539873462
 21
29.492674784
 31
0.0
  0
LINE
  5
455
330
1F
100
AcDbEntity
  8
0
  6
Continuous
 62
     7
100
AcDbLine
 10
345.3321095926
 20
29.492674784
 30
0.0
 11
345.3430484694
 21
29.4890314546
 31
0.0
  0
ARC
  5
456
330
1F
100
AcDbEntity
  8
0
  6
Continuous
 62
     7
100
AcDbCircle
 10
377.5930484694
 20
86.50125
 30
0.0
 40
2.513090301688038
100
AcDbArc
 50
90.0
 51
270.0
  0
LINE
  5
457
330
1F
100
AcDbEntity
  8
0
  6
Continuous
 62
     7
100
AcDbLine
 10
379.5930484694
 20
83.9881596983
 30
0.0
 11
377.5930484694
 21
83.9881596983
 31
0.0
  0
ARC
  5
458
330
1F
100
AcDbEntity
  8
0
  6
Continuous
 62
     7
100
AcDbCircle
 10
379.5930484694
 20
86.50125
 30
0.0
 40
2.513090301689928
100
AcDbArc
 50
270.0
 51
90.0
  0
LINE
  5
459
330
1F
100
AcDbEntity
  8
0
  6
Continuous
 62
     7
100
AcDbLine
 10
377.5930484694
 20
89.0143403017
 30
0.0
 11
379.5930484694
 21
89.0143403017
 31
0.0
  0
ARC
  5
45A
330
1F
100
AcDbEntity
  8
0
  6
Continuous
 62
     7
100
AcDbCircle
 10
377.5930484694
 20
86.50125
 30
0.0
 40
2.50000000000378
100
AcDbArc
 50
90.0
 51
270.0
  0
LINE
  5
45B
330
1F
100
AcDbEntity
  8
0
  6
Continuous
 62
     7
100
AcDbLine
 10
377.5930484694
 20
89.00125
 30
0.0
 11
379.5930484694
 21
89.00125
 31
0.0
  0
LINE
  5
45C
330
1F
100
AcDbEntity
  8
0
  6
Continuous
 62
     7
100
AcDbLine
 10
379.5930484694
 20
84.00125
 30
0.0
 11
377.5930484694
 21
84.00125
 31
0.0
  0
ARC
  5
45D
330
1F
100
AcDbEntity
  8
0
  6
Continuous
 62
     7
100
AcDbCircle
 10
379.5930484694
 20
86.50125
 30
0.0
 40
2.50000000000378
100
AcDbArc
 50
270.0
 51
90.0
  0
ARC
  5
45E
330
1F
100
AcDbEntity
  8
0
  6
Continuous
 62
     7
100
AcDbCircle
 10
385.0430484694
 20
154.20125
 30
0.0
 40
1.26197829036704
100
AcDbArc
 50
180.0
 51
270.0
  0
LINE
  5
45F
330
1F
100
AcDbEntity
  8
0
  6
Continuous
 62
     7
100
AcDbLine
 10
300.6430484694
 20
18.80125
 30
0.0
 11
300.6430484694
 21
17.3143060337
 31
0.0
  0
LINE
  5
460
330
1F
100
AcDbEntity
  8
0
  6
Continuous
 62
     7
100
AcDbLine
 10
298.1561045031
 20
19.80125
 30
0.0
 11
299.6430484694
 21
19.80125
 31
0.0
  0
ARC
  5
461
330
1F
100
AcDbEntity
  8
0
  6
Continuous
 62
     7
100
AcDbCircle
 10
299.6430484694
 20
18.80125
 30
0.0
 40
1.0
100
AcDbArc
 50
0.0
 51
90.0
  0
LINE
  5
462
330
1F
100
AcDbEntity
  8
0
  6
Continuous
 62
     7
100
AcDbLine
 10
384.0430484694
 20
154.20125
 30
0.0
 11
384.0430484694
 21
155.6881939663
 31
0.0
  0
ARC
  5
463
330
1F
100
AcDbEntity
  8
0
  6
Continuous
 62
     7
100
AcDbCircle
 10
385.0430484694
 20
154.20125
 30
0.0
 40
1.0
100
AcDbArc
 50
180.0
 51
270.0
  0
LINE
  5
464
330
1F
100
AcDbEntity
  8
0
  6
Continuous
 62
     7
100
AcDbLine
 10
386.5299924356
 20
153.20125
 30
0.0
 11
385.0430484694
 21
153.20125
 31
0.0
  0
ELLIPSE
  5
465
330
1F
100
AcDbEntity
  8
0
  6
Continuous
 62
     7
100
AcDbEllipse
 10
298.1561501946
 20
20.1012956984
 30
0.0
 11
-0.134181447673825
 21
-0.26838333494522
 31
0.0
210
0.0
220
0.0
230
1.0
 40
0.9998096356
 41
5.17608227950481
 42
6.746726307255087
  0
ELLIPSE
  5
466
330
1F
100
AcDbEntity
  8
0
  6
Continuous
 62
     7
100
AcDbEllipse
 10
300.9430941678
 20
17.3143517252
 30
0.0
 11
0.2683833349452129
 21
0.1341814476738818
 31
0.0
210
0.0
220
0.0
230
1.0
 40
0.9998096356
 41
2.678051653514402
 42
4.248695681264412
  0
ELLIPSE
  5
467
330
1F
100
AcDbEntity
  8
0
  6
Continuous
 62
     7
100
AcDbEllipse
 10
383.743002771
 20
155.6881482748
 30
0.0
 11
-0.2683833349452129
 21
-0.1341814476738535
 31
0.0
210
0.0
220
0.0
230
1.0
 40
0.9998096356
 41
2.678051653514577
 42
4.248695681264454
  0
ELLIPSE
  5
468
330
1F
100
AcDbEntity
  8
0
  6
Continuous
 62
     7
100
AcDbEllipse
 10
386.5299467442
 20
152.9012043016
 30
0.0
 11
0.134181447673825
 21
0.2683833349452129
 31
0.0
210
0.0
220
0.0
230
1.0
 40
0.9998096356
 41
5.176082279504929
 42
6.746726307254846
  0
ELLIPSE
  5
469
330
1F
100
AcDbEntity
  8
0
  6
Continuous
 62
     7
100
AcDbEllipse
 10
298.3430675086
 20
155.5012309608
 30
0.0
 11
0.3535803155654093
 21
-0.3535803155654662
 31
0.0
210
0.0
220
0.0
230
0.9999999999999998
 40
0.9999238505
 41
2.35623256640342
 42
3.926952740776454
  0
ELLIPSE
  5
46A
330
1F
100
AcDbEntity
  8
0
  6
Continuous
 62
     7
100
AcDbEllipse
 10
386.3430294302
 20
17.5012690392
 30
0.0
 11
-0.3535803155654662
 21
0.3535803155654413
 31
0.0
210
0.0
220
0.0
230
1.0
 40
0.9999238505
 41
2.356232566403166
 42
3.926952740776314
  0
LINE
  5
46B
330
1F
100
AcDbEntity
  8
0
  6
Continuous
 62
     7
100
AcDbLine
 10
297.8561387711
 20
17.5143212632
 30
0.0
 11
297.8561387711
 21
20.1012500017
 31
0.0
  0
LINE
  5
46C
330
1F
100
AcDbEntity
  8
0
  6
Continuous
 62
     7
100
AcDbLine
 10
297.8430484694
 20
17.5012309615
 30
0.0
 11
297.8430484694
 21
155.5012690385
 31
0.0
  0
LINE
  5
46D
330
1F
100
AcDbEntity
  8
0
  6
Continuous
 62
     7
100
AcDbLine
 10
386.3430675079
 20
17.00125
 30
0.0
 11
298.3430294309
 21
17.00125
 31
0.0
  0
LINE
  5
46E
330
1F
100
AcDbEntity
  8
0
  6
Continuous
 62
     7
100
AcDbLine
 10
300.9430484711
 20
17.0143403017
 30
0.0
 11
298.3561197326
 21
17.0143403017
 31
0.0
  0
LINE
  5
46F
330
1F
100
AcDbEntity
  8
0
  6
Continuous
 62
     7
100
AcDbLine
 10
298.3430294309
 20
156.00125
 30
0.0
 11
386.3430675079
 21
156.00125
 31
0.0
  0
LINE
  5
470
330
1F
100
AcDbEntity
  8
0
  6
Continuous
 62
     7
100
AcDbLine
 10
383.7430484676
 20
155.9881596983
 30
0.0
 11
386.3299772062
 21
155.9881596983
 31
0.0
  0
LINE
  5
471
330
1F
100
AcDbEntity
  8
0
  6
Continuous
 62
     7
100
AcDbLine
 10
386.8299581677
 20
155.4881787368
 30
0.0
 11
386.8299581677
 21
152.9012499983
 31
0.0
  0
LINE
  5
472
330
1F
100
AcDbEntity
  8
0
  6
Continuous
 62
     7
100
AcDbLine
 10
386.8430484694
 20
155.5012690385
 30
0.0
 11
386.8430484694
 21
17.5012309615
 31
0.0
  0
ELLIPSE
  5
473
330
1F
100
AcDbEntity
  8
0
  6
Continuous
 62
     7
100
AcDbEllipse
 10
345.3325669135
 20
143.0099013684
 30
0.0
 11
0.0
 21
0.5
 31
0.0
210
0.0
220
0.0
230
1.0
 40
0.0524077793
 41
0.0174532925213502
 42
1.570796326794953
  0
ELLIPSE
  5
474
330
1F
100
AcDbEntity
  8
0
  6
Continuous
 62
     7
100
AcDbEllipse
 10
339.3535300252
 20
143.0099013684
 30
0.0
 11
0.0
 21
0.5
 31
0.0
210
0.0
220
0.0
230
1.0
 40
0.0524077793
 41
4.712388980384634
 42
6.265732014660665
  0
ELLIPSE
  5
475
330
1F
100
AcDbEntity
  8
0
  6
Continuous
 62
     7
100
AcDbEllipse
 10
345.3325669135
 20
29.9925986316
 30
0.0
 11
0.0
 21
0.5
 31
0.0
210
0.0
220
0.0
230
1.0
 40
0.0524077793
 41
1.570796326794868
 42
3.124139361068443
  0
ELLIPSE
  5
476
330
1F
100
AcDbEntity
  8
0
  6
Continuous
 62
     7
100
AcDbEllipse
 10
339.3535300252
 20
29.9925986316
 30
0.0
 11
0.0
 21
0.5
 31
0.0
210
0.0
220
0.0
230
1.0
 40
0.0524077793
 41
3.159045946109241
 42
4.712388980384719
  0
ELLIPSE
  5
477
330
1F
100
AcDbEntity
  8
0
  6
Continuous
 62
     7
100
AcDbEllipse
 10
345.3325669135
 20
34.2099013684
 30
0.0
 11
0.0
 21
0.5
 31
0.0
210
0.0
220
0.0
230
1.0
 40
0.0524077793
 41
0.0174532925213505
 42
1.570796326794868
  0
ELLIPSE
  5
478
330
1F
100
AcDbEntity
  8
0
  6
Continuous
 62
     7
100
AcDbEllipse
 10
339.3535300252
 20
34.2099013684
 30
0.0
 11
0.0
 21
0.5
 31
0.0
210
0.0
220
0.0
230
1.0
 40
0.0524077793
 41
4.712388980384719
 42
6.265732014660665
  0
ELLIPSE
  5
479
330
1F
100
AcDbEntity
  8
0
  6
Continuous
 62
     7
100
AcDbEllipse
 10
345.3325669135
 20
138.7925986316
 30
0.0
 11
0.0
 21
0.5
 31
0.0
210
0.0
220
0.0
230
1.0
 40
0.0524077793
 41
1.570796326794953
 42
3.124139361068443
  0
ELLIPSE
  5
47A
330
1F
100
AcDbEntity
  8
0
  6
Continuous
 62
     7
100
AcDbEllipse
 10
339.3535300252
 20
138.7925986316
 30
0.0
 11
0.0
 21
0.5
 31
0.0
210
0.0
220
0.0
230
1.0
 40
0.0524077793
 41
3.159045946109241
 42
4.712388980384634
  0
LINE
  5
47B
330
1F
100
AcDbEntity
  8
0
  6
Continuous
 62
     7
100
AcDbLine
 10
345.3063630239
 20
143.0099013684
 30
0.0
 11
345.3063630239
 21
138.7925986316
 31
0.0
  0
LINE
  5
47C
330
1F
100
AcDbEntity
  8
0
  6
Continuous
 62
     7
100
AcDbLine
 10
339.3797339149
 20
138.7925986316
 30
0.0
 11
339.3797339149
 21
143.0099013684
 31
0.0
  0
LINE
  5
47D
330
1F
100
AcDbEntity
  8
0
  6
Continuous
 62
     7
100
AcDbLine
 10
345.3063630239
 20
34.2099013684
 30
0.0
 11
345.3063630239
 21
29.9925986316
 31
0.0
  0
LINE
  5
47E
330
1F
100
AcDbEntity
  8
0
  6
Continuous
 62
     7
100
AcDbLine
 10
339.3797339149
 20
29.9925986316
 30
0.0
 11
339.3797339149
 21
34.2099013684
 31
0.0
  0
LINE
  5
47F
330
1F
100
AcDbEntity
  8
0
  6
Continuous
 62
     7
100
AcDbLine
 10
299.7914737629
 20
69.00125
 30
0.0
 11
384.8946231759
 21
69.00125
 31
0.0
  0
LINE
  5
480
330
1F
100
AcDbEntity
  8
0
  6
Continuous
 62
     7
100
AcDbLine
 10
299.7914737629
 20
104.00125
 30
0.0
 11
384.8946231759
 21
104.00125
 31
0.0
  0
ELLIPSE
  5
481
330
1F
100
AcDbEntity
  8
0
  6
Continuous
 62
     7
100
AcDbEllipse
 10
298.3430675086
 20
17.5012690392
 30
0.0
 11
0.3535803155654094
 21
0.3535803155654413
 31
0.0
210
0.0
220
0.0
230
1.0
 40
0.9999238505
 41
2.356232566403206
 42
3.92695274077624
  0
ELLIPSE
  5
482
330
1F
100
AcDbEntity
  8
0
  6
Continuous
 62
     7
100
AcDbEllipse
 10
298.3561578103
 20
17.5143593409
 30
0.0
 11
0.3535803155654662
 21
0.3535803155654377
 31
0.0
210
0.0
220
0.0
230
0.9999999999999998
 40
0.9999238505
 41
2.356232566403326
 42
3.92695274077644
  0
CIRCLE
  5
483
330
1F
100
AcDbEntity
  8
0
  6
Continuous
 62
     7
100
AcDbCircle
 10
299.2430484694
 20
18.40125
 30
0.0
 40
0.5999999999999659
  0
ELLIPSE
  5
484
330
1F
100
AcDbEntity
  8
0
  6
Continuous
 62
     7
100
AcDbEllipse
 10
386.3299391285
 20
155.4881406591
 30
0.0
 11
-0.3535803155654662
 21
-0.3535803155654377
 31
0.0
210
0.0
220
0.0
230
0.9999999999999998
 40
0.9999238505
 41
2.356232566403283
 42
3.926952740776341
  0
CIRCLE
  5
485
330
1F
100
AcDbEntity
  8
0
  6
Continuous
 62
     7
100
AcDbCircle
 10
385.4430484694
 20
154.60125
 30
0.0
 40
0.5999999999999659
  0
ELLIPSE
  5
486
330
1F
100
AcDbEntity
  8
0
  6
Continuous
 62
     7
100
AcDbEllipse
 10
386.3430294302
 20
155.5012309608
 30
0.0
 11
-0.3535803155654662
 21
-0.3535803155654662
 31
0.0
210
0.0
220
0.0
230
0.9999999999999998
 40
0.9999238505
 41
2.356232566403223
 42
3.926952740776434
  0
LINE
  5
487
330
1F
100
AcDbEntity
  8
0
  6
Continuous
 62
     7
100
AcDbLine
 10
299.7914737629
 20
100.7871771958
 30
0.0
 11
384.8946231759
 21
100.7871771958
 31
0.0
  0
LINE
  5
488
330
1F
100
AcDbEntity
  8
0
  6
Continuous
 62
     7
100
AcDbLine
 10
384.8946231759
 20
72.2153228042
 30
0.0
 11
299.7914737629
 21
72.2153228042
 31
0.0
  0
ENDSEC
  0
SECTION
  2
OBJECTS
  0
DICTIONARY
  5
C
330
0
100
AcDbDictionary
281
     1
  3
ACAD_GROUP
350
D
  3
ACAD_LAYOUT
350
1A
  3
ACAD_MLINESTYLE
350
17
  3
ACAD_PLOTSETTINGS
350
19
  3
ACAD_PLOTSTYLENAME
350
E
  3
ACAD_SCALELIST
350
47
  3
DWGPROPS
350
489
  0
DICTIONARY
  5
D
102
{ACAD_REACTORS
330
C
102
}
330
C
100
AcDbDictionary
281
     1
  0
DICTIONARY
  5
1A
102
{ACAD_REACTORS
330
C
102
}
330
C
100
AcDbDictionary
281
     1
  3
Layout1
350
1E
  3
Layout2
350
26
  3
Model
350
22
  0
DICTIONARY
  5
17
102
{ACAD_REACTORS
330
C
102
}
330
C
100
AcDbDictionary
281
     1
  3
Standard
350
18
  0
DICTIONARY
  5
19
102
{ACAD_REACTORS
330
C
102
}
330
C
100
AcDbDictionary
281
     1
  0
ACDBDICTIONARYWDFLT
  5
E
102
{ACAD_REACTORS
330
C
102
}
330
C
100
AcDbDictionary
281
     1
  3
Normal
350
F
100
AcDbDictionaryWithDefault
340
F
  0
DICTIONARY
  5
47
102
{ACAD_REACTORS
330
C
102
}
330
C
100
AcDbDictionary
281
     1
  3
A0
350
48
  3
A1
350
49
  3
A2
350
4A
  3
A3
350
4B
  3
A4
350
4C
  3
A5
350
4D
  3
A6
350
4E
  3
A7
350
4F
  3
A8
350
50
  3
A9
350
51
  3
B0
350
52
  3
B1
350
53
  3
B2
350
54
  3
B3
350
55
  3
B4
350
56
  3
B5
350
57
  3
B6
350
58
  0
XRECORD
  5
489
102
{ACAD_REACTORS
330
C
102
}
330
C
100
AcDbXrecord
280
     1
  1
DWGPROPS COOKIE
  2

  3

  4

  6

  7

  8
grigorievsin
  9

300
=
301
=
302
=
303
=
304
=
305
=
306
=
307
=
308
=
309
=
 40
0.0
 41
2460398.396797153
 42
2460398.396798854
  1

 90
        0
  0
LAYOUT
  5
1E
102
{ACAD_REACTORS
330
1A
102
}
330
1A
100
AcDbPlotSettings
  1

  2
none_device
  4

  6

 40
0.0
 41
0.0
 42
0.0
 43
0.0
 44
0.0
 45
0.0
 46
0.0
 47
0.0
 48
0.0
 49
0.0
140
0.0
141
0.0
142
1.0
143
1.0
 70
   688
 72
     1
 73
     0
 74
     5
  7

 75
    16
147
1.0
148
0.0
149
0.0
100
AcDbLayout
  1
Layout1
 70
     1
 71
     1
 10
0.0
 20
0.0
 11
420.0
 21
297.0
 12
0.0
 22
0.0
 32
0.0
 14
1.0000000000E+20
 24
1.0000000000E+20
 34
1.0000000000E+20
 15
-1.0000000000E+20
 25
-1.0000000000E+20
 35
-1.0000000000E+20
146
0.0
 13
0.0
 23
0.0
 33
0.0
 16
1.0
 26
0.0
 36
0.0
 17
0.0
 27
1.0
 37
0.0
 76
     0
330
1B
  0
LAYOUT
  5
26
102
{ACAD_REACTORS
330
1A
102
}
330
1A
100
AcDbPlotSettings
  1

  2
none_device
  4

  6

 40
0.0
 41
0.0
 42
0.0
 43
0.0
 44
0.0
 45
0.0
 46
0.0
 47
0.0
 48
0.0
 49
0.0
140
0.0
141
0.0
142
1.0
143
1.0
 70
   688
 72
     1
 73
     0
 74
     5
  7

 75
    16
147
1.0
148
0.0
149
0.0
100
AcDbLayout
  1
Layout2
 70
     1
 71
     2
 10
0.0
 20
0.0
 11
0.0
 21
0.0
 12
0.0
 22
0.0
 32
0.0
 14
0.0
 24
0.0
 34
0.0
 15
0.0
 25
0.0
 35
0.0
146
0.0
 13
0.0
 23
0.0
 33
0.0
 16
1.0
 26
0.0
 36
0.0
 17
0.0
 27
1.0
 37
0.0
 76
     0
330
23
  0
LAYOUT
  5
22
102
{ACAD_REACTORS
330
1A
102
}
330
1A
100
AcDbPlotSettings
  1

  2
none_device
  4
Letter_(8.50_x_11.00_Inches)
  6

 40
6.35
 41
6.35
 42
6.35000508
 43
6.35000508
 44
215.9
 45
279.4
 46
0.0
 47
0.0
 48
0.0
 49
0.0
140
0.0
141
0.0
142
1.0
143
1.0
 70
  1712
 72
     1
 73
     0
 74
     0
  7

 75
     0
147
1.0
148
0.0
149
0.0
100
AcDbLayout
  1
Model
 70
     1
 71
     0
 10
0.0
 20
0.0
 11
420.0
 21
297.0
 12
0.0
 22
0.0
 32
0.0
 14
0.0
 24
0.0
 34
0.0
 15
420.0
 25
297.0
 35
0.0
146
0.0
 13
0.0
 23
0.0
 33
0.0
 16
1.0
 26
0.0
 36
0.0
 17
0.0
 27
1.0
 37
0.0
 76
     0
330
1F
331
29
  0
MLINESTYLE
  5
18
102
{ACAD_REACTORS
330
17
102
}
330
17
100
AcDbMlineStyle
  2
Standard
 70
     0
  3

 62
   256
 51
90.0
 52
90.0
 71
     2
 49
0.5
 62
   256
  6
BYLAYER
 49
-0.5
 62
   256
  6
BYLAYER
  0
ACDBPLACEHOLDER
  5
F
102
{ACAD_REACTORS
330
E
102
}
330
E
  0
SCALE
  5
48
102
{ACAD_REACTORS
330
47
102
}
330
47
100
AcDbScale
 70
     0
300
1:1
140
1.0
141
1.0
290
     1
  0
SCALE
  5
49
102
{ACAD_REACTORS
330
47
102
}
330
47
100
AcDbScale
 70
     0
300
1:2
140
1.0
141
2.0
290
     0
  0
SCALE
  5
4A
102
{ACAD_REACTORS
330
47
102
}
330
47
100
AcDbScale
 70
     0
300
1:4
140
1.0
141
4.0
290
     0
  0
SCALE
  5
4B
102
{ACAD_REACTORS
330
47
102
}
330
47
100
AcDbScale
 70
     0
300
1:5
140
1.0
141
5.0
290
     0
  0
SCALE
  5
4C
102
{ACAD_REACTORS
330
47
102
}
330
47
100
AcDbScale
 70
     0
300
1:8
140
1.0
141
8.0
290
     0
  0
SCALE
  5
4D
102
{ACAD_REACTORS
330
47
102
}
330
47
100
AcDbScale
 70
     0
300
1:10
140
1.0
141
10.0
290
     0
  0
SCALE
  5
4E
102
{ACAD_REACTORS
330
47
102
}
330
47
100
AcDbScale
 70
     0
300
1:16
140
1.0
141
16.0
290
     0
  0
SCALE
  5
4F
102
{ACAD_REACTORS
330
47
102
}
330
47
100
AcDbScale
 70
     0
300
1:20
140
1.0
141
20.0
290
     0
  0
SCALE
  5
50
102
{ACAD_REACTORS
330
47
102
}
330
47
100
AcDbScale
 70
     0
300
1:30
140
1.0
141
30.0
290
     0
  0
SCALE
  5
51
102
{ACAD_REACTORS
330
47
102
}
330
47
100
AcDbScale
 70
     0
300
1:40
140
1.0
141
40.0
290
     0
  0
SCALE
  5
52
102
{ACAD_REACTORS
330
47
102
}
330
47
100
AcDbScale
 70
     0
300
1:50
140
1.0
141
50.0
290
     0
  0
SCALE
  5
53
102
{ACAD_REACTORS
330
47
102
}
330
47
100
AcDbScale
 70
     0
300
1:100
140
1.0
141
100.0
290
     0
  0
SCALE
  5
54
102
{ACAD_REACTORS
330
47
102
}
330
47
100
AcDbScale
 70
     0
300
2:1
140
2.0
141
1.0
290
     0
  0
SCALE
  5
55
102
{ACAD_REACTORS
330
47
102
}
330
47
100
AcDbScale
 70
     0
300
4:1
140
4.0
141
1.0
290
     0
  0
SCALE
  5
56
102
{ACAD_REACTORS
330
47
102
}
330
47
100
AcDbScale
 70
     0
300
8:1
140
8.0
141
1.0
290
     0
  0
SCALE
  5
57
102
{ACAD_REACTORS
330
47
102
}
330
47
100
AcDbScale
 70
     0
300
10:1
140
10.0
141
1.0
290
     0
  0
SCALE
  5
58
102
{ACAD_REACTORS
330
47
102
}
330
47
100
AcDbScale
 70
     0
300
100:1
140
100.0
141
1.0
290
     0
  0
ENDSEC
  0
EOF
