  0
SECTION
  2
HEADER
  9
$ACADVER
  1
AC1015
  9
$ACADMAINTVER
 70
     6
  9
$DWGCODEPAGE
  3
ANSI_1251
  9
$INSBASE
 10
0.0
 20
0.0
 30
0.0
  9
$EXTMIN
 10
0.0
 20
0.0
 30
0.0
  9
$EXTMAX
 10
279.4
 20
215.9
 30
0.0
  9
$LIMMIN
 10
0.0
 20
0.0
  9
$LIMMAX
 10
279.4
 20
215.9
  9
$ORTHOMODE
 70
     0
  9
$REGENMODE
 70
     1
  9
$FILLMODE
 70
     1
  9
$QTEXTMODE
 70
     0
  9
$MIRRTEXT
 70
     1
  9
$LTSCALE
 40
1.0
  9
$ATTMODE
 70
     1
  9
$TEXTSIZE
 40
5.0
  9
$TRACEWID
 40
1.0
  9
$TEXTSTYLE
  7
Standard
  9
$CLAYER
  8
0
  9
$CELTYPE
  6
ByLayer
  9
$CECOLOR
 62
   256
  9
$CELTSCALE
 40
1.0
  9
$DISPSILH
 70
     0
  9
$DIMSCALE
 40
1.0
  9
$DIMASZ
 40
5.0
  9
$DIMEXO
 40
1.0
  9
$DIMDLI
 40
3.75
  9
$DIMRND
 40
0.0
  9
$DIMDLE
 40
0.0
  9
$DIMEXE
 40
1.0
  9
$DIMTP
 40
0.0
  9
$DIMTM
 40
0.0
  9
$DIMTXT
 40
5.0
  9
$DIMCEN
 40
2.5
  9
$DIMTSZ
 40
0.0
  9
$DIMTOL
 70
     0
  9
$DIMLIM
 70
     0
  9
$DIMTIH
 70
     1
  9
$DIMTOH
 70
     1
  9
$DIMSE1
 70
     0
  9
$DIMSE2
 70
     0
  9
$DIMTAD
 70
     1
  9
$DIMZIN
 70
     0
  9
$DIMBLK
  1

  9
$DIMASO
 70
     1
  9
$DIMSHO
 70
     1
  9
$DIMPOST
  1

  9
$DIMAPOST
  1

  9
$DIMALT
 70
     0
  9
$DIMALTD
 70
     3
  9
$DIMALTF
 40
0.0393700787
  9
$DIMLFAC
 40
50.0
  9
$DIMTOFL
 70
     1
  9
$DIMTVP
 40
0.0
  9
$DIMTIX
 70
     0
  9
$DIMSOXD
 70
     0
  9
$DIMSAH
 70
     0
  9
$DIMBLK1
  1

  9
$DIMBLK2
  1

  9
$DIMSTYLE
  2
ISO-25
  9
$DIMCLRD
 70
     0
  9
$DIMCLRE
 70
     0
  9
$DIMCLRT
 70
     0
  9
$DIMTFAC
 40
1.0
  9
$DIMGAP
 40
1.524
  9
$DIMJUST
 70
     0
  9
$DIMSD1
 70
     0
  9
$DIMSD2
 70
     0
  9
$DIMTOLJ
 70
     0
  9
$DIMTZIN
 70
     0
  9
$DIMALTZ
 70
     0
  9
$DIMALTTZ
 70
     0
  9
$DIMUPT
 70
     0
  9
$DIMDEC
 70
     2
  9
$DIMTDEC
 70
     2
  9
$DIMALTU
 70
     2
  9
$DIMALTTD
 70
     3
  9
$DIMTXSTY
  7
Standard
  9
$DIMAUNIT
 70
     0
  9
$DIMADEC
 70
     2
  9
$DIMALTRND
 40
0.0
  9
$DIMAZIN
 70
     0
  9
$DIMDSEP
 70
    44
  9
$DIMATFIT
 70
     3
  9
$DIMFRAC
 70
     0
  9
$DIMLDRBLK
  1

  9
$DIMLUNIT
 70
     2
  9
$DIMLWD
 70
    -2
  9
$DIMLWE
 70
    -2
  9
$DIMTMOVE
 70
     0
  9
$LUNITS
 70
     2
  9
$LUPREC
 70
     2
  9
$SKETCHINC
 40
1.0
  9
$FILLETRAD
 40
10.0
  9
$AUNITS
 70
     0
  9
$AUPREC
 70
     2
  9
$MENU
  1
.
  9
$ELEVATION
 40
0.0
  9
$PELEVATION
 40
0.0
  9
$THICKNESS
 40
0.0
  9
$LIMCHECK
 70
     0
  9
$CHAMFERA
 40
0.0
  9
$CHAMFERB
 40
0.0
  9
$CHAMFERC
 40
0.0
  9
$CHAMFERD
 40
0.0
  9
$SKPOLY
 70
     0
  9
$TDCREATE
 40
2457948.421271632
  9
$TDUCREATE
 40
2457948.296271632
  9
$TDUPDATE
 40
2457948.421272442
  9
$TDUUPDATE
 40
2457948.296272442
  9
$TDINDWG
 40
0.0000000116
  9
$TDUSRTIMER
 40
0.0000000116
  9
$USRTIMER
 70
     1
  9
$ANGBASE
 50
0.0
  9
$ANGDIR
 70
     0
  9
$PDMODE
 70
     0
  9
$PDSIZE
 40
-1.0
  9
$PLINEWID
 40
0.0
  9
$SPLFRAME
 70
     0
  9
$SPLINETYPE
 70
     6
  9
$SPLINESEGS
 70
     8
  9
$HANDSEED
  5
334
  9
$SURFTAB1
 70
     6
  9
$SURFTAB2
 70
     6
  9
$SURFTYPE
 70
     6
  9
$SURFU
 70
     6
  9
$SURFV
 70
     6
  9
$UCSBASE
  2

  9
$UCSNAME
  2

  9
$UCSORG
 10
0.0
 20
0.0
 30
0.0
  9
$UCSXDIR
 10
1.0
 20
0.0
 30
0.0
  9
$UCSYDIR
 10
0.0
 20
1.0
 30
0.0
  9
$UCSORTHOREF
  2

  9
$UCSORTHOVIEW
 70
     0
  9
$UCSORGTOP
 10
0.0
 20
0.0
 30
0.0
  9
$UCSORGBOTTOM
 10
0.0
 20
0.0
 30
0.0
  9
$UCSORGLEFT
 10
0.0
 20
0.0
 30
0.0
  9
$UCSORGRIGHT
 10
0.0
 20
0.0
 30
0.0
  9
$UCSORGFRONT
 10
0.0
 20
0.0
 30
0.0
  9
$UCSORGBACK
 10
0.0
 20
0.0
 30
0.0
  9
$PUCSBASE
  2

  9
$PUCSNAME
  2

  9
$PUCSORG
 10
0.0
 20
0.0
 30
0.0
  9
$PUCSXDIR
 10
1.0
 20
0.0
 30
0.0
  9
$PUCSYDIR
 10
0.0
 20
1.0
 30
0.0
  9
$PUCSORTHOREF
  2

  9
$PUCSORTHOVIEW
 70
     0
  9
$PUCSORGTOP
 10
0.0
 20
0.0
 30
0.0
  9
$PUCSORGBOTTOM
 10
0.0
 20
0.0
 30
0.0
  9
$PUCSORGLEFT
 10
0.0
 20
0.0
 30
0.0
  9
$PUCSORGRIGHT
 10
0.0
 20
0.0
 30
0.0
  9
$PUCSORGFRONT
 10
0.0
 20
0.0
 30
0.0
  9
$PUCSORGBACK
 10
0.0
 20
0.0
 30
0.0
  9
$USERI1
 70
     0
  9
$USERI2
 70
     0
  9
$USERI3
 70
     0
  9
$USERI4
 70
     0
  9
$USERI5
 70
     0
  9
$USERR1
 40
0.0
  9
$USERR2
 40
0.0
  9
$USERR3
 40
0.0
  9
$USERR4
 40
0.0
  9
$USERR5
 40
0.0
  9
$WORLDVIEW
 70
     1
  9
$SHADEDGE
 70
     3
  9
$SHADEDIF
 70
    70
  9
$TILEMODE
 70
     1
  9
$MAXACTVP
 70
    64
  9
$PINSBASE
 10
0.0
 20
0.0
 30
0.0
  9
$PLIMCHECK
 70
     0
  9
$PEXTMIN
 10
1.0000000000E+20
 20
1.0000000000E+20
 30
1.0000000000E+20
  9
$PEXTMAX
 10
-1.0000000000E+20
 20
-1.0000000000E+20
 30
-1.0000000000E+20
  9
$PLIMMIN
 10
0.0
 20
0.0
  9
$PLIMMAX
 10
420.0
 20
297.0
  9
$UNITMODE
 70
     0
  9
$VISRETAIN
 70
     1
  9
$PLINEGEN
 70
     0
  9
$PSLTSCALE
 70
     1
  9
$TREEDEPTH
 70
  3020
  9
$CMLSTYLE
  2
Standard
  9
$CMLJUST
 70
     0
  9
$CMLSCALE
 40
20.0
  9
$PROXYGRAPHICS
 70
     1
  9
$MEASUREMENT
 70
     1
  9
$CELWEIGHT
370
    -1
  9
$ENDCAPS
280
     0
  9
$JOINSTYLE
280
     0
  9
$LWDISPLAY
290
     1
  9
$INSUNITS
 70
     4
  9
$HYPERLINKBASE
  1

  9
$STYLESHEET
  1

  9
$XEDIT
290
     1
  9
$CEPSNTYPE
380
     0
  9
$PSTYLEMODE
290
     1
  9
$FINGERPRINTGUID
  2
{F192F97F-DAAF-4332-8C5D-B030E0FC5CF3}
  9
$VERSIONGUID
  2
{FAEB1C32-E019-11D5-929B-00C0DF256EC4}
  9
$EXTNAMES
290
     1
  9
$PSVPSCALE
 40
0.0
  9
$OLESTARTUP
290
     0
  0
ENDSEC
  0
SECTION
  2
CLASSES
  0
CLASS
  1
ACDBDICTIONARYWDFLT
  2
AcDbDictionaryWithDefault
  3
ObjectDBX Classes
 90
        0
280
     0
281
     0
  0
CLASS
  1
VISUALSTYLE
  2
AcDbVisualStyle
  3
ObjectDBX Classes
 90
     4095
280
     0
281
     0
  0
CLASS
  1
MATERIAL
  2
AcDbMaterial
  3
ObjectDBX Classes
 90
     1153
280
     0
281
     0
  0
CLASS
  1
SCALE
  2
AcDbScale
  3
ObjectDBX Classes
 90
     1153
280
     0
281
     0
  0
CLASS
  1
SUN
  2
AcDbSun
  3
SCENEOE
 90
     1153
280
     0
281
     0
  0
CLASS
  1
ACDBPLACEHOLDER
  2
AcDbPlaceHolder
  3
ObjectDBX Classes
 90
        0
280
     0
281
     0
  0
CLASS
  1
LAYOUT
  2
AcDbLayout
  3
ObjectDBX Classes
 90
        0
280
     0
281
     0
  0
ENDSEC
  0
SECTION
  2
TABLES
  0
TABLE
  2
VPORT
  5
8
330
0
100
AcDbSymbolTable
 70
     1
  0
VPORT
  5
29
330
8
100
AcDbSymbolTableRecord
100
AcDbViewportTableRecord
  2
*Active
 70
     0
 10
0.0
 20
0.0
 11
1.0
 21
1.0
 12
139.7
 22
107.95
 13
0.0
 23
0.0
 14
10.0
 24
10.0
 15
10.0
 25
10.0
 16
0.0
 26
0.0
 36
1.0
 17
0.0
 27
0.0
 37
0.0
 40
215.9
 41
1.2941176471
 42
50.0
 43
0.0
 44
0.0
 50
0.0
 51
0.0
 71
     0
 72
  2000
 73
     1
 74
     3
 75
     0
 76
     0
 77
     0
 78
     0
281
     0
 65
     1
110
0.0
120
0.0
130
0.0
111
1.0
121
0.0
131
0.0
112
0.0
122
1.0
132
0.0
 79
     0
146
0.0
  0
ENDTAB
  0
TABLE
  2
LTYPE
  5
5
330
0
100
AcDbSymbolTable
 70
     6
  0
LTYPE
  5
14
330
5
100
AcDbSymbolTableRecord
100
AcDbLinetypeTableRecord
  2
ByBlock
 70
     0
  3

 72
    65
 73
     0
 40
0.0
  0
LTYPE
  5
15
330
5
100
AcDbSymbolTableRecord
100
AcDbLinetypeTableRecord
  2
ByLayer
 70
     0
  3

 72
    65
 73
     0
 40
0.0
  0
LTYPE
  5
16
330
5
100
AcDbSymbolTableRecord
100
AcDbLinetypeTableRecord
  2
Continuous
 70
     0
  3
Solid line
 72
    65
 73
     0
 40
0.0
  0
LTYPE
  5
6A
330
5
100
AcDbSymbolTableRecord
100
AcDbLinetypeTableRecord
  2
HIDDEN
 70
     0
  3
Hidden __ __ __ __ __ __ __ __ __ __ __ __ __ __
 72
    65
 73
     2
 40
1.905
 49
1.27
 74
     0
 49
-0.635
 74
     0
  0
LTYPE
  5
6B
330
5
100
AcDbSymbolTableRecord
100
AcDbLinetypeTableRecord
  2
PHANTOM
 70
     0
  3
Phantom ______  __  __  ______  __  __  ______
 72
    65
 73
     6
 40
12.7
 49
6.35
 74
     0
 49
-1.27
 74
     0
 49
1.27
 74
     0
 49
-1.27
 74
     0
 49
1.27
 74
     0
 49
-1.27
 74
     0
  0
LTYPE
  5
6C
330
5
100
AcDbSymbolTableRecord
100
AcDbLinetypeTableRecord
  2
CENTER
 70
     0
  3
Center ____ _ ____ _ ____ _ ____ _ ____ _ ____
 72
    65
 73
     4
 40
10.16
 49
6.35
 74
     0
 49
-1.27
 74
     0
 49
1.27
 74
     0
 49
-1.27
 74
     0
  0
LTYPE
  5
6D
330
5
100
AcDbSymbolTableRecord
100
AcDbLinetypeTableRecord
  2
CENTERX2
 70
     0
  3
Center (2x) ________  __  ________  __  _____
 72
    65
 73
     4
 40
20.32
 49
12.7
 74
     0
 49
-2.54
 74
     0
 49
2.54
 74
     0
 49
-2.54
 74
     0
  0
LTYPE
  5
6E
330
5
100
AcDbSymbolTableRecord
100
AcDbLinetypeTableRecord
  2
DOT2
 70
     0
  3
Dot (.5x) ........................................
 72
    65
 73
     2
 40
0.635
 49
0.0
 74
     0
 49
-0.635
 74
     0
  0
ENDTAB
  0
TABLE
  2
LAYER
  5
2
330
0
100
AcDbSymbolTable
 70
     1
  0
LAYER
  5
10
330
2
100
AcDbSymbolTableRecord
100
AcDbLayerTableRecord
  2
0
 70
     0
 62
     7
  6
Continuous
370
    -3
390
F
  0
ENDTAB
  0
TABLE
  2
STYLE
  5
3
330
0
100
AcDbSymbolTable
 70
     2
  0
STYLE
  5
11
330
3
100
AcDbSymbolTableRecord
100
AcDbTextStyleTableRecord
  2
Standard
 70
     0
 40
0.0
 41
1.0
 50
0.0
 71
     0
 42
5.0
  3
txt
  4

  0
STYLE
  5
A1
330
3
100
AcDbSymbolTableRecord
100
AcDbTextStyleTableRecord
  2
SLDTEXTSTYLE0
 70
     0
 40
0.0
 41
0.7
 50
0.0
 71
     0
 42
5.0
  3
TXT
  4

  0
ENDTAB
  0
TABLE
  2
VIEW
  5
6
330
0
100
AcDbSymbolTable
 70
     0
  0
ENDTAB
  0
TABLE
  2
UCS
  5
7
330
0
100
AcDbSymbolTable
 70
     0
  0
ENDTAB
  0
TABLE
  2
APPID
  5
9
330
0
100
AcDbSymbolTable
 70
     1
  0
APPID
  5
12
330
9
100
AcDbSymbolTableRecord
100
AcDbRegAppTableRecord
  2
ACAD
 70
     0
  0
ENDTAB
  0
TABLE
  2
DIMSTYLE
  5
A
330
0
100
AcDbSymbolTable
 70
     3
100
AcDbDimStyleTable
  0
DIMSTYLE
105
27
330
A
100
AcDbSymbolTableRecord
100
AcDbDimStyleTableRecord
  2
ISO-25
 70
     0
 41
2.5
 42
0.625
 43
3.75
 44
1.25
 73
     0
 74
     0
 77
     1
 78
     8
140
2.5
141
2.5
143
0.0393700787
147
0.625
171
     3
172
     1
178
     0
271
     2
272
     2
274
     3
278
    44
283
     0
284
     8
340
11
  0
DIMSTYLE
105
A2
102
{ACAD_REACTORS
330
A0
330
AC
330
B6
330
140
330
32A
102
}
330
A
100
AcDbSymbolTableRecord
100
AcDbDimStyleTableRecord
  2
SLDDIMSTYLE0
 70
     0
 41
5.0
 44
0.0
 45
0.000000001
 73
     0
 74
     0
 77
     1
 78
    12
 79
     3
140
28.0
147
7.0
173
     1
178
     0
271
     2
272
     2
276
     2
284
    12
340
A1
  0
DIMSTYLE
105
14B
102
{ACAD_REACTORS
330
14A
102
}
330
A
100
AcDbSymbolTableRecord
100
AcDbDimStyleTableRecord
  2
SLDDIMSTYLE1
 70
     0
 41
5.0
 44
0.0
 45
0.000000001
 73
     0
 74
     0
 77
     1
 78
    12
 79
     3
140
28.0
147
7.0
173
     1
178
     0
271
     0
272
     0
276
     2
284
    12
340
A1
  0
ENDTAB
  0
TABLE
  2
BLOCK_RECORD
  5
1
330
0
100
AcDbSymbolTable
 70
     7
  0
BLOCK_RECORD
  5
1F
330
1
100
AcDbSymbolTableRecord
100
AcDbBlockTableRecord
  2
*Model_Space
340
22
  0
BLOCK_RECORD
  5
1B
330
1
100
AcDbSymbolTableRecord
100
AcDbBlockTableRecord
  2
*Paper_Space
340
1E
  0
BLOCK_RECORD
  5
23
330
1
100
AcDbSymbolTableRecord
100
AcDbBlockTableRecord
  2
*Paper_Space0
340
26
  0
BLOCK_RECORD
  5
A3
330
1
100
AcDbSymbolTableRecord
100
AcDbBlockTableRecord
  2
_D
340
0
  0
BLOCK_RECORD
  5
AD
330
1
100
AcDbSymbolTableRecord
100
AcDbBlockTableRecord
  2
_D_1
340
0
  0
BLOCK_RECORD
  5
B7
330
1
100
AcDbSymbolTableRecord
100
AcDbBlockTableRecord
  2
_D_2
340
0
  0
BLOCK_RECORD
  5
141
330
1
100
AcDbSymbolTableRecord
100
AcDbBlockTableRecord
  2
_D_3
340
0
  0
BLOCK_RECORD
  5
14C
330
1
100
AcDbSymbolTableRecord
100
AcDbBlockTableRecord
  2
_D_4
340
0
  0
BLOCK_RECORD
  5
32B
330
1
100
AcDbSymbolTableRecord
100
AcDbBlockTableRecord
  2
_D_5
340
0
  0
ENDTAB
  0
ENDSEC
  0
SECTION
  2
BLOCKS
  0
BLOCK
  5
20
330
1F
100
AcDbEntity
  8
0
100
AcDbBlockBegin
  2
*Model_Space
 70
     0
 10
0.0
 20
0.0
 30
0.0
  3
*Model_Space
  1
*Model_Space
  0
ENDBLK
  5
21
330
1F
100
AcDbEntity
  8
0
100
AcDbBlockEnd
  0
BLOCK
  5
1C
330
1B
100
AcDbEntity
 67
     1
  8
0
100
AcDbBlockBegin
  2
*Paper_Space
 70
     0
 10
0.0
 20
0.0
 30
0.0
  3
*Paper_Space
  1
*Paper_Space
  0
ENDBLK
  5
1D
330
1B
100
AcDbEntity
 67
     1
  8
0
100
AcDbBlockEnd
  0
BLOCK
  5
24
330
23
100
AcDbEntity
  8
0
100
AcDbBlockBegin
  2
*Paper_Space0
 70
     0
 10
0.0
 20
0.0
 30
0.0
  3
*Paper_Space0
  1
*Paper_Space0
  0
ENDBLK
  5
25
330
23
100
AcDbEntity
  8
0
100
AcDbBlockEnd
  0
BLOCK
  5
A4
330
A3
100
AcDbEntity
  8
0
100
AcDbBlockBegin
  2
_D
 70
     0
 10
0.0
 20
0.0
 30
0.0
  3
_D
  1
_D
  0
SOLID
  5
A6
330
A3
100
AcDbEntity
  8
0
  6
Continuous
 62
     7
370
     0
100
AcDbTrace
 10
-395.8585685998
 20
2488.5095730869
 30
0.0
 11
-367.8585685998
 21
2484.2018807792
 31
0.0
 12
-367.8585685998
 22
2492.8172653946
 32
0.0
 13
-367.8585685998
 23
2492.8172653946
 33
0.0
  0
SOLID
  5
A7
330
A3
100
AcDbEntity
  8
0
  6
Continuous
 62
     7
370
     0
100
AcDbTrace
 10
404.1414314003
 20
2488.5095730869
 30
0.0
 11
376.1414314003
 21
2492.8172653946
 31
0.0
 12
376.1414314003
 22
2484.2018807792
 32
0.0
 13
376.1414314003
 23
2484.2018807792
 33
0.0
  0
LINE
  5
A8
330
A3
100
AcDbEntity
  8
0
  6
Continuous
 62
     7
370
     0
100
AcDbLine
 10
-395.8585685998
 20
2581.5095980869
 30
0.0
 11
-395.8585685998
 21
2487.5095730869
 31
0.0
  0
LINE
  5
A9
330
A3
100
AcDbEntity
  8
0
  6
Continuous
 62
     7
370
     0
100
AcDbLine
 10
404.1414314003
 20
2581.5095980869
 30
0.0
 11
404.1414314003
 21
2487.5095730869
 31
0.0
  0
LINE
  5
AA
330
A3
100
AcDbEntity
  8
0
  6
Continuous
 62
     7
370
     0
100
AcDbLine
 10
-395.8585685998
 20
2488.5095730869
 30
0.0
 11
404.1414314003
 21
2488.5095730869
 31
0.0
  0
MTEXT
  5
AB
330
A3
100
AcDbEntity
  8
0
  6
Continuous
 62
     7
370
     0
100
AcDbMText
 10
-43.0775633622
 20
2524.6034707318
 30
0.0
 40
28.0
 41
0.0
 71
     1
 72
     1
  1
800
  7
SLDTEXTSTYLE0
 73
     1
 44
1.0
  0
ENDBLK
  5
A5
330
A3
100
AcDbEntity
  8
0
100
AcDbBlockEnd
  0
BLOCK
  5
AE
330
AD
100
AcDbEntity
  8
0
100
AcDbBlockBegin
  2
_D_1
 70
     0
 10
0.0
 20
0.0
 30
0.0
  3
_D_1
  1
_D_1
  0
SOLID
  5
B0
330
AD
100
AcDbEntity
  8
0
  6
Continuous
 62
     7
370
     0
100
AcDbTrace
 10
-483.8586717526
 20
2582.5095980869
 30
0.0
 11
-479.5509794449
 21
2610.5095980869
 31
0.0
 12
-488.1663640603
 22
2610.5095980869
 32
0.0
 13
-488.1663640603
 23
2610.5095980869
 33
0.0
  0
SOLID
  5
B1
330
AD
100
AcDbEntity
  8
0
  6
Continuous
 62
     7
370
     0
100
AcDbTrace
 10
-483.8586717526
 20
4382.5095980869
 30
0.0
 11
-488.1663640603
 21
4354.5095980869
 31
0.0
 12
-479.5509794449
 22
4354.5095980869
 32
0.0
 13
-479.5509794449
 23
4354.5095980869
 33
0.0
  0
LINE
  5
B2
330
AD
100
AcDbEntity
  8
0
  6
Continuous
 62
     7
370
     0
100
AcDbLine
 10
-396.8585685998
 20
2582.5095980869
 30
0.0
 11
-484.8586717526
 21
2582.5095980869
 31
0.0
  0
LINE
  5
B3
330
AD
100
AcDbEntity
  8
0
  6
Continuous
 62
     7
370
     0
100
AcDbLine
 10
-396.8585685998
 20
4382.5095980869
 30
0.0
 11
-484.8586717526
 21
4382.5095980869
 31
0.0
  0
LINE
  5
B4
330
AD
100
AcDbEntity
  8
0
  6
Continuous
 62
     7
370
     0
100
AcDbLine
 10
-483.8586717526
 20
2582.5095980869
 30
0.0
 11
-483.8586717526
 21
4382.5095980869
 31
0.0
  0
MTEXT
  5
B5
330
AD
100
AcDbEntity
  8
0
  6
Continuous
 62
     7
370
     0
100
AcDbMText
 10
-519.9525693976
 20
3470.962365795
 30
0.0
 40
28.0
 41
0.0
 71
     1
 72
     1
  1
1800
  7
SLDTEXTSTYLE0
 11
5.834392068008182E-15
 21
1.0
 31
0.0
 73
     1
 44
1.0
  0
ENDBLK
  5
AF
330
AD
100
AcDbEntity
  8
0
100
AcDbBlockEnd
  0
BLOCK
  5
B8
330
B7
100
AcDbEntity
  8
0
100
AcDbBlockBegin
  2
_D_2
 70
     0
 10
0.0
 20
0.0
 30
0.0
  3
_D_2
  1
_D_2
  0
SOLID
  5
BA
330
B7
100
AcDbEntity
  8
0
  6
Continuous
 62
     7
370
     0
100
AcDbTrace
 10
-555.7487365073
 20
4582.5095980869
 30
0.0
 11
-560.056428815
 21
4554.5095980869
 31
0.0
 12
-551.4410441996
 22
4554.5095980869
 32
0.0
 13
-551.4410441996
 23
4554.5095980869
 33
0.0
  0
SOLID
  5
BB
330
B7
100
AcDbEntity
  8
0
  6
Continuous
 62
     7
370
     0
100
AcDbTrace
 10
-555.7487365073
 20
2582.5095980869
 30
0.0
 11
-551.4410441996
 21
2610.5095980869
 31
0.0
 12
-560.056428815
 22
2610.5095980869
 32
0.0
 13
-560.056428815
 23
2610.5095980869
 33
0.0
  0
LINE
  5
BC
330
B7
100
AcDbEntity
  8
0
  6
Continuous
 62
     7
370
     0
100
AcDbLine
 10
-396.8585685998
 20
4582.5095980869
 30
0.0
 11
-556.7487365073
 21
4582.5095980869
 31
0.0
  0
LINE
  5
BD
330
B7
100
AcDbEntity
  8
0
  6
Continuous
 62
     7
370
     0
100
AcDbLine
 10
-396.8585685998
 20
2582.5095980869
 30
0.0
 11
-556.7487365073
 21
2582.5095980869
 31
0.0
  0
LINE
  5
BE
330
B7
100
AcDbEntity
  8
0
  6
Continuous
 62
     7
370
     0
100
AcDbLine
 10
-555.7487365073
 20
4582.5095980869
 30
0.0
 11
-555.7487365073
 21
2582.5095980869
 31
0.0
  0
MTEXT
  5
BF
330
B7
100
AcDbEntity
  8
0
  6
Continuous
 62
     7
370
     0
100
AcDbMText
 10
-591.8426341522
 20
3467.9679215737
 30
0.0
 40
28.0
 41
0.0
 71
     1
 72
     1
  1
2000
  7
SLDTEXTSTYLE0
 11
-8.269460797427576E-16
 21
1.0
 31
0.0
 73
     1
 44
1.0
  0
ENDBLK
  5
B9
330
B7
100
AcDbEntity
  8
0
100
AcDbBlockEnd
  0
BLOCK
  5
142
330
141
100
AcDbEntity
  8
0
100
AcDbBlockBegin
  2
_D_3
 70
     0
 10
0.0
 20
0.0
 30
0.0
  3
_D_3
  1
_D_3
  0
SOLID
  5
144
330
141
100
AcDbEntity
  8
0
  6
Continuous
 62
     7
370
     0
100
AcDbTrace
 10
-345.8585685997
 20
1561.4310663771
 30
0.0
 11
-317.8585685997
 21
1557.1233740694
 31
0.0
 12
-317.8585685997
 22
1565.7387586848
 32
0.0
 13
-317.8585685997
 23
1565.7387586848
 33
0.0
  0
SOLID
  5
145
330
141
100
AcDbEntity
  8
0
  6
Continuous
 62
     7
370
     0
100
AcDbTrace
 10
354.1414314003
 20
1561.4310663771
 30
0.0
 11
326.1414314003
 21
1565.7387586848
 31
0.0
 12
326.1414314003
 22
1557.1233740694
 32
0.0
 13
326.1414314003
 23
1557.1233740694
 33
0.0
  0
LINE
  5
146
330
141
100
AcDbEntity
  8
0
  6
Continuous
 62
     7
370
     0
100
AcDbLine
 10
-345.8585685997
 20
1666.4310663772
 30
0.0
 11
-345.8585685997
 21
1560.4310663771
 31
0.0
  0
LINE
  5
147
330
141
100
AcDbEntity
  8
0
  6
Continuous
 62
     7
370
     0
100
AcDbLine
 10
354.1414314003
 20
1666.4310663771
 30
0.0
 11
354.1414314003
 21
1560.4310663771
 31
0.0
  0
LINE
  5
148
330
141
100
AcDbEntity
  8
0
  6
Continuous
 62
     7
370
     0
100
AcDbLine
 10
-345.8585685997
 20
1561.4310663771
 30
0.0
 11
354.1414314003
 21
1561.4310663771
 31
0.0
  0
MTEXT
  5
149
330
141
100
AcDbEntity
  8
0
  6
Continuous
 62
     7
370
     0
100
AcDbMText
 10
-32.5195187341
 20
1597.524964022
 30
0.0
 40
28.0
 41
0.0
 71
     1
 72
     1
  1
700
  7
SLDTEXTSTYLE0
 73
     1
 44
1.0
  0
ENDBLK
  5
143
330
141
100
AcDbEntity
  8
0
100
AcDbBlockEnd
  0
BLOCK
  5
14D
330
14C
100
AcDbEntity
  8
0
100
AcDbBlockBegin
  2
_D_4
 70
     0
 10
0.0
 20
0.0
 30
0.0
  3
_D_4
  1
_D_4
  0
SOLID
  5
14F
330
14C
100
AcDbEntity
  8
0
  6
Continuous
 62
     7
370
     0
100
AcDbTrace
 10
-477.8586717526
 20
2227.1810663772
 30
0.0
 11
-482.1663640603
 21
2199.1810663772
 31
0.0
 12
-473.5509794449
 22
2199.1810663772
 32
0.0
 13
-473.5509794449
 23
2199.1810663772
 33
0.0
  0
SOLID
  5
150
330
14C
100
AcDbEntity
  8
0
  6
Continuous
 62
     7
370
     0
100
AcDbTrace
 10
-477.8586717526
 20
1667.4310663772
 30
0.0
 11
-473.5509794449
 21
1695.4310663772
 31
0.0
 12
-482.1663640603
 22
1695.4310663772
 32
0.0
 13
-482.1663640603
 23
1695.4310663772
 33
0.0
  0
LINE
  5
151
330
14C
100
AcDbEntity
  8
0
  6
Continuous
 62
     7
370
     0
100
AcDbLine
 10
-346.6085685998
 20
2227.1810663772
 30
0.0
 11
-478.8586717526
 21
2227.1810663772
 31
0.0
  0
LINE
  5
152
330
14C
100
AcDbEntity
  8
0
  6
Continuous
 62
     7
370
     0
100
AcDbLine
 10
-346.8585685997
 20
1667.4310663772
 30
0.0
 11
-478.8586717526
 21
1667.4310663772
 31
0.0
  0
LINE
  5
153
330
14C
100
AcDbEntity
  8
0
  6
Continuous
 62
     7
370
     0
100
AcDbLine
 10
-477.8586717526
 20
2227.1810663772
 30
0.0
 11
-477.8586717526
 21
1667.4310663772
 31
0.0
  0
MTEXT
  5
154
330
14C
100
AcDbEntity
  8
0
  6
Continuous
 62
     7
370
     0
100
AcDbMText
 10
-513.9525693976
 20
1931.4857484941
 30
0.0
 40
28.0
 41
0.0
 71
     1
 72
     1
  1
560
  7
SLDTEXTSTYLE0
 11
-7.044195017643634E-15
 21
1.0
 31
0.0
 73
     1
 44
1.0
  0
ENDBLK
  5
14E
330
14C
100
AcDbEntity
  8
0
100
AcDbBlockEnd
  0
BLOCK
  5
32C
330
32B
100
AcDbEntity
  8
0
100
AcDbBlockBegin
  2
_D_5
 70
     0
 10
0.0
 20
0.0
 30
0.0
  3
_D_5
  1
_D_5
  0
SOLID
  5
32E
330
32B
100
AcDbEntity
  8
0
  6
Continuous
 62
     7
370
     0
100
AcDbTrace
 10
782.658033384
 20
2500.5095730869
 30
0.0
 11
810.658033384
 21
2496.2018807792
 31
0.0
 12
810.658033384
 22
2504.8172653946
 32
0.0
 13
810.658033384
 23
2504.8172653946
 33
0.0
  0
SOLID
  5
32F
330
32B
100
AcDbEntity
  8
0
  6
Continuous
 62
     7
370
     0
100
AcDbTrace
 10
1382.6580333841
 20
2500.5095730869
 30
0.0
 11
1354.6580333841
 21
2504.8172653946
 31
0.0
 12
1354.6580333841
 22
2496.2018807792
 32
0.0
 13
1354.6580333841
 23
2496.2018807792
 33
0.0
  0
LINE
  5
330
330
32B
100
AcDbEntity
  8
0
  6
Continuous
 62
     7
370
     0
100
AcDbLine
 10
782.658033384
 20
2581.5095980869
 30
0.0
 11
782.658033384
 21
2499.5095730869
 31
0.0
  0
LINE
  5
331
330
32B
100
AcDbEntity
  8
0
  6
Continuous
 62
     7
370
     0
100
AcDbLine
 10
1382.6580333841
 20
2581.5095980869
 30
0.0
 11
1382.6580333841
 21
2499.5095730869
 31
0.0
  0
LINE
  5
332
330
32B
100
AcDbEntity
  8
0
  6
Continuous
 62
     7
370
     0
100
AcDbLine
 10
782.658033384
 20
2500.5095730869
 30
0.0
 11
1382.6580333841
 21
2500.5095730869
 31
0.0
  0
MTEXT
  5
333
330
32B
100
AcDbEntity
  8
0
  6
Continuous
 62
     7
370
     0
100
AcDbMText
 10
1047.9080208212
 20
2536.6034707318
 30
0.0
 40
28.0
 41
0.0
 71
     1
 72
     1
  1
600
  7
SLDTEXTSTYLE0
 73
     1
 44
1.0
  0
ENDBLK
  5
32D
330
32B
100
AcDbEntity
  8
0
100
AcDbBlockEnd
  0
ENDSEC
  0
SECTION
  2
ENTITIES
  0
LINE
  5
6F
330
1F
100
AcDbEntity
  8
0
  6
Continuous
 62
     7
370
    15
100
AcDbLine
 10
-194.3585708293
 20
3519.5095967315
 30
0.0
 11
-194.3585708293
 21
3446.5095978044
 31
0.0
  0
LWPOLYLINE
  5
70
330
1F
100
AcDbEntity
  8
0
  6
Continuous
 62
     7
370
    15
100
AcDbPolyline
 90
       10
 70
   128
 43
0.0
 10
-194.3585708293
 20
3446.5095978044
 10
-194.3661629709
 20
3446.5171936713
 10
-194.388723329
 20
3446.5397503041
 10
-194.4255589995
 20
3446.5765859745
 10
-194.4755449447
 20
3446.626575645
 10
-194.5371761474
 20
3446.6882031225
 10
-194.6085676107
 20
3446.759598311
 10
-194.6875586662
 20
3446.8385893665
 10
-194.7717427763
 20
3446.9227734767
 10
-194.8585718426
 20
3447.0095988177
  0
LINE
  5
71
330
1F
100
AcDbEntity
  8
0
  6
Continuous
 62
     7
370
    15
100
AcDbLine
 10
-214.358566657
 20
3446.5095978044
 30
0.0
 11
-214.358566657
 21
3519.5095967315
 31
0.0
  0
LWPOLYLINE
  5
72
330
1F
100
AcDbEntity
  8
0
  6
Continuous
 62
     7
370
    15
100
AcDbPolyline
 90
       10
 70
   128
 43
0.0
 10
-214.358566657
 20
3446.5095978044
 10
-214.3509745154
 20
3446.5171936713
 10
-214.3284141573
 20
3446.5397503041
 10
-214.2915784868
 20
3446.5765859745
 10
-214.2415925416
 20
3446.626575645
 10
-214.1799613389
 20
3446.6882031225
 10
-214.1085698756
 20
3446.759598311
 10
-214.0295788202
 20
3446.8385893665
 10
-213.94539471
 20
3446.9227734767
 10
-213.8585656437
 20
3447.0095988177
  0
ARC
  5
73
330
1F
100
AcDbEntity
  8
0
  6
Continuous
 62
     7
370
    15
100
AcDbCircle
 10
-204.3585685997
 20
3519.5095980867
 30
0.0
 40
10.0
100
AcDbArc
 50
0.0
 51
180.0
  0
LINE
  5
74
330
1F
100
AcDbEntity
  8
0
  6
Continuous
 62
     7
370
    15
100
AcDbLine
 10
-188.3585661206
 20
3427.5095984153
 30
0.0
 11
-220.3585713658
 21
3427.5095984153
 31
0.0
  0
LINE
  5
75
330
1F
100
AcDbEntity
  8
0
  6
Continuous
 62
     7
370
    15
100
AcDbLine
 10
-187.3585715446
 20
3536.5096013807
 30
0.0
 11
-187.3585715446
 21
3428.5095976479
 31
0.0
  0
LINE
  5
76
330
1F
100
AcDbEntity
  8
0
  6
Continuous
 62
     7
370
    15
100
AcDbLine
 10
-214.358566657
 20
3436.5095980279
 30
0.0
 11
-214.358566657
 21
3446.0095986538
 31
0.0
  0
LWPOLYLINE
  5
77
330
1F
100
AcDbEntity
  8
0
  6
Continuous
 62
     7
370
    15
100
AcDbPolyline
 90
        9
 70
   128
 43
0.0
 10
-213.8585656437
 20
3445.5095976405
 10
-213.9561160955
 20
3445.6071425043
 10
-214.0499114546
 20
3445.7009397261
 10
-214.1363530907
 20
3445.7873832248
 10
-214.2121254954
 20
3445.8631519042
 10
-214.2743005904
 20
3445.9253325872
 10
-214.3205090913
 20
3445.9715373628
 10
-214.3489628586
 20
3445.9999911301
 10
-214.358566657
 20
3446.0095986538
  0
LWPOLYLINE
  5
78
330
1F
100
AcDbEntity
  8
0
  6
Continuous
 62
     7
370
    15
100
AcDbPolyline
 90
       10
 70
   128
 43
0.0
 10
-194.3585708293
 20
3436.0095988773
 10
-194.3661629709
 20
3436.0171947442
 10
-194.388723329
 20
3436.0397513769
 10
-194.4255589995
 20
3436.0765851848
 10
-194.4755449447
 20
3436.1265767179
 10
-194.5371761474
 20
3436.1882041953
 10
-194.6085676107
 20
3436.2595975213
 10
-194.6875586662
 20
3436.3385885768
 10
-194.7717427763
 20
3436.4227745496
 10
-194.8585718426
 20
3436.5095980279
  0
LINE
  5
79
330
1F
100
AcDbEntity
  8
0
  6
Continuous
 62
     7
370
    15
100
AcDbLine
 10
-194.3585708293
 20
3436.0095988773
 30
0.0
 11
-213.8585656437
 21
3436.0095988773
 31
0.0
  0
LINE
  5
7A
330
1F
100
AcDbEntity
  8
0
  6
Continuous
 62
     7
370
    15
100
AcDbLine
 10
-221.3585659417
 20
3428.5095976479
 30
0.0
 11
-221.3585659417
 21
3536.5096013807
 31
0.0
  0
LINE
  5
7B
330
1F
100
AcDbEntity
  8
0
  6
Continuous
 62
     7
370
    15
100
AcDbLine
 10
-194.3585708293
 20
3445.5095976405
 30
0.0
 11
-194.3585708293
 21
3436.0095988773
 31
0.0
  0
LINE
  5
7C
330
1F
100
AcDbEntity
  8
0
  6
Continuous
 62
     7
370
    15
100
AcDbLine
 10
-214.358566657
 20
3446.0095986538
 30
0.0
 11
-194.8585718426
 21
3446.0095986538
 31
0.0
  0
LINE
  5
7D
330
1F
100
AcDbEntity
  8
0
  6
Continuous
 62
     7
370
    15
100
AcDbLine
 10
-220.3585713658
 20
3537.5095959566
 30
0.0
 11
-188.3585661206
 21
3537.5095959566
 31
0.0
  0
ARC
  5
7E
330
1F
100
AcDbEntity
  8
0
  6
Continuous
 62
     7
370
    15
100
AcDbCircle
 10
-188.3585685997
 20
3428.5095980867
 30
0.0
 40
1.0
100
AcDbArc
 50
270.0
 51
0.0
  0
ARC
  5
7F
330
1F
100
AcDbEntity
  8
0
  6
Continuous
 62
     7
370
    15
100
AcDbCircle
 10
-213.8585685997
 20
3436.5095980867
 30
0.0
 40
0.5
100
AcDbArc
 50
180.0
 51
270.0
  0
ARC
  5
80
330
1F
100
AcDbEntity
  8
0
  6
Continuous
 62
     7
370
    15
100
AcDbCircle
 10
-220.3585685997
 20
3428.5095980867
 30
0.0
 40
1.0
100
AcDbArc
 50
180.0
 51
270.0
  0
ARC
  5
81
330
1F
100
AcDbEntity
  8
0
  6
Continuous
 62
     7
370
    15
100
AcDbCircle
 10
-194.8585685997
 20
3445.5095980867
 30
0.0
 40
0.5
100
AcDbArc
 50
0.0
 51
90.0
  0
ARC
  5
82
330
1F
100
AcDbEntity
  8
0
  6
Continuous
 62
     7
370
    15
100
AcDbCircle
 10
-188.3585685997
 20
3536.5095980867
 30
0.0
 40
1.0
100
AcDbArc
 50
0.0
 51
90.0
  0
ARC
  5
83
330
1F
100
AcDbEntity
  8
0
  6
Continuous
 62
     7
370
    15
100
AcDbCircle
 10
-220.3585685997
 20
3536.5095980867
 30
0.0
 40
1.0
100
AcDbArc
 50
90.0
 51
180.0
  0
LWPOLYLINE
  5
84
330
1F
100
AcDbEntity
  8
0
  6
Continuous
 62
     7
370
    15
100
AcDbPolyline
 90
       10
 70
   128
 43
0.0
 10
-215.8585696968
 20
3433.0095983855
 10
-215.7717480811
 20
3433.0964218639
 10
-215.6875565204
 20
3433.1806078367
 10
-215.6085654649
 20
3433.2595988922
 10
-215.5371740016
 20
3433.3309922181
 10
-215.4755427989
 20
3433.3926196955
 10
-215.4255568537
 20
3433.4426112287
 10
-215.3887211832
 20
3433.4794450365
 10
-215.3661682758
 20
3433.5020016692
 10
-215.3585686836
 20
3433.5095975362
  0
LINE
  5
85
330
1F
100
AcDbEntity
  8
0
  6
Continuous
 62
     7
370
    15
100
AcDbLine
 10
-193.3585688028
 20
3433.5095975362
 30
0.0
 11
-215.3585686836
 21
3433.5095975362
 31
0.0
  0
LWPOLYLINE
  5
86
330
1F
100
AcDbEntity
  8
0
  6
Continuous
 62
     7
370
    15
100
AcDbPolyline
 90
       10
 70
   128
 43
0.0
 10
-193.3585688028
 20
3433.5095975362
 10
-193.3509692106
 20
3433.5020016692
 10
-193.3284163031
 20
3433.4794450365
 10
-193.2915806326
 20
3433.4426112287
 10
-193.2415872368
 20
3433.3926196955
 10
-193.1799634847
 20
3433.3309922181
 10
-193.1085720214
 20
3433.2595988922
 10
-193.0295809659
 20
3433.1806078367
 10
-192.9453894052
 20
3433.0964218639
 10
-192.8585677895
 20
3433.0095983855
  0
LINE
  5
87
330
1F
100
AcDbEntity
  8
0
  6
Continuous
 62
     7
370
    15
100
AcDbLine
 10
-193.3585688028
 20
3531.5095986985
 30
0.0
 11
-193.3585688028
 21
3433.5095975362
 31
0.0
  0
LWPOLYLINE
  5
88
330
1F
100
AcDbEntity
  8
0
  6
Continuous
 62
     7
370
    15
100
AcDbPolyline
 90
       10
 70
   128
 43
0.0
 10
-193.3585688028
 20
3531.5095986985
 10
-193.3509692106
 20
3531.5171908401
 10
-193.3284163031
 20
3531.5397511981
 10
-193.2915806326
 20
3531.5765868686
 10
-193.2415872368
 20
3531.6265728138
 10
-193.1799634847
 20
3531.6882040165
 10
-193.1085720214
 20
3531.7595954798
 10
-193.0295809659
 20
3531.8385865353
 10
-192.9453894052
 20
3531.9227706455
 10
-192.8585677895
 20
3532.0095997117
  0
LINE
  5
89
330
1F
100
AcDbEntity
  8
0
  6
Continuous
 62
     7
370
    15
100
AcDbLine
 10
-215.3585686836
 20
3433.5095975362
 30
0.0
 11
-215.3585686836
 21
3531.5095986985
 31
0.0
  0
LWPOLYLINE
  5
8A
330
1F
100
AcDbEntity
  8
0
  6
Continuous
 62
     7
370
    15
100
AcDbPolyline
 90
        9
 70
   128
 43
0.0
 10
-215.3585686836
 20
3531.5095986985
 10
-215.3681724819
 20
3531.5192024968
 10
-215.3966262492
 20
3531.5476562641
 10
-215.4428347501
 20
3531.593864765
 10
-215.5050172958
 20
3531.6560473107
 10
-215.5807822499
 20
3531.7318122648
 10
-215.6672238859
 20
3531.8182539008
 10
-215.7610266957
 20
3531.91204926
 10
-215.8585696968
 20
3532.0095997117
  0
LINE
  5
8B
330
1F
100
AcDbEntity
  8
0
  6
Continuous
 62
     7
370
    15
100
AcDbLine
 10
-194.3585708293
 20
3446.5095978044
 30
0.0
 11
-214.358566657
 21
3446.5095978044
 31
0.0
  0
LINE
  5
8C
330
1F
100
AcDbEntity
  8
0
  6
Continuous
 62
     7
370
    15
100
AcDbLine
 10
-215.3585686836
 20
3531.5095986985
 30
0.0
 11
-193.3585688028
 21
3531.5095986985
 31
0.0
  0
LINE
  5
8D
330
1F
100
AcDbEntity
  8
0
  6
Continuous
 62
     7
370
    15
100
AcDbLine
 10
280.6414232102
 20
2645.5096136592
 30
0.0
 11
-273.3585670146
 21
2645.5096136592
 31
0.0
  0
LINE
  5
8E
330
1F
100
AcDbEntity
  8
0
  6
Continuous
 62
     7
370
    15
100
AcDbLine
 10
-273.3585670146
 20
2645.5096136592
 30
0.0
 11
-273.3585670146
 21
4319.5095788501
 31
0.0
  0
LINE
  5
8F
330
1F
100
AcDbEntity
  8
0
  6
Continuous
 62
     7
370
    15
100
AcDbLine
 10
-273.3585670146
 20
4319.5095788501
 30
0.0
 11
280.6414232102
 21
4319.5095788501
 31
0.0
  0
LINE
  5
90
330
1F
100
AcDbEntity
  8
0
  6
Continuous
 62
     7
370
    15
100
AcDbLine
 10
280.6414232102
 20
4319.5095788501
 30
0.0
 11
280.6414232102
 21
2645.5096136592
 31
0.0
  0
LINE
  5
91
330
1F
100
AcDbEntity
  8
0
  6
Continuous
 62
     7
370
    15
100
AcDbLine
 10
284.1414377537
 20
2642.5095926784
 30
0.0
 11
-275.8585646304
 21
2642.5095926784
 31
0.0
  0
LINE
  5
92
330
1F
100
AcDbEntity
  8
0
  6
Continuous
 62
     7
370
    15
100
AcDbLine
 10
284.1414377537
 20
4322.5095998309
 30
0.0
 11
284.1414377537
 21
2642.5095926784
 31
0.0
  0
LINE
  5
93
330
1F
100
AcDbEntity
  8
0
  6
Continuous
 62
     7
370
    15
100
AcDbLine
 10
-275.8585646304
 20
4322.5095998309
 30
0.0
 11
284.1414377537
 21
4322.5095998309
 31
0.0
  0
LINE
  5
94
330
1F
100
AcDbEntity
  8
0
  6
Continuous
 62
     7
370
    15
100
AcDbLine
 10
-275.8585646304
 20
2642.5095926784
 30
0.0
 11
-275.8585646304
 21
4322.5095998309
 31
0.0
  0
LINE
  5
95
330
1F
100
AcDbEntity
  8
0
  6
Continuous
 62
     7
370
    15
100
AcDbLine
 10
404.1414425221
 20
2582.5095902942
 30
0.0
 11
404.1414425221
 21
4382.5096022151
 31
0.0
  0
LINE
  5
96
330
1F
100
AcDbEntity
  8
0
  6
Continuous
 62
     7
370
    15
100
AcDbLine
 10
-395.8585693988
 20
2582.5095902942
 30
0.0
 11
404.1414425221
 21
2582.5095902942
 31
0.0
  0
LINE
  5
97
330
1F
100
AcDbEntity
  8
0
  6
Continuous
 62
     7
370
    15
100
AcDbLine
 10
404.1414425221
 20
4382.5096022151
 30
0.0
 11
-395.8585693988
 21
4382.5096022151
 31
0.0
  0
LINE
  5
98
330
1F
100
AcDbEntity
  8
0
  6
Continuous
 62
     7
370
    15
100
AcDbLine
 10
-395.8585693988
 20
4382.5096022151
 30
0.0
 11
-395.8585693988
 21
2582.5095902942
 31
0.0
  0
LINE
  5
99
330
1F
100
AcDbEntity
  8
0
  6
Continuous
 62
     7
370
    15
100
AcDbLine
 10
-251.3585671338
 20
4322.5095998309
 30
0.0
 11
-251.3585671338
 21
4319.5095788501
 31
0.0
  0
LINE
  5
9A
330
1F
100
AcDbEntity
  8
0
  6
Continuous
 62
     7
370
    15
100
AcDbLine
 10
-251.3585671338
 20
2645.5096136592
 30
0.0
 11
-251.3585671338
 21
2642.5095926784
 31
0.0
  0
LINE
  5
9B
330
1F
100
AcDbEntity
  8
0
  6
Continuous
 62
     7
370
    15
100
AcDbLine
 10
259.641425356
 20
2642.5095926784
 30
0.0
 11
259.641425356
 21
2645.5096136592
 31
0.0
  0
LINE
  5
9C
330
1F
100
AcDbEntity
  8
0
  6
Continuous
 62
     7
370
    15
100
AcDbLine
 10
259.641425356
 20
4319.5095788501
 30
0.0
 11
259.641425356
 21
4322.5095998309
 31
0.0
  0
LINE
  5
9D
330
1F
100
AcDbEntity
  8
0
  6
Continuous
 62
     7
370
    15
100
AcDbLine
 10
404.1414425221
 20
4382.5096022151
 30
0.0
 11
404.1414425221
 21
4582.5096498988
 31
0.0
  0
LINE
  5
9E
330
1F
100
AcDbEntity
  8
0
  6
Continuous
 62
     7
370
    15
100
AcDbLine
 10
-395.8585693988
 20
4582.5096498988
 30
0.0
 11
-395.8585693988
 21
4382.5096022151
 31
0.0
  0
LINE
  5
9F
330
1F
100
AcDbEntity
  8
0
  6
Continuous
 62
     7
370
    15
100
AcDbLine
 10
404.1414425221
 20
4582.5096498988
 30
0.0
 11
-395.8585693988
 21
4582.5096498988
 31
0.0
  0
DIMENSION
  5
A0
330
1F
100
AcDbEntity
  8
0
  6
Continuous
 62
     7
370
     0
100
AcDbDimension
  2
_D
 10
404.1414314003
 20
2488.5095730869
 30
0.0
 11
-16.185897829
 21
2488.5095730869
 31
0.0
 70
   160
  1
<>
 71
     2
 42
-1.0
  3
SLDDIMSTYLE0
100
AcDbAlignedDimension
 13
-395.8585685998
 23
2582.5095980869
 33
0.0
 14
404.1414314003
 24
2582.5095980869
 34
0.0
 50
0.0
100
AcDbRotatedDimension
  0
DIMENSION
  5
AC
330
1F
100
AcDbEntity
  8
0
  6
Continuous
 62
     7
370
     0
100
AcDbDimension
  2
_D_1
 10
-483.8586717526
 20
4382.5095980869
 30
0.0
 11
-483.8586717526
 21
3503.823475618
 31
0.0
 70
   160
  1
<>
 71
     2
 42
-1.0
  3
SLDDIMSTYLE0
100
AcDbAlignedDimension
 13
-395.8585685998
 23
2582.5095980869
 33
0.0
 14
-395.8585685998
 24
4382.5095980869
 34
0.0
 50
90.0
100
AcDbRotatedDimension
  0
DIMENSION
  5
B6
330
1F
100
AcDbEntity
  8
0
  6
Continuous
 62
     7
370
     0
100
AcDbDimension
  2
_D_2
 10
-555.7487365073
 20
2582.5095980869
 30
0.0
 11
-555.7487365073
 21
3503.823475618
 31
0.0
 70
   160
  1
<>
 71
     2
 42
-1.0
  3
SLDDIMSTYLE0
100
AcDbAlignedDimension
 13
-395.8585685998
 23
4582.5095980869
 33
0.0
 14
-395.8585685998
 24
2582.5095980869
 34
0.0
 50
90.0
100
AcDbRotatedDimension
  0
LINE
  5
C0
330
1F
100
AcDbEntity
  8
0
  6
Continuous
 62
     7
370
    15
100
AcDbLine
 10
-217.3585652861
 20
2222.4310752781
 30
0.0
 11
-217.3585652861
 21
2219.4310542973
 31
0.0
  0
LINE
  5
C1
330
1F
100
AcDbEntity
  8
0
  6
Continuous
 62
     7
370
    15
100
AcDbLine
 10
-191.3585722002
 20
2219.4310542973
 30
0.0
 11
-191.3585722002
 21
2222.4310752781
 31
0.0
  0
LINE
  5
C2
330
1F
100
AcDbEntity
  8
0
  6
Continuous
 62
     7
370
    15
100
AcDbLine
 10
-192.0286401662
 20
2216.4310333164
 30
0.0
 11
-192.0286401662
 21
2219.4310542973
 31
0.0
  0
LINE
  5
C3
330
1F
100
AcDbEntity
  8
0
  6
Continuous
 62
     7
370
    15
100
AcDbLine
 10
-277.0286336097
 20
2219.4310542973
 30
0.0
 11
-277.0286336097
 21
2216.4310333164
 31
0.0
  0
LINE
  5
C4
330
1F
100
AcDbEntity
  8
0
  6
Continuous
 62
     7
370
    15
100
AcDbLine
 10
-187.3585715446
 20
2250.4310724171
 30
0.0
 11
-187.3585715446
 21
2249.431025687
 31
0.0
  0
LINE
  5
C5
330
1F
100
AcDbEntity
  8
0
  6
Continuous
 62
     7
370
    15
100
AcDbLine
 10
-221.3585659417
 20
2249.431025687
 30
0.0
 11
-221.3585659417
 21
2250.4310724171
 31
0.0
  0
LINE
  5
C6
330
1F
100
AcDbEntity
  8
0
  6
Continuous
 62
     7
370
    15
100
AcDbLine
 10
-188.3585661206
 20
2251.4311191471
 30
0.0
 11
-220.3585713658
 21
2251.4311191471
 31
0.0
  0
ARC
  5
C7
330
1F
100
AcDbEntity
  8
0
  6
Continuous
 62
     7
370
    15
100
AcDbCircle
 10
-188.3585685997
 20
2250.4310663772
 30
0.0
 40
1.0
100
AcDbArc
 50
0.0
 51
90.0
  0
ARC
  5
C8
330
1F
100
AcDbEntity
  8
0
  6
Continuous
 62
     7
370
    15
100
AcDbCircle
 10
-220.3585685997
 20
2250.4310663772
 30
0.0
 40
1.0
100
AcDbArc
 50
90.0
 51
180.0
  0
LINE
  5
C9
330
1F
100
AcDbEntity
  8
0
  6
Continuous
 62
     7
370
    15
100
AcDbLine
 10
-210.1866364035
 20
2219.4310542973
 30
0.0
 11
-191.3585722002
 21
2219.4310542973
 31
0.0
  0
LINE
  5
CA
330
1F
100
AcDbEntity
  8
0
  6
Continuous
 62
     7
370
    15
100
AcDbLine
 10
-269.5428415689
 20
2216.4310333164
 30
0.0
 11
-204.0286421332
 21
2216.4310333164
 31
0.0
  0
LINE
  5
CB
330
1F
100
AcDbEntity
  8
0
  6
Continuous
 62
     7
370
    15
100
AcDbLine
 10
-269.5428415689
 20
2219.4310542973
 30
0.0
 11
-210.1866364035
 21
2219.4310542973
 31
0.0
  0
LINE
  5
CC
330
1F
100
AcDbEntity
  8
0
  6
Continuous
 62
     7
370
    15
100
AcDbLine
 10
-204.0286421332
 20
2219.4310542973
 30
0.0
 11
-204.0286421332
 21
2216.4310333164
 31
0.0
  0
LINE
  5
CD
330
1F
100
AcDbEntity
  8
0
  6
Continuous
 62
     7
370
    15
100
AcDbLine
 10
-204.0286421332
 20
2216.4310333164
 30
0.0
 11
-192.0286401662
 21
2216.4310333164
 31
0.0
  0
LINE
  5
CE
330
1F
100
AcDbEntity
  8
0
  6
Continuous
 62
     7
370
    15
100
AcDbLine
 10
-277.0286336097
 20
2219.4310542973
 30
0.0
 11
-269.5428415689
 21
2219.4310542973
 31
0.0
  0
LINE
  5
CF
330
1F
100
AcDbEntity
  8
0
  6
Continuous
 62
     7
370
    15
100
AcDbLine
 10
-277.0286336097
 20
2216.4310333164
 30
0.0
 11
-269.5428415689
 21
2216.4310333164
 31
0.0
  0
LINE
  5
D0
330
1F
100
AcDbEntity
  8
0
  6
Continuous
 62
     7
370
    15
100
AcDbLine
 10
-365.8585682067
 20
2191.4310571583
 30
0.0
 11
-363.8585641536
 21
2191.4310571583
 31
0.0
  0
LINE
  5
D1
330
1F
100
AcDbEntity
  8
0
  6
Continuous
 62
     7
370
    15
100
AcDbLine
 10
-365.8585682067
 20
1727.4310705097
 30
0.0
 11
-365.8585682067
 21
2191.4310571583
 31
0.0
  0
LINE
  5
D2
330
1F
100
AcDbEntity
  8
0
  6
Continuous
 62
     7
370
    15
100
AcDbLine
 10
-363.8585641536
 20
1727.4310705097
 30
0.0
 11
-365.8585682067
 21
1727.4310705097
 31
0.0
  0
LINE
  5
D3
330
1F
100
AcDbEntity
  8
0
  6
Continuous
 62
     7
370
    15
100
AcDbLine
 10
374.14144133
 20
1727.4310705097
 30
0.0
 11
372.1414372769
 21
1727.4310705097
 31
0.0
  0
LINE
  5
D4
330
1F
100
AcDbEntity
  8
0
  6
Continuous
 62
     7
370
    15
100
AcDbLine
 10
374.14144133
 20
2191.4310571583
 30
0.0
 11
374.14144133
 21
1727.4310705097
 31
0.0
  0
LINE
  5
D5
330
1F
100
AcDbEntity
  8
0
  6
Continuous
 62
     7
370
    15
100
AcDbLine
 10
372.1414372769
 20
2191.4310571583
 30
0.0
 11
374.14144133
 21
2191.4310571583
 31
0.0
  0
LINE
  5
D6
330
1F
100
AcDbEntity
  8
0
  6
Continuous
 62
     7
370
    15
100
AcDbLine
 10
404.1414425221
 20
2249.431025687
 30
0.0
 11
404.1414425221
 21
1649.4310614498
 31
0.0
  0
LINE
  5
D7
330
1F
100
AcDbEntity
  8
0
  6
Continuous
 62
     7
370
    15
100
AcDbLine
 10
-395.8585693988
 20
1649.4310614498
 30
0.0
 11
404.1414425221
 21
1649.4310614498
 31
0.0
  0
LINE
  5
D8
330
1F
100
AcDbEntity
  8
0
  6
Continuous
 62
     7
370
    15
100
AcDbLine
 10
-395.8585693988
 20
1649.4310614498
 30
0.0
 11
-395.8585693988
 21
2249.431025687
 31
0.0
  0
LINE
  5
D9
330
1F
100
AcDbEntity
  8
0
  6
Continuous
 62
     7
370
    15
100
AcDbLine
 10
-395.8585693988
 20
2249.431025687
 30
0.0
 11
404.1414425221
 21
2249.431025687
 31
0.0
  0
ARC
  5
DA
330
1F
100
AcDbEntity
  8
0
  6
Continuous
 62
     7
370
    15
100
AcDbCircle
 10
390.1414314003
 20
1989.9310663771
 30
0.0
 40
4.5
100
AcDbArc
 50
0.0000000001
 51
179.9999999999
  0
LINE
  5
DB
330
1F
100
AcDbEntity
  8
0
  6
Continuous
 62
     7
370
    15
100
AcDbLine
 10
385.6414422837
 20
1958.9311000736
 30
0.0
 11
385.6414422837
 21
1989.9311181934
 31
0.0
  0
ARC
  5
DC
330
1F
100
AcDbEntity
  8
0
  6
Continuous
 62
     7
370
    15
100
AcDbCircle
 10
390.1414314003
 20
1958.9310663771
 30
0.0
 40
4.500000000000057
100
AcDbArc
 50
179.9999999999
 51
0.0000000001
  0
LINE
  5
DD
330
1F
100
AcDbEntity
  8
0
  6
Continuous
 62
     7
370
    15
100
AcDbLine
 10
394.6414158192
 20
1989.9311181934
 30
0.0
 11
394.6414158192
 21
1958.9311000736
 31
0.0
  0
ARC
  5
DE
330
1F
100
AcDbEntity
  8
0
  6
Continuous
 62
     7
370
    15
100
AcDbCircle
 10
390.1414314003
 20
2189.9310663771
 30
0.0
 40
4.500000000000114
100
AcDbArc
 50
0.0
 51
180.0
  0
LINE
  5
DF
330
1F
100
AcDbEntity
  8
0
  6
Continuous
 62
     7
370
    15
100
AcDbLine
 10
385.6414422837
 20
2158.9310285481
 30
0.0
 11
385.6414422837
 21
2189.9310466679
 31
0.0
  0
ARC
  5
E0
330
1F
100
AcDbEntity
  8
0
  6
Continuous
 62
     7
370
    15
100
AcDbCircle
 10
390.1414314003
 20
2158.9310663771
 30
0.0
 40
4.500000000000114
100
AcDbArc
 50
180.0
 51
0.0
  0
LINE
  5
E1
330
1F
100
AcDbEntity
  8
0
  6
Continuous
 62
     7
370
    15
100
AcDbLine
 10
394.6414158192
 20
2189.9310466679
 30
0.0
 11
394.6414158192
 21
2158.9310285481
 31
0.0
  0
ARC
  5
E2
330
1F
100
AcDbEntity
  8
0
  6
Continuous
 62
     7
370
    15
100
AcDbCircle
 10
390.1414314003
 20
2139.9310663771
 30
0.0
 40
4.500000000000057
100
AcDbArc
 50
0.0
 51
180.0
  0
LINE
  5
E3
330
1F
100
AcDbEntity
  8
0
  6
Continuous
 62
     7
370
    15
100
AcDbLine
 10
385.6414422837
 20
2108.9310762318
 30
0.0
 11
385.6414422837
 21
2139.9310943516
 31
0.0
  0
ARC
  5
E4
330
1F
100
AcDbEntity
  8
0
  6
Continuous
 62
     7
370
    15
100
AcDbCircle
 10
390.1414314003
 20
2108.9310663771
 30
0.0
 40
4.5
100
AcDbArc
 50
180.0
 51
0.0
  0
LINE
  5
E5
330
1F
100
AcDbEntity
  8
0
  6
Continuous
 62
     7
370
    15
100
AcDbLine
 10
394.6414158192
 20
2139.9310943516
 30
0.0
 11
394.6414158192
 21
2108.9310762318
 31
0.0
  0
ARC
  5
E6
330
1F
100
AcDbEntity
  8
0
  6
Continuous
 62
     7
370
    15
100
AcDbCircle
 10
390.1414314003
 20
2089.9310663771
 30
0.0
 40
4.499999999999943
100
AcDbArc
 50
0.0
 51
180.0
  0
LINE
  5
E7
330
1F
100
AcDbEntity
  8
0
  6
Continuous
 62
     7
370
    15
100
AcDbLine
 10
385.6414422837
 20
2058.9311239155
 30
0.0
 11
385.6414422837
 21
2089.931022826
 31
0.0
  0
ARC
  5
E8
330
1F
100
AcDbEntity
  8
0
  6
Continuous
 62
     7
370
    15
100
AcDbCircle
 10
390.1414314003
 20
2058.9310663771
 30
0.0
 40
4.500000000000057
100
AcDbArc
 50
180.0
 51
0.0
  0
LINE
  5
E9
330
1F
100
AcDbEntity
  8
0
  6
Continuous
 62
     7
370
    15
100
AcDbLine
 10
394.6414158192
 20
2089.931022826
 30
0.0
 11
394.6414158192
 21
2058.9311239155
 31
0.0
  0
ARC
  5
EA
330
1F
100
AcDbEntity
  8
0
  6
Continuous
 62
     7
370
    15
100
AcDbCircle
 10
390.1414314003
 20
2039.9310663771
 30
0.0
 40
4.5
100
AcDbArc
 50
0.0
 51
180.0
  0
LINE
  5
EB
330
1F
100
AcDbEntity
  8
0
  6
Continuous
 62
     7
370
    15
100
AcDbLine
 10
385.6414422837
 20
2008.9310523899
 30
0.0
 11
385.6414422837
 21
2039.9310705097
 31
0.0
  0
ARC
  5
EC
330
1F
100
AcDbEntity
  8
0
  6
Continuous
 62
     7
370
    15
100
AcDbCircle
 10
390.1414314003
 20
2008.9310663771
 30
0.0
 40
4.5
100
AcDbArc
 50
179.9999999999
 51
0.0000000001
  0
LINE
  5
ED
330
1F
100
AcDbEntity
  8
0
  6
Continuous
 62
     7
370
    15
100
AcDbLine
 10
394.6414158192
 20
2039.9310705097
 30
0.0
 11
394.6414158192
 21
2008.9310523899
 31
0.0
  0
ARC
  5
EE
330
1F
100
AcDbEntity
  8
0
  6
Continuous
 62
     7
370
    15
100
AcDbCircle
 10
390.1414314003
 20
1939.9310663771
 30
0.0
 40
4.5
100
AcDbArc
 50
0.0000000001
 51
179.9999999999
  0
LINE
  5
EF
330
1F
100
AcDbEntity
  8
0
  6
Continuous
 62
     7
370
    15
100
AcDbLine
 10
385.6414422837
 20
1908.9310285481
 30
0.0
 11
385.6414422837
 21
1939.9310466679
 31
0.0
  0
ARC
  5
F0
330
1F
100
AcDbEntity
  8
0
  6
Continuous
 62
     7
370
    15
100
AcDbCircle
 10
390.1414314003
 20
1908.9310663771
 30
0.0
 40
4.500000000000057
100
AcDbArc
 50
179.9999999999
 51
0.0000000001
  0
LINE
  5
F1
330
1F
100
AcDbEntity
  8
0
  6
Continuous
 62
     7
370
    15
100
AcDbLine
 10
394.6414158192
 20
1939.9310466679
 30
0.0
 11
394.6414158192
 21
1908.9310285481
 31
0.0
  0
ARC
  5
F2
330
1F
100
AcDbEntity
  8
0
  6
Continuous
 62
     7
370
    15
100
AcDbCircle
 10
390.1414314003
 20
1889.9310663771
 30
0.0
 40
4.5
100
AcDbArc
 50
0.0000000001
 51
179.9999999999
  0
LINE
  5
F3
330
1F
100
AcDbEntity
  8
0
  6
Continuous
 62
     7
370
    15
100
AcDbLine
 10
385.6414422837
 20
1858.9310762318
 30
0.0
 11
385.6414422837
 21
1889.9310943516
 31
0.0
  0
ARC
  5
F4
330
1F
100
AcDbEntity
  8
0
  6
Continuous
 62
     7
370
    15
100
AcDbCircle
 10
390.1414314003
 20
1858.9310663771
 30
0.0
 40
4.5
100
AcDbArc
 50
179.9999999999
 51
0.0000000001
  0
LINE
  5
F5
330
1F
100
AcDbEntity
  8
0
  6
Continuous
 62
     7
370
    15
100
AcDbLine
 10
394.6414158192
 20
1889.9310943516
 30
0.0
 11
394.6414158192
 21
1858.9310762318
 31
0.0
  0
ARC
  5
F6
330
1F
100
AcDbEntity
  8
0
  6
Continuous
 62
     7
370
    15
100
AcDbCircle
 10
390.1414314003
 20
1839.9310663771
 30
0.0
 40
4.500000000000057
100
AcDbArc
 50
359.9999999999
 51
179.9999999999
  0
LINE
  5
F7
330
1F
100
AcDbEntity
  8
0
  6
Continuous
 62
     7
370
    15
100
AcDbLine
 10
385.6414422837
 20
1808.9310643108
 30
0.0
 11
385.6414422837
 21
1839.9310824307
 31
0.0
  0
ARC
  5
F8
330
1F
100
AcDbEntity
  8
0
  6
Continuous
 62
     7
370
    15
100
AcDbCircle
 10
390.1414314003
 20
1808.9310663771
 30
0.0
 40
4.500000000000057
100
AcDbArc
 50
179.9999999999
 51
0.0000000001
  0
LINE
  5
F9
330
1F
100
AcDbEntity
  8
0
  6
Continuous
 62
     7
370
    15
100
AcDbLine
 10
394.6414158192
 20
1839.9310824307
 30
0.0
 11
394.6414158192
 21
1808.9310643108
 31
0.0
  0
ARC
  5
FA
330
1F
100
AcDbEntity
  8
0
  6
Continuous
 62
     7
370
    15
100
AcDbCircle
 10
390.1414314003
 20
1789.9310663771
 30
0.0
 40
4.499999999999943
100
AcDbArc
 50
0.0000000001
 51
179.9999999999
  0
LINE
  5
FB
330
1F
100
AcDbEntity
  8
0
  6
Continuous
 62
     7
370
    15
100
AcDbLine
 10
385.6414422837
 20
1758.9310523899
 30
0.0
 11
385.6414422837
 21
1789.9310705097
 31
0.0
  0
ARC
  5
FC
330
1F
100
AcDbEntity
  8
0
  6
Continuous
 62
     7
370
    15
100
AcDbCircle
 10
390.1414314003
 20
1758.9310663771
 30
0.0
 40
4.499999999999943
100
AcDbArc
 50
179.9999999999
 51
0.0000000001
  0
LINE
  5
FD
330
1F
100
AcDbEntity
  8
0
  6
Continuous
 62
     7
370
    15
100
AcDbLine
 10
394.6414158192
 20
1789.9310705097
 30
0.0
 11
394.6414158192
 21
1758.9310523899
 31
0.0
  0
ARC
  5
FE
330
1F
100
AcDbEntity
  8
0
  6
Continuous
 62
     7
370
    15
100
AcDbCircle
 10
390.1414314003
 20
1739.9310663771
 30
0.0
 40
4.500000000000114
100
AcDbArc
 50
0.0000000001
 51
179.9999999999
  0
LINE
  5
FF
330
1F
100
AcDbEntity
  8
0
  6
Continuous
 62
     7
370
    15
100
AcDbLine
 10
385.6414422837
 20
1708.931040469
 30
0.0
 11
385.6414422837
 21
1739.9310585888
 31
0.0
  0
ARC
  5
100
330
1F
100
AcDbEntity
  8
0
  6
Continuous
 62
     7
370
    15
100
AcDbCircle
 10
390.1414314003
 20
1708.9310663771
 30
0.0
 40
4.500000000000057
100
AcDbArc
 50
179.9999999999
 51
0.0000000001
  0
LINE
  5
101
330
1F
100
AcDbEntity
  8
0
  6
Continuous
 62
     7
370
    15
100
AcDbLine
 10
394.6414158192
 20
1739.9310585888
 30
0.0
 11
394.6414158192
 21
1708.931040469
 31
0.0
  0
ARC
  5
102
330
1F
100
AcDbEntity
  8
0
  6
Continuous
 62
     7
370
    15
100
AcDbCircle
 10
-381.8585685477
 20
1908.9310663772
 30
0.0
 40
4.500000000000057
100
AcDbArc
 50
179.9999999999
 51
0.0000000001
  0
LINE
  5
103
330
1F
100
AcDbEntity
  8
0
  6
Continuous
 62
     7
370
    15
100
AcDbLine
 10
-377.3585691604
 20
1939.9310466679
 30
0.0
 11
-377.3585691604
 21
1908.9310285481
 31
0.0
  0
ARC
  5
104
330
1F
100
AcDbEntity
  8
0
  6
Continuous
 62
     7
370
    15
100
AcDbCircle
 10
-381.8585685477
 20
1939.9310663772
 30
0.0
 40
4.500000000000057
100
AcDbArc
 50
0.0000000001
 51
179.9999999999
  0
LINE
  5
105
330
1F
100
AcDbEntity
  8
0
  6
Continuous
 62
     7
370
    15
100
AcDbLine
 10
-386.3585724983
 20
1908.9310285481
 30
0.0
 11
-386.3585724983
 21
1939.9310466679
 31
0.0
  0
ARC
  5
106
330
1F
100
AcDbEntity
  8
0
  6
Continuous
 62
     7
370
    15
100
AcDbCircle
 10
-381.8585685477
 20
1708.9310663772
 30
0.0
 40
4.500000000000057
100
AcDbArc
 50
179.9999999998
 51
0.0000000002
  0
LINE
  5
107
330
1F
100
AcDbEntity
  8
0
  6
Continuous
 62
     7
370
    15
100
AcDbLine
 10
-377.3585691604
 20
1739.9310585888
 30
0.0
 11
-377.3585691604
 21
1708.931040469
 31
0.0
  0
ARC
  5
108
330
1F
100
AcDbEntity
  8
0
  6
Continuous
 62
     7
370
    15
100
AcDbCircle
 10
-381.8585685477
 20
1739.9310663772
 30
0.0
 40
4.5
100
AcDbArc
 50
0.0000000002
 51
179.9999999998
  0
LINE
  5
109
330
1F
100
AcDbEntity
  8
0
  6
Continuous
 62
     7
370
    15
100
AcDbLine
 10
-386.3585724983
 20
1708.931040469
 30
0.0
 11
-386.3585724983
 21
1739.9310585888
 31
0.0
  0
ARC
  5
10A
330
1F
100
AcDbEntity
  8
0
  6
Continuous
 62
     7
370
    15
100
AcDbCircle
 10
-381.8585685477
 20
1758.9310663772
 30
0.0
 40
4.500000000000057
100
AcDbArc
 50
179.9999999998
 51
0.0000000002
  0
LINE
  5
10B
330
1F
100
AcDbEntity
  8
0
  6
Continuous
 62
     7
370
    15
100
AcDbLine
 10
-377.3585691604
 20
1789.9310705097
 30
0.0
 11
-377.3585691604
 21
1758.9310523899
 31
0.0
  0
ARC
  5
10C
330
1F
100
AcDbEntity
  8
0
  6
Continuous
 62
     7
370
    15
100
AcDbCircle
 10
-381.8585685477
 20
1789.9310663772
 30
0.0
 40
4.500000000000057
100
AcDbArc
 50
0.0000000002
 51
179.9999999998
  0
LINE
  5
10D
330
1F
100
AcDbEntity
  8
0
  6
Continuous
 62
     7
370
    15
100
AcDbLine
 10
-386.3585724983
 20
1758.9310523899
 30
0.0
 11
-386.3585724983
 21
1789.9310705097
 31
0.0
  0
ARC
  5
10E
330
1F
100
AcDbEntity
  8
0
  6
Continuous
 62
     7
370
    15
100
AcDbCircle
 10
-381.8585685477
 20
1808.9310663772
 30
0.0
 40
4.500000000000057
100
AcDbArc
 50
179.9999999998
 51
0.0000000002
  0
LINE
  5
10F
330
1F
100
AcDbEntity
  8
0
  6
Continuous
 62
     7
370
    15
100
AcDbLine
 10
-377.3585691604
 20
1839.9310824307
 30
0.0
 11
-377.3585691604
 21
1808.9310643108
 31
0.0
  0
ARC
  5
110
330
1F
100
AcDbEntity
  8
0
  6
Continuous
 62
     7
370
    15
100
AcDbCircle
 10
-381.8585685477
 20
1839.9310663772
 30
0.0
 40
4.500000000000057
100
AcDbArc
 50
0.0000000002
 51
179.9999999998
  0
LINE
  5
111
330
1F
100
AcDbEntity
  8
0
  6
Continuous
 62
     7
370
    15
100
AcDbLine
 10
-386.3585724983
 20
1808.9310643108
 30
0.0
 11
-386.3585724983
 21
1839.9310824307
 31
0.0
  0
ARC
  5
112
330
1F
100
AcDbEntity
  8
0
  6
Continuous
 62
     7
370
    15
100
AcDbCircle
 10
-381.8585685477
 20
1858.9310663772
 30
0.0
 40
4.5
100
AcDbArc
 50
179.9999999998
 51
0.0000000002
  0
LINE
  5
113
330
1F
100
AcDbEntity
  8
0
  6
Continuous
 62
     7
370
    15
100
AcDbLine
 10
-377.3585691604
 20
1889.9310943516
 30
0.0
 11
-377.3585691604
 21
1858.9310762318
 31
0.0
  0
ARC
  5
114
330
1F
100
AcDbEntity
  8
0
  6
Continuous
 62
     7
370
    15
100
AcDbCircle
 10
-381.8585685477
 20
1889.9310663772
 30
0.0
 40
4.5
100
AcDbArc
 50
0.0000000002
 51
179.9999999998
  0
LINE
  5
115
330
1F
100
AcDbEntity
  8
0
  6
Continuous
 62
     7
370
    15
100
AcDbLine
 10
-386.3585724983
 20
1858.9310762318
 30
0.0
 11
-386.3585724983
 21
1889.9310943516
 31
0.0
  0
ARC
  5
116
330
1F
100
AcDbEntity
  8
0
  6
Continuous
 62
     7
370
    15
100
AcDbCircle
 10
-381.8585685477
 20
1958.9310663772
 30
0.0
 40
4.500000000000057
100
AcDbArc
 50
179.9999999999
 51
0.0000000001
  0
LINE
  5
117
330
1F
100
AcDbEntity
  8
0
  6
Continuous
 62
     7
370
    15
100
AcDbLine
 10
-377.3585691604
 20
1989.9311181934
 30
0.0
 11
-377.3585691604
 21
1958.9311000736
 31
0.0
  0
ARC
  5
118
330
1F
100
AcDbEntity
  8
0
  6
Continuous
 62
     7
370
    15
100
AcDbCircle
 10
-381.8585685477
 20
1989.9310663772
 30
0.0
 40
4.500000000000057
100
AcDbArc
 50
0.0000000001
 51
179.9999999999
  0
LINE
  5
119
330
1F
100
AcDbEntity
  8
0
  6
Continuous
 62
     7
370
    15
100
AcDbLine
 10
-386.3585724983
 20
1958.9311000736
 30
0.0
 11
-386.3585724983
 21
1989.9311181934
 31
0.0
  0
ARC
  5
11A
330
1F
100
AcDbEntity
  8
0
  6
Continuous
 62
     7
370
    15
100
AcDbCircle
 10
-381.8585685477
 20
2008.9310663772
 30
0.0
 40
4.500000000000057
100
AcDbArc
 50
179.9999999999
 51
0.0000000001
  0
LINE
  5
11B
330
1F
100
AcDbEntity
  8
0
  6
Continuous
 62
     7
370
    15
100
AcDbLine
 10
-377.3585691604
 20
2039.9310705097
 30
0.0
 11
-377.3585691604
 21
2008.9310523899
 31
0.0
  0
ARC
  5
11C
330
1F
100
AcDbEntity
  8
0
  6
Continuous
 62
     7
370
    15
100
AcDbCircle
 10
-381.8585685477
 20
2039.9310663772
 30
0.0
 40
4.5
100
AcDbArc
 50
0.0000000001
 51
179.9999999999
  0
LINE
  5
11D
330
1F
100
AcDbEntity
  8
0
  6
Continuous
 62
     7
370
    15
100
AcDbLine
 10
-386.3585724983
 20
2008.9310523899
 30
0.0
 11
-386.3585724983
 21
2039.9310705097
 31
0.0
  0
ARC
  5
11E
330
1F
100
AcDbEntity
  8
0
  6
Continuous
 62
     7
370
    15
100
AcDbCircle
 10
-381.8585685477
 20
2058.9310663772
 30
0.0
 40
4.5
100
AcDbArc
 50
179.9999999999
 51
0.0000000001
  0
LINE
  5
11F
330
1F
100
AcDbEntity
  8
0
  6
Continuous
 62
     7
370
    15
100
AcDbLine
 10
-377.3585691604
 20
2089.931022826
 30
0.0
 11
-377.3585691604
 21
2058.9311239155
 31
0.0
  0
ARC
  5
120
330
1F
100
AcDbEntity
  8
0
  6
Continuous
 62
     7
370
    15
100
AcDbCircle
 10
-381.8585685477
 20
2089.9310663772
 30
0.0
 40
4.500000000000057
100
AcDbArc
 50
0.0000000001
 51
179.9999999999
  0
LINE
  5
121
330
1F
100
AcDbEntity
  8
0
  6
Continuous
 62
     7
370
    15
100
AcDbLine
 10
-386.3585724983
 20
2058.9311239155
 30
0.0
 11
-386.3585724983
 21
2089.931022826
 31
0.0
  0
ARC
  5
122
330
1F
100
AcDbEntity
  8
0
  6
Continuous
 62
     7
370
    15
100
AcDbCircle
 10
-381.8585685477
 20
2108.9310663772
 30
0.0
 40
4.499999999999943
100
AcDbArc
 50
179.9999999999
 51
0.0000000001
  0
LINE
  5
123
330
1F
100
AcDbEntity
  8
0
  6
Continuous
 62
     7
370
    15
100
AcDbLine
 10
-377.3585691604
 20
2139.9310943516
 30
0.0
 11
-377.3585691604
 21
2108.9310762318
 31
0.0
  0
ARC
  5
124
330
1F
100
AcDbEntity
  8
0
  6
Continuous
 62
     7
370
    15
100
AcDbCircle
 10
-381.8585685477
 20
2139.9310663772
 30
0.0
 40
4.5
100
AcDbArc
 50
0.0000000001
 51
179.9999999999
  0
LINE
  5
125
330
1F
100
AcDbEntity
  8
0
  6
Continuous
 62
     7
370
    15
100
AcDbLine
 10
-386.3585724983
 20
2108.9310762318
 30
0.0
 11
-386.3585724983
 21
2139.9310943516
 31
0.0
  0
ARC
  5
126
330
1F
100
AcDbEntity
  8
0
  6
Continuous
 62
     7
370
    15
100
AcDbCircle
 10
-381.8585685477
 20
2158.9310663772
 30
0.0
 40
4.500000000000057
100
AcDbArc
 50
179.9999999999
 51
0.0000000001
  0
LINE
  5
127
330
1F
100
AcDbEntity
  8
0
  6
Continuous
 62
     7
370
    15
100
AcDbLine
 10
-377.3585691604
 20
2189.9310466679
 30
0.0
 11
-377.3585691604
 21
2158.9310285481
 31
0.0
  0
ARC
  5
128
330
1F
100
AcDbEntity
  8
0
  6
Continuous
 62
     7
370
    15
100
AcDbCircle
 10
-381.8585685477
 20
2189.9310663772
 30
0.0
 40
4.5
100
AcDbArc
 50
0.0000000001
 51
179.9999999999
  0
LINE
  5
129
330
1F
100
AcDbEntity
  8
0
  6
Continuous
 62
     7
370
    15
100
AcDbLine
 10
-386.3585724983
 20
2158.9310285481
 30
0.0
 11
-386.3585724983
 21
2189.9310466679
 31
0.0
  0
CIRCLE
  5
12A
330
1F
100
AcDbEntity
  8
0
  6
Continuous
 62
     7
370
    15
100
AcDbCircle
 10
-345.8585685997
 20
1667.4310663771
 30
0.0
 40
7.0
  0
CIRCLE
  5
12B
330
1F
100
AcDbEntity
  8
0
  6
Continuous
 62
     7
370
    15
100
AcDbCircle
 10
354.1414314003
 20
1667.4310663771
 30
0.0
 40
6.999999999999886
  0
CIRCLE
  5
12C
330
1F
100
AcDbEntity
  8
0
  6
Continuous
 62
     7
370
    15
100
AcDbCircle
 10
-345.6085685998
 20
2227.1810663772
 30
0.0
 40
7.0
  0
CIRCLE
  5
12D
330
1F
100
AcDbEntity
  8
0
  6
Continuous
 62
     7
370
    15
100
AcDbCircle
 10
353.8914314003
 20
2227.1810663772
 30
0.0
 40
7.0
  0
LINE
  5
12E
330
1F
100
AcDbEntity
  8
0
  6
Continuous
 62
     7
370
    15
100
AcDbLine
 10
-363.8585641536
 20
2211.4310380848
 30
0.0
 11
-277.8585686836
 21
2220.4311010273
 31
0.0
  0
LINE
  5
12F
330
1F
100
AcDbEntity
  8
0
  6
Continuous
 62
     7
370
    15
100
AcDbLine
 10
-251.3585671338
 20
2222.4310752781
 30
0.0
 11
259.641425356
 21
2222.4310752781
 31
0.0
  0
LINE
  5
130
330
1F
100
AcDbEntity
  8
0
  6
Continuous
 62
     7
370
    15
100
AcDbLine
 10
286.1414418069
 20
2220.4311010273
 30
0.0
 11
372.1414372769
 21
2211.4310380848
 31
0.0
  0
LINE
  5
131
330
1F
100
AcDbEntity
  8
0
  6
Continuous
 62
     7
370
    15
100
AcDbLine
 10
259.641425356
 20
2222.4310752781
 30
0.0
 11
259.641425356
 21
2220.4311010273
 31
0.0
  0
LINE
  5
132
330
1F
100
AcDbEntity
  8
0
  6
Continuous
 62
     7
370
    15
100
AcDbLine
 10
-277.8585686836
 20
2220.4311010273
 30
0.0
 11
-251.3585671338
 21
2220.4311010273
 31
0.0
  0
LINE
  5
133
330
1F
100
AcDbEntity
  8
0
  6
Continuous
 62
     7
370
    15
100
AcDbLine
 10
-251.3585671338
 20
2220.4311010273
 30
0.0
 11
-251.3585671338
 21
2222.4310752781
 31
0.0
  0
LINE
  5
134
330
1F
100
AcDbEntity
  8
0
  6
Continuous
 62
     7
370
    15
100
AcDbLine
 10
259.641425356
 20
2220.4311010273
 30
0.0
 11
286.1414418069
 21
2220.4311010273
 31
0.0
  0
LINE
  5
135
330
1F
100
AcDbEntity
  8
0
  6
Continuous
 62
     7
370
    15
100
AcDbLine
 10
-363.8585641536
 20
2191.4310571583
 30
0.0
 11
-363.8585641536
 21
2211.4310380848
 31
0.0
  0
LINE
  5
136
330
1F
100
AcDbEntity
  8
0
  6
Continuous
 62
     7
370
    15
100
AcDbLine
 10
372.1414372769
 20
2211.4310380848
 30
0.0
 11
372.1414372769
 21
2191.4310571583
 31
0.0
  0
LINE
  5
137
330
1F
100
AcDbEntity
  8
0
  6
Continuous
 62
     7
370
    15
100
AcDbLine
 10
-363.8585641536
 20
1687.4310490521
 30
0.0
 11
-363.8585641536
 21
1727.4310705097
 31
0.0
  0
LINE
  5
138
330
1F
100
AcDbEntity
  8
0
  6
Continuous
 62
     7
370
    15
100
AcDbLine
 10
372.1414372769
 20
1687.4310490521
 30
0.0
 11
-363.8585641536
 21
1687.4310490521
 31
0.0
  0
LINE
  5
139
330
1F
100
AcDbEntity
  8
0
  6
Continuous
 62
     7
370
    15
100
AcDbLine
 10
372.1414372769
 20
1727.4310705097
 30
0.0
 11
372.1414372769
 21
1687.4310490521
 31
0.0
  0
LINE
  5
13A
330
1F
100
AcDbEntity
  8
0
  6
Continuous
 62
     7
370
    15
100
AcDbLine
 10
385.6414422837
 20
2170.9311124714
 30
0.0
 11
394.6414158192
 21
2179.9310562046
 31
0.0
  0
LINE
  5
13B
330
1F
100
AcDbEntity
  8
0
  6
Continuous
 62
     7
370
    15
100
AcDbLine
 10
394.6414158192
 20
1718.9310905369
 30
0.0
 11
385.6414422837
 21
1727.9310938747
 31
0.0
  0
LINE
  5
13C
330
1F
100
AcDbEntity
  8
0
  6
Continuous
 62
     7
370
    15
100
AcDbLine
 10
-377.3585691604
 20
1727.9310938747
 30
0.0
 11
-386.3585724983
 21
1718.9310905369
 31
0.0
  0
LINE
  5
13D
330
1F
100
AcDbEntity
  8
0
  6
Continuous
 62
     7
370
    15
100
AcDbLine
 10
-386.3585724983
 20
2179.9310562046
 30
0.0
 11
-377.3585691604
 21
2170.9311124714
 31
0.0
  0
LINE
  5
13E
330
1F
100
AcDbEntity
  8
0
  6
Continuous
 62
     7
370
    15
100
AcDbLine
 10
360.3286311475
 20
2224.4310495289
 30
0.0
 11
347.4542364922
 21
2224.4310495289
 31
0.0
  0
LINE
  5
13F
330
1F
100
AcDbEntity
  8
0
  6
Continuous
 62
     7
370
    15
100
AcDbLine
 10
-339.1713782701
 20
2224.4310495289
 30
0.0
 11
-352.0457580241
 21
2224.4310495289
 31
0.0
  0
DIMENSION
  5
140
330
1F
100
AcDbEntity
  8
0
  6
Continuous
 62
     7
370
     0
100
AcDbDimension
  2
_D_3
 10
354.1414314003
 20
1561.4310663771
 30
0.0
 11
-5.6278532009
 21
1561.4310663771
 31
0.0
 70
   160
  1
<>
 71
     2
 42
-1.0
  3
SLDDIMSTYLE0
100
AcDbAlignedDimension
 13
-345.8585685997
 23
1667.4310663772
 33
0.0
 14
354.1414314003
 24
1667.4310663771
 34
0.0
 50
0.0
100
AcDbRotatedDimension
  0
DIMENSION
  5
14A
330
1F
100
AcDbEntity
  8
0
  6
Continuous
 62
     7
370
     0
100
AcDbDimension
  2
_D_4
 10
-477.8586717526
 20
1667.4310663772
 30
0.0
 11
-477.8586717526
 21
1957.3663031851
 31
0.0
 70
   160
  1
<>
 71
     2
 42
-1.0
  3
SLDDIMSTYLE1
100
AcDbAlignedDimension
 13
-345.6085685998
 23
2227.1810663772
 33
0.0
 14
-345.8585685997
 24
1667.4310663772
 34
0.0
 50
90.0
100
AcDbRotatedDimension
  0
LINE
  5
155
330
1F
100
AcDbEntity
  8
0
  6
Continuous
 62
     7
370
    15
100
AcDbLine
 10
1382.6579926939
 20
3537.5095959566
 30
0.0
 11
1383.658039424
 21
3537.5095959566
 31
0.0
  0
LINE
  5
156
330
1F
100
AcDbEntity
  8
0
  6
Continuous
 62
     7
370
    15
100
AcDbLine
 10
1384.658086154
 20
3428.5095976479
 30
0.0
 11
1384.658086154
 21
3536.5096013807
 31
0.0
  0
LINE
  5
157
330
1F
100
AcDbEntity
  8
0
  6
Continuous
 62
     7
370
    15
100
AcDbLine
 10
1383.658039424
 20
3427.5095984153
 30
0.0
 11
1382.6579926939
 21
3427.5095984153
 31
0.0
  0
ARC
  5
158
330
1F
100
AcDbEntity
  8
0
  6
Continuous
 62
     7
370
    15
100
AcDbCircle
 10
1383.6580333841
 20
3536.5095980867
 30
0.0
 40
0.9999999999997726
100
AcDbArc
 50
360.0
 51
90.0
  0
ARC
  5
159
330
1F
100
AcDbEntity
  8
0
  6
Continuous
 62
     7
370
    15
100
AcDbCircle
 10
1383.6580333841
 20
3428.5095980867
 30
0.0
 40
1.0
100
AcDbArc
 50
270.0
 51
0.0
  0
LINE
  5
15A
330
1F
100
AcDbEntity
  8
0
  6
Continuous
 62
     7
370
    15
100
AcDbLine
 10
782.6580284567
 20
4382.5096022151
 30
0.0
 11
782.6580284567
 21
2582.5095902942
 31
0.0
  0
LINE
  5
15B
330
1F
100
AcDbEntity
  8
0
  6
Continuous
 62
     7
370
    15
100
AcDbLine
 10
1382.6579926939
 20
4382.5096022151
 30
0.0
 11
782.6580284567
 21
4382.5096022151
 31
0.0
  0
LINE
  5
15C
330
1F
100
AcDbEntity
  8
0
  6
Continuous
 62
     7
370
    15
100
AcDbLine
 10
1382.6579926939
 20
4382.5096022151
 30
0.0
 11
1382.6579926939
 21
2582.5095902942
 31
0.0
  0
LINE
  5
15D
330
1F
100
AcDbEntity
  8
0
  6
Continuous
 62
     7
370
    15
100
AcDbLine
 10
782.6580284567
 20
2582.5095902942
 30
0.0
 11
1382.6579926939
 21
2582.5095902942
 31
0.0
  0
LINE
  5
15E
330
1F
100
AcDbEntity
  8
0
  6
Continuous
 62
     7
370
    15
100
AcDbLine
 10
1358.1579802962
 20
4117.0095931552
 30
0.0
 11
1358.1579802962
 21
4148.009611275
 31
0.0
  0
ARC
  5
15F
330
1F
100
AcDbEntity
  8
0
  6
Continuous
 62
     7
370
    15
100
AcDbCircle
 10
1362.6580333841
 20
4117.0095980869
 30
0.0
 40
4.5
100
AcDbArc
 50
180.0
 51
0.0
  0
LINE
  5
160
330
1F
100
AcDbEntity
  8
0
  6
Continuous
 62
     7
370
    15
100
AcDbLine
 10
1367.1580432387
 20
4148.009611275
 30
0.0
 11
1367.1580432387
 21
4117.0095931552
 31
0.0
  0
ARC
  5
161
330
1F
100
AcDbEntity
  8
0
  6
Continuous
 62
     7
370
    15
100
AcDbCircle
 10
1362.6580333841
 20
4148.0095980869
 30
0.0
 40
4.5
100
AcDbArc
 50
0.0
 51
180.0
  0
LINE
  5
162
330
1F
100
AcDbEntity
  8
0
  6
Continuous
 62
     7
370
    15
100
AcDbLine
 10
1358.1579802962
 20
2817.0095812343
 30
0.0
 11
1358.1579802962
 21
2848.0095993541
 31
0.0
  0
ARC
  5
163
330
1F
100
AcDbEntity
  8
0
  6
Continuous
 62
     7
370
    15
100
AcDbCircle
 10
1362.6580333841
 20
2817.0095980869
 30
0.0
 40
4.500000000000227
100
AcDbArc
 50
180.0
 51
0.0
  0
LINE
  5
164
330
1F
100
AcDbEntity
  8
0
  6
Continuous
 62
     7
370
    15
100
AcDbLine
 10
1367.1580432387
 20
2848.0095993541
 30
0.0
 11
1367.1580432387
 21
2817.0095812343
 31
0.0
  0
ARC
  5
165
330
1F
100
AcDbEntity
  8
0
  6
Continuous
 62
     7
370
    15
100
AcDbCircle
 10
1362.6580333841
 20
2848.0095980869
 30
0.0
 40
4.5
100
AcDbArc
 50
0.0
 51
180.0
  0
LINE
  5
166
330
1F
100
AcDbEntity
  8
0
  6
Continuous
 62
     7
370
    15
100
AcDbLine
 10
1358.1579802962
 20
3467.0095983706
 30
0.0
 11
1358.1579802962
 21
3498.009597864
 31
0.0
  0
ARC
  5
167
330
1F
100
AcDbEntity
  8
0
  6
Continuous
 62
     7
370
    15
100
AcDbCircle
 10
1362.6580333841
 20
3467.0095980869
 30
0.0
 40
4.500000000000227
100
AcDbArc
 50
180.0
 51
0.0
  0
LINE
  5
168
330
1F
100
AcDbEntity
  8
0
  6
Continuous
 62
     7
370
    15
100
AcDbLine
 10
1367.1580432387
 20
3498.009597864
 30
0.0
 11
1367.1580432387
 21
3467.0095983706
 31
0.0
  0
ARC
  5
169
330
1F
100
AcDbEntity
  8
0
  6
Continuous
 62
     7
370
    15
100
AcDbCircle
 10
1362.6580333841
 20
3498.0095980869
 30
0.0
 40
4.500000000000227
100
AcDbArc
 50
0.0
 51
180.0
  0
ARC
  5
16A
330
1F
100
AcDbEntity
  8
0
  6
Continuous
 62
     7
370
    15
100
AcDbCircle
 10
802.658033384
 20
2848.0095980869
 30
0.0
 40
4.5
100
AcDbArc
 50
0.0
 51
180.0
  0
LINE
  5
16B
330
1F
100
AcDbEntity
  8
0
  6
Continuous
 62
     7
370
    15
100
AcDbLine
 10
798.1580375166
 20
2817.0095812343
 30
0.0
 11
798.1580375166
 21
2848.0095993541
 31
0.0
  0
ARC
  5
16C
330
1F
100
AcDbEntity
  8
0
  6
Continuous
 62
     7
370
    15
100
AcDbCircle
 10
802.658033384
 20
2817.0095980869
 30
0.0
 40
4.499999999999886
100
AcDbArc
 50
180.0
 51
0.0
  0
LINE
  5
16D
330
1F
100
AcDbEntity
  8
0
  6
Continuous
 62
     7
370
    15
100
AcDbLine
 10
807.1580408545
 20
2848.0095993541
 30
0.0
 11
807.1580408545
 21
2817.0095812343
 31
0.0
  0
ARC
  5
16E
330
1F
100
AcDbEntity
  8
0
  6
Continuous
 62
     7
370
    15
100
AcDbCircle
 10
802.658033384
 20
4148.0095980869
 30
0.0
 40
4.5
100
AcDbArc
 50
0.0
 51
180.0
  0
LINE
  5
16F
330
1F
100
AcDbEntity
  8
0
  6
Continuous
 62
     7
370
    15
100
AcDbLine
 10
798.1580375166
 20
4117.0095931552
 30
0.0
 11
798.1580375166
 21
4148.009611275
 31
0.0
  0
ARC
  5
170
330
1F
100
AcDbEntity
  8
0
  6
Continuous
 62
     7
370
    15
100
AcDbCircle
 10
802.658033384
 20
4117.0095980869
 30
0.0
 40
4.5
100
AcDbArc
 50
180.0
 51
0.0
  0
LINE
  5
171
330
1F
100
AcDbEntity
  8
0
  6
Continuous
 62
     7
370
    15
100
AcDbLine
 10
807.1580408545
 20
4148.009611275
 30
0.0
 11
807.1580408545
 21
4117.0095931552
 31
0.0
  0
ARC
  5
172
330
1F
100
AcDbEntity
  8
0
  6
Continuous
 62
     7
370
    15
100
AcDbCircle
 10
802.658033384
 20
3498.0095980869
 30
0.0
 40
4.500000000000227
100
AcDbArc
 50
0.0
 51
180.0
  0
LINE
  5
173
330
1F
100
AcDbEntity
  8
0
  6
Continuous
 62
     7
370
    15
100
AcDbLine
 10
798.1580375166
 20
3467.0095983706
 30
0.0
 11
798.1580375166
 21
3498.009597864
 31
0.0
  0
ARC
  5
174
330
1F
100
AcDbEntity
  8
0
  6
Continuous
 62
     7
370
    15
100
AcDbCircle
 10
802.658033384
 20
3467.0095980869
 30
0.0
 40
4.5
100
AcDbArc
 50
180.0
 51
0.0
  0
LINE
  5
175
330
1F
100
AcDbEntity
  8
0
  6
Continuous
 62
     7
370
    15
100
AcDbLine
 10
807.1580408545
 20
3498.009597864
 30
0.0
 11
807.1580408545
 21
3467.0095983706
 31
0.0
  0
LINE
  5
176
330
1F
100
AcDbEntity
  8
0
  6
Continuous
 62
     7
370
    15
100
AcDbLine
 10
1342.6580308409
 20
2642.5095926784
 30
0.0
 11
1322.6580499144
 21
2642.5095926784
 31
0.0
  0
LINE
  5
177
330
1F
100
AcDbEntity
  8
0
  6
Continuous
 62
     7
370
    15
100
AcDbLine
 10
1342.6580308409
 20
3162.5096034072
 30
0.0
 11
1342.6580308409
 21
2642.5095926784
 31
0.0
  0
LINE
  5
178
330
1F
100
AcDbEntity
  8
0
  6
Continuous
 62
     7
370
    15
100
AcDbLine
 10
822.6580499144
 20
3162.5096034072
 30
0.0
 11
1342.6580308409
 21
3162.5096034072
 31
0.0
  0
LINE
  5
179
330
1F
100
AcDbEntity
  8
0
  6
Continuous
 62
     7
370
    15
100
AcDbLine
 10
822.6580499144
 20
2642.5095926784
 30
0.0
 11
822.6580499144
 21
3162.5096034072
 31
0.0
  0
LINE
  5
17A
330
1F
100
AcDbEntity
  8
0
  6
Continuous
 62
     7
370
    15
100
AcDbLine
 10
842.6580308409
 20
2642.5095926784
 30
0.0
 11
822.6580499144
 21
2642.5095926784
 31
0.0
  0
LINE
  5
17B
330
1F
100
AcDbEntity
  8
0
  6
Continuous
 62
     7
370
    15
100
AcDbLine
 10
842.6580308409
 20
2640.5096184276
 30
0.0
 11
842.6580308409
 21
2642.5095926784
 31
0.0
  0
LINE
  5
17C
330
1F
100
AcDbEntity
  8
0
  6
Continuous
 62
     7
370
    15
100
AcDbLine
 10
822.6580499144
 20
2640.5096184276
 30
0.0
 11
842.6580308409
 21
2640.5096184276
 31
0.0
  0
LINE
  5
17D
330
1F
100
AcDbEntity
  8
0
  6
Continuous
 62
     7
370
    15
100
AcDbLine
 10
822.6580499144
 20
2584.5096241496
 30
0.0
 11
822.6580499144
 21
2640.5096184276
 31
0.0
  0
LINE
  5
17E
330
1F
100
AcDbEntity
  8
0
  6
Continuous
 62
     7
370
    15
100
AcDbLine
 10
1342.6580308409
 20
2584.5096241496
 30
0.0
 11
822.6580499144
 21
2584.5096241496
 31
0.0
  0
LINE
  5
17F
330
1F
100
AcDbEntity
  8
0
  6
Continuous
 62
     7
370
    15
100
AcDbLine
 10
1342.6580308409
 20
2640.5096184276
 30
0.0
 11
1342.6580308409
 21
2584.5096241496
 31
0.0
  0
LINE
  5
180
330
1F
100
AcDbEntity
  8
0
  6
Continuous
 62
     7
370
    15
100
AcDbLine
 10
1322.6580499144
 20
2640.5096184276
 30
0.0
 11
1342.6580308409
 21
2640.5096184276
 31
0.0
  0
LINE
  5
181
330
1F
100
AcDbEntity
  8
0
  6
Continuous
 62
     7
370
    15
100
AcDbLine
 10
1322.6580499144
 20
2642.5095926784
 30
0.0
 11
1322.6580499144
 21
2640.5096184276
 31
0.0
  0
LINE
  5
182
330
1F
100
AcDbEntity
  8
0
  6
Continuous
 62
     7
370
    15
100
AcDbLine
 10
842.6580308409
 20
3744.509590771
 30
0.0
 11
822.6580499144
 21
3744.509590771
 31
0.0
  0
LINE
  5
183
330
1F
100
AcDbEntity
  8
0
  6
Continuous
 62
     7
370
    15
100
AcDbLine
 10
842.6580308409
 20
3742.5095867179
 30
0.0
 11
842.6580308409
 21
3744.509590771
 31
0.0
  0
LINE
  5
184
330
1F
100
AcDbEntity
  8
0
  6
Continuous
 62
     7
370
    15
100
AcDbLine
 10
822.6580499144
 20
3742.5095867179
 30
0.0
 11
842.6580308409
 21
3742.5095867179
 31
0.0
  0
LINE
  5
185
330
1F
100
AcDbEntity
  8
0
  6
Continuous
 62
     7
370
    15
100
AcDbLine
 10
822.6580499144
 20
3222.5095908902
 30
0.0
 11
822.6580499144
 21
3742.5095867179
 31
0.0
  0
LINE
  5
186
330
1F
100
AcDbEntity
  8
0
  6
Continuous
 62
     7
370
    15
100
AcDbLine
 10
842.6580308409
 20
3222.5095908902
 30
0.0
 11
822.6580499144
 21
3222.5095908902
 31
0.0
  0
LINE
  5
187
330
1F
100
AcDbEntity
  8
0
  6
Continuous
 62
     7
370
    15
100
AcDbLine
 10
842.6580308409
 20
3220.5096017383
 30
0.0
 11
842.6580308409
 21
3222.5095908902
 31
0.0
  0
LINE
  5
188
330
1F
100
AcDbEntity
  8
0
  6
Continuous
 62
     7
370
    15
100
AcDbLine
 10
822.6580499144
 20
3220.5096017383
 30
0.0
 11
842.6580308409
 21
3220.5096017383
 31
0.0
  0
LINE
  5
189
330
1F
100
AcDbEntity
  8
0
  6
Continuous
 62
     7
370
    15
100
AcDbLine
 10
822.6580499144
 20
3164.5096074603
 30
0.0
 11
822.6580499144
 21
3220.5096017383
 31
0.0
  0
LINE
  5
18A
330
1F
100
AcDbEntity
  8
0
  6
Continuous
 62
     7
370
    15
100
AcDbLine
 10
1342.6580308409
 20
3164.5096074603
 30
0.0
 11
822.6580499144
 21
3164.5096074603
 31
0.0
  0
LINE
  5
18B
330
1F
100
AcDbEntity
  8
0
  6
Continuous
 62
     7
370
    15
100
AcDbLine
 10
1342.6580308409
 20
3220.5096017383
 30
0.0
 11
1342.6580308409
 21
3164.5096074603
 31
0.0
  0
LINE
  5
18C
330
1F
100
AcDbEntity
  8
0
  6
Continuous
 62
     7
370
    15
100
AcDbLine
 10
1322.6580499144
 20
3220.5096017383
 30
0.0
 11
1342.6580308409
 21
3220.5096017383
 31
0.0
  0
LINE
  5
18D
330
1F
100
AcDbEntity
  8
0
  6
Continuous
 62
     7
370
    15
100
AcDbLine
 10
1322.6580499144
 20
3222.5095908902
 30
0.0
 11
1322.6580499144
 21
3220.5096017383
 31
0.0
  0
LINE
  5
18E
330
1F
100
AcDbEntity
  8
0
  6
Continuous
 62
     7
370
    15
100
AcDbLine
 10
1342.6580308409
 20
3222.5095908902
 30
0.0
 11
1322.6580499144
 21
3222.5095908902
 31
0.0
  0
LINE
  5
18F
330
1F
100
AcDbEntity
  8
0
  6
Continuous
 62
     7
370
    15
100
AcDbLine
 10
1342.6580308409
 20
3742.5095867179
 30
0.0
 11
1342.6580308409
 21
3222.5095908902
 31
0.0
  0
LINE
  5
190
330
1F
100
AcDbEntity
  8
0
  6
Continuous
 62
     7
370
    15
100
AcDbLine
 10
1322.6580499144
 20
3742.5095867179
 30
0.0
 11
1342.6580308409
 21
3742.5095867179
 31
0.0
  0
LINE
  5
191
330
1F
100
AcDbEntity
  8
0
  6
Continuous
 62
     7
370
    15
100
AcDbLine
 10
1322.6580499144
 20
3744.509590771
 30
0.0
 11
1322.6580499144
 21
3742.5095867179
 31
0.0
  0
LINE
  5
192
330
1F
100
AcDbEntity
  8
0
  6
Continuous
 62
     7
370
    15
100
AcDbLine
 10
1342.6580308409
 20
3744.509590771
 30
0.0
 11
1322.6580499144
 21
3744.509590771
 31
0.0
  0
LINE
  5
193
330
1F
100
AcDbEntity
  8
0
  6
Continuous
 62
     7
370
    15
100
AcDbLine
 10
1342.6580308409
 20
3800.509585049
 30
0.0
 11
1342.6580308409
 21
3744.509590771
 31
0.0
  0
LINE
  5
194
330
1F
100
AcDbEntity
  8
0
  6
Continuous
 62
     7
370
    15
100
AcDbLine
 10
822.6580499144
 20
3800.509585049
 30
0.0
 11
1342.6580308409
 21
3800.509585049
 31
0.0
  0
LINE
  5
195
330
1F
100
AcDbEntity
  8
0
  6
Continuous
 62
     7
370
    15
100
AcDbLine
 10
822.6580499144
 20
3744.509590771
 30
0.0
 11
822.6580499144
 21
3800.509585049
 31
0.0
  0
LINE
  5
196
330
1F
100
AcDbEntity
  8
0
  6
Continuous
 62
     7
370
    15
100
AcDbLine
 10
842.6580308409
 20
4324.5095740817
 30
0.0
 11
822.6580499144
 21
4324.5095740817
 31
0.0
  0
LINE
  5
197
330
1F
100
AcDbEntity
  8
0
  6
Continuous
 62
     7
370
    15
100
AcDbLine
 10
842.6580308409
 20
4322.5095998309
 30
0.0
 11
842.6580308409
 21
4324.5095740817
 31
0.0
  0
LINE
  5
198
330
1F
100
AcDbEntity
  8
0
  6
Continuous
 62
     7
370
    15
100
AcDbLine
 10
822.6580499144
 20
4322.5095998309
 30
0.0
 11
842.6580308409
 21
4322.5095998309
 31
0.0
  0
LINE
  5
199
330
1F
100
AcDbEntity
  8
0
  6
Continuous
 62
     7
370
    15
100
AcDbLine
 10
822.6580499144
 20
3802.5095891021
 30
0.0
 11
822.6580499144
 21
4322.5095998309
 31
0.0
  0
LINE
  5
19A
330
1F
100
AcDbEntity
  8
0
  6
Continuous
 62
     7
370
    15
100
AcDbLine
 10
1342.6580308409
 20
3802.5095891021
 30
0.0
 11
822.6580499144
 21
3802.5095891021
 31
0.0
  0
LINE
  5
19B
330
1F
100
AcDbEntity
  8
0
  6
Continuous
 62
     7
370
    15
100
AcDbLine
 10
1342.6580308409
 20
4322.5095998309
 30
0.0
 11
1342.6580308409
 21
3802.5095891021
 31
0.0
  0
LINE
  5
19C
330
1F
100
AcDbEntity
  8
0
  6
Continuous
 62
     7
370
    15
100
AcDbLine
 10
1322.6580499144
 20
4322.5095998309
 30
0.0
 11
1342.6580308409
 21
4322.5095998309
 31
0.0
  0
LINE
  5
19D
330
1F
100
AcDbEntity
  8
0
  6
Continuous
 62
     7
370
    15
100
AcDbLine
 10
1322.6580499144
 20
4324.5095740817
 30
0.0
 11
1322.6580499144
 21
4322.5095998309
 31
0.0
  0
LINE
  5
19E
330
1F
100
AcDbEntity
  8
0
  6
Continuous
 62
     7
370
    15
100
AcDbLine
 10
1342.6580308409
 20
4324.5095740817
 30
0.0
 11
1322.6580499144
 21
4324.5095740817
 31
0.0
  0
LINE
  5
19F
330
1F
100
AcDbEntity
  8
0
  6
Continuous
 62
     7
370
    15
100
AcDbLine
 10
1342.6580308409
 20
4380.5095683597
 30
0.0
 11
1342.6580308409
 21
4324.5095740817
 31
0.0
  0
LINE
  5
1A0
330
1F
100
AcDbEntity
  8
0
  6
Continuous
 62
     7
370
    15
100
AcDbLine
 10
822.6580499144
 20
4380.5095683597
 30
0.0
 11
1342.6580308409
 21
4380.5095683597
 31
0.0
  0
LINE
  5
1A1
330
1F
100
AcDbEntity
  8
0
  6
Continuous
 62
     7
370
    15
100
AcDbLine
 10
822.6580499144
 20
4324.5095740817
 30
0.0
 11
822.6580499144
 21
4380.5095683597
 31
0.0
  0
LINE
  5
1A2
330
1F
100
AcDbEntity
  8
0
  6
Continuous
 62
     7
370
    15
100
AcDbLine
 10
862.6580117674
 20
4322.5095998309
 30
0.0
 11
862.6580117674
 21
4324.5095740817
 31
0.0
  0
LINE
  5
1A3
330
1F
100
AcDbEntity
  8
0
  6
Continuous
 62
     7
370
    15
100
AcDbLine
 10
842.6580308409
 20
4324.5095740817
 30
0.0
 11
862.6580117674
 21
4324.5095740817
 31
0.0
  0
LINE
  5
1A4
330
1F
100
AcDbEntity
  8
0
  6
Continuous
 62
     7
370
    15
100
AcDbLine
 10
842.6580308409
 20
4322.5095998309
 30
0.0
 11
862.6580117674
 21
4322.5095998309
 31
0.0
  0
LINE
  5
1A5
330
1F
100
AcDbEntity
  8
0
  6
Continuous
 62
     7
370
    15
100
AcDbLine
 10
1302.6580689879
 20
4324.5095740817
 30
0.0
 11
1302.6580689879
 21
4322.5095998309
 31
0.0
  0
LINE
  5
1A6
330
1F
100
AcDbEntity
  8
0
  6
Continuous
 62
     7
370
    15
100
AcDbLine
 10
1302.6580689879
 20
4324.5095740817
 30
0.0
 11
1322.6580499144
 21
4324.5095740817
 31
0.0
  0
LINE
  5
1A7
330
1F
100
AcDbEntity
  8
0
  6
Continuous
 62
     7
370
    15
100
AcDbLine
 10
1302.6580689879
 20
4322.5095998309
 30
0.0
 11
1322.6580499144
 21
4322.5095998309
 31
0.0
  0
LINE
  5
1A8
330
1F
100
AcDbEntity
  8
0
  6
Continuous
 62
     7
370
    15
100
AcDbLine
 10
1302.6580689879
 20
2642.5095926784
 30
0.0
 11
1302.6580689879
 21
2640.5096184276
 31
0.0
  0
LINE
  5
1A9
330
1F
100
AcDbEntity
  8
0
  6
Continuous
 62
     7
370
    15
100
AcDbLine
 10
1322.6580499144
 20
2640.5096184276
 30
0.0
 11
1302.6580689879
 21
2640.5096184276
 31
0.0
  0
LINE
  5
1AA
330
1F
100
AcDbEntity
  8
0
  6
Continuous
 62
     7
370
    15
100
AcDbLine
 10
1322.6580499144
 20
2642.5095926784
 30
0.0
 11
1302.6580689879
 21
2642.5095926784
 31
0.0
  0
LINE
  5
1AB
330
1F
100
AcDbEntity
  8
0
  6
Continuous
 62
     7
370
    15
100
AcDbLine
 10
862.6580117674
 20
2640.5096184276
 30
0.0
 11
862.6580117674
 21
2642.5095926784
 31
0.0
  0
LINE
  5
1AC
330
1F
100
AcDbEntity
  8
0
  6
Continuous
 62
     7
370
    15
100
AcDbLine
 10
862.6580117674
 20
2640.5096184276
 30
0.0
 11
842.6580308409
 21
2640.5096184276
 31
0.0
  0
LINE
  5
1AD
330
1F
100
AcDbEntity
  8
0
  6
Continuous
 62
     7
370
    15
100
AcDbLine
 10
862.6580117674
 20
2642.5095926784
 30
0.0
 11
842.6580308409
 21
2642.5095926784
 31
0.0
  0
LINE
  5
1AE
330
1F
100
AcDbEntity
  8
0
  6
Continuous
 62
     7
370
    15
100
AcDbLine
 10
862.6580117674
 20
3220.5096017383
 30
0.0
 11
862.6580117674
 21
3222.5095908902
 31
0.0
  0
LINE
  5
1AF
330
1F
100
AcDbEntity
  8
0
  6
Continuous
 62
     7
370
    15
100
AcDbLine
 10
842.6580308409
 20
3220.5096017383
 30
0.0
 11
862.6580117674
 21
3220.5096017383
 31
0.0
  0
LINE
  5
1B0
330
1F
100
AcDbEntity
  8
0
  6
Continuous
 62
     7
370
    15
100
AcDbLine
 10
862.6580117674
 20
3222.5095908902
 30
0.0
 11
842.6580308409
 21
3222.5095908902
 31
0.0
  0
LINE
  5
1B1
330
1F
100
AcDbEntity
  8
0
  6
Continuous
 62
     7
370
    15
100
AcDbLine
 10
1302.6580689879
 20
3222.5095908902
 30
0.0
 11
1302.6580689879
 21
3220.5096017383
 31
0.0
  0
LINE
  5
1B2
330
1F
100
AcDbEntity
  8
0
  6
Continuous
 62
     7
370
    15
100
AcDbLine
 10
1322.6580499144
 20
3220.5096017383
 30
0.0
 11
1302.6580689879
 21
3220.5096017383
 31
0.0
  0
LINE
  5
1B3
330
1F
100
AcDbEntity
  8
0
  6
Continuous
 62
     7
370
    15
100
AcDbLine
 10
1322.6580499144
 20
3222.5095908902
 30
0.0
 11
1302.6580689879
 21
3222.5095908902
 31
0.0
  0
LINE
  5
1B4
330
1F
100
AcDbEntity
  8
0
  6
Continuous
 62
     7
370
    15
100
AcDbLine
 10
862.6580117674
 20
3742.5095867179
 30
0.0
 11
862.6580117674
 21
3744.509590771
 31
0.0
  0
LINE
  5
1B5
330
1F
100
AcDbEntity
  8
0
  6
Continuous
 62
     7
370
    15
100
AcDbLine
 10
842.6580308409
 20
3744.509590771
 30
0.0
 11
862.6580117674
 21
3744.509590771
 31
0.0
  0
LINE
  5
1B6
330
1F
100
AcDbEntity
  8
0
  6
Continuous
 62
     7
370
    15
100
AcDbLine
 10
842.6580308409
 20
3742.5095867179
 30
0.0
 11
862.6580117674
 21
3742.5095867179
 31
0.0
  0
LINE
  5
1B7
330
1F
100
AcDbEntity
  8
0
  6
Continuous
 62
     7
370
    15
100
AcDbLine
 10
1302.6580689879
 20
3744.509590771
 30
0.0
 11
1302.6580689879
 21
3742.5095867179
 31
0.0
  0
LINE
  5
1B8
330
1F
100
AcDbEntity
  8
0
  6
Continuous
 62
     7
370
    15
100
AcDbLine
 10
1302.6580689879
 20
3744.509590771
 30
0.0
 11
1322.6580499144
 21
3744.509590771
 31
0.0
  0
LINE
  5
1B9
330
1F
100
AcDbEntity
  8
0
  6
Continuous
 62
     7
370
    15
100
AcDbLine
 10
1302.6580689879
 20
3742.5095867179
 30
0.0
 11
1322.6580499144
 21
3742.5095867179
 31
0.0
  0
LINE
  5
1BA
330
1F
100
AcDbEntity
  8
0
  6
Continuous
 62
     7
370
    15
100
AcDbLine
 10
862.6580117674
 20
4324.5095740817
 30
0.0
 11
1302.6580689879
 21
4324.5095740817
 31
0.0
  0
LINE
  5
1BB
330
1F
100
AcDbEntity
  8
0
  6
Continuous
 62
     7
370
    15
100
AcDbLine
 10
862.6580117674
 20
4322.5095998309
 30
0.0
 11
1302.6580689879
 21
4322.5095998309
 31
0.0
  0
LINE
  5
1BC
330
1F
100
AcDbEntity
  8
0
  6
Continuous
 62
     7
370
    15
100
AcDbLine
 10
1302.6580689879
 20
3220.5096017383
 30
0.0
 11
862.6580117674
 21
3220.5096017383
 31
0.0
  0
LINE
  5
1BD
330
1F
100
AcDbEntity
  8
0
  6
Continuous
 62
     7
370
    15
100
AcDbLine
 10
1302.6580689879
 20
3222.5095908902
 30
0.0
 11
862.6580117674
 21
3222.5095908902
 31
0.0
  0
LINE
  5
1BE
330
1F
100
AcDbEntity
  8
0
  6
Continuous
 62
     7
370
    15
100
AcDbLine
 10
1302.6580689879
 20
2640.5096184276
 30
0.0
 11
862.6580117674
 21
2640.5096184276
 31
0.0
  0
LINE
  5
1BF
330
1F
100
AcDbEntity
  8
0
  6
Continuous
 62
     7
370
    15
100
AcDbLine
 10
1302.6580689879
 20
2642.5095926784
 30
0.0
 11
862.6580117674
 21
2642.5095926784
 31
0.0
  0
LINE
  5
1C0
330
1F
100
AcDbEntity
  8
0
  6
Continuous
 62
     7
370
    15
100
AcDbLine
 10
862.6580117674
 20
3744.509590771
 30
0.0
 11
1302.6580689879
 21
3744.509590771
 31
0.0
  0
LINE
  5
1C1
330
1F
100
AcDbEntity
  8
0
  6
Continuous
 62
     7
370
    15
100
AcDbLine
 10
862.6580117674
 20
3742.5095867179
 30
0.0
 11
1302.6580689879
 21
3742.5095867179
 31
0.0
  0
LINE
  5
1C2
330
1F
100
AcDbEntity
  8
0
  6
Continuous
 62
     7
370
    15
100
AcDbLine
 10
1292.1579955549
 20
4343.5096274875
 30
0.0
 11
1323.1580136748
 21
4343.5096274875
 31
0.0
  0
ARC
  5
1C3
330
1F
100
AcDbEntity
  8
0
  6
Continuous
 62
     7
370
    15
100
AcDbCircle
 10
1292.1580333841
 20
4339.009598087
 30
0.0
 40
4.500000000000909
100
AcDbArc
 50
90.0
 51
270.0
  0
LINE
  5
1C4
330
1F
100
AcDbEntity
  8
0
  6
Continuous
 62
     7
370
    15
100
AcDbLine
 10
1323.1580136748
 20
4334.5096241496
 30
0.0
 11
1292.1579955549
 21
4334.5096241496
 31
0.0
  0
ARC
  5
1C5
330
1F
100
AcDbEntity
  8
0
  6
Continuous
 62
     7
370
    15
100
AcDbCircle
 10
1323.1580333841
 20
4339.009598087
 30
0.0
 40
4.500000000001819
100
AcDbArc
 50
270.0
 51
90.0
  0
LINE
  5
1C6
330
1F
100
AcDbEntity
  8
0
  6
Continuous
 62
     7
370
    15
100
AcDbLine
 10
1292.1579955549
 20
4370.5095778964
 30
0.0
 11
1323.1580136748
 21
4370.5095778964
 31
0.0
  0
ARC
  5
1C7
330
1F
100
AcDbEntity
  8
0
  6
Continuous
 62
     7
370
    15
100
AcDbCircle
 10
1292.1580333841
 20
4366.009598087
 30
0.0
 40
4.500000000000909
100
AcDbArc
 50
90.0
 51
270.0
  0
LINE
  5
1C8
330
1F
100
AcDbEntity
  8
0
  6
Continuous
 62
     7
370
    15
100
AcDbLine
 10
1323.1580136748
 20
4361.5095745586
 30
0.0
 11
1292.1579955549
 21
4361.5095745586
 31
0.0
  0
ARC
  5
1C9
330
1F
100
AcDbEntity
  8
0
  6
Continuous
 62
     7
370
    15
100
AcDbCircle
 10
1323.1580333841
 20
4366.009598087
 30
0.0
 40
4.500000000000909
100
AcDbArc
 50
270.0
 51
90.0
  0
LINE
  5
1CA
330
1F
100
AcDbEntity
  8
0
  6
Continuous
 62
     7
370
    15
100
AcDbLine
 10
1242.1580432387
 20
4343.5096274875
 30
0.0
 11
1273.1580613585
 21
4343.5096274875
 31
0.0
  0
ARC
  5
1CB
330
1F
100
AcDbEntity
  8
0
  6
Continuous
 62
     7
370
    15
100
AcDbCircle
 10
1242.1580333841
 20
4339.009598087
 30
0.0
 40
4.500000000000909
100
AcDbArc
 50
90.0
 51
270.0
  0
LINE
  5
1CC
330
1F
100
AcDbEntity
  8
0
  6
Continuous
 62
     7
370
    15
100
AcDbLine
 10
1273.1580613585
 20
4334.5096241496
 30
0.0
 11
1242.1580432387
 21
4334.5096241496
 31
0.0
  0
ARC
  5
1CD
330
1F
100
AcDbEntity
  8
0
  6
Continuous
 62
     7
370
    15
100
AcDbCircle
 10
1273.1580333841
 20
4339.009598087
 30
0.0
 40
4.500000000000909
100
AcDbArc
 50
270.0
 51
90.0
  0
LINE
  5
1CE
330
1F
100
AcDbEntity
  8
0
  6
Continuous
 62
     7
370
    15
100
AcDbLine
 10
1242.1580432387
 20
4370.5095778964
 30
0.0
 11
1273.1580613585
 21
4370.5095778964
 31
0.0
  0
ARC
  5
1CF
330
1F
100
AcDbEntity
  8
0
  6
Continuous
 62
     7
370
    15
100
AcDbCircle
 10
1242.1580333841
 20
4366.009598087
 30
0.0
 40
4.500000000001819
100
AcDbArc
 50
90.0
 51
270.0
  0
LINE
  5
1D0
330
1F
100
AcDbEntity
  8
0
  6
Continuous
 62
     7
370
    15
100
AcDbLine
 10
1273.1580613585
 20
4361.5095745586
 30
0.0
 11
1242.1580432387
 21
4361.5095745586
 31
0.0
  0
ARC
  5
1D1
330
1F
100
AcDbEntity
  8
0
  6
Continuous
 62
     7
370
    15
100
AcDbCircle
 10
1273.1580333841
 20
4366.009598087
 30
0.0
 40
4.500000000000909
100
AcDbArc
 50
270.0
 51
90.0
  0
LINE
  5
1D2
330
1F
100
AcDbEntity
  8
0
  6
Continuous
 62
     7
370
    15
100
AcDbLine
 10
1192.1580909224
 20
4343.5096274875
 30
0.0
 11
1223.1579898329
 21
4343.5096274875
 31
0.0
  0
ARC
  5
1D3
330
1F
100
AcDbEntity
  8
0
  6
Continuous
 62
     7
370
    15
100
AcDbCircle
 10
1192.1580333841
 20
4339.009598087
 30
0.0
 40
4.500000000000909
100
AcDbArc
 50
90.0
 51
270.0
  0
LINE
  5
1D4
330
1F
100
AcDbEntity
  8
0
  6
Continuous
 62
     7
370
    15
100
AcDbLine
 10
1223.1579898329
 20
4334.5096241496
 30
0.0
 11
1192.1580909224
 21
4334.5096241496
 31
0.0
  0
ARC
  5
1D5
330
1F
100
AcDbEntity
  8
0
  6
Continuous
 62
     7
370
    15
100
AcDbCircle
 10
1223.1580333841
 20
4339.009598087
 30
0.0
 40
4.500000000000909
100
AcDbArc
 50
270.0
 51
90.0
  0
LINE
  5
1D6
330
1F
100
AcDbEntity
  8
0
  6
Continuous
 62
     7
370
    15
100
AcDbLine
 10
1192.1580909224
 20
4370.5095778964
 30
0.0
 11
1223.1579898329
 21
4370.5095778964
 31
0.0
  0
ARC
  5
1D7
330
1F
100
AcDbEntity
  8
0
  6
Continuous
 62
     7
370
    15
100
AcDbCircle
 10
1192.1580333841
 20
4366.009598087
 30
0.0
 40
4.500000000001819
100
AcDbArc
 50
90.0
 51
270.0
  0
LINE
  5
1D8
330
1F
100
AcDbEntity
  8
0
  6
Continuous
 62
     7
370
    15
100
AcDbLine
 10
1223.1579898329
 20
4361.5095745586
 30
0.0
 11
1192.1580909224
 21
4361.5095745586
 31
0.0
  0
ARC
  5
1D9
330
1F
100
AcDbEntity
  8
0
  6
Continuous
 62
     7
370
    15
100
AcDbCircle
 10
1223.1580333841
 20
4366.009598087
 30
0.0
 40
4.500000000000909
100
AcDbArc
 50
270.0
 51
90.0
  0
LINE
  5
1DA
330
1F
100
AcDbEntity
  8
0
  6
Continuous
 62
     7
370
    15
100
AcDbLine
 10
1142.1580193968
 20
4343.5096274875
 30
0.0
 11
1173.1580375166
 21
4343.5096274875
 31
0.0
  0
ARC
  5
1DB
330
1F
100
AcDbEntity
  8
0
  6
Continuous
 62
     7
370
    15
100
AcDbCircle
 10
1142.1580333841
 20
4339.009598087
 30
0.0
 40
4.500000000000909
100
AcDbArc
 50
90.0
 51
270.0
  0
LINE
  5
1DC
330
1F
100
AcDbEntity
  8
0
  6
Continuous
 62
     7
370
    15
100
AcDbLine
 10
1173.1580375166
 20
4334.5096241496
 30
0.0
 11
1142.1580193968
 21
4334.5096241496
 31
0.0
  0
ARC
  5
1DD
330
1F
100
AcDbEntity
  8
0
  6
Continuous
 62
     7
370
    15
100
AcDbCircle
 10
1173.1580333841
 20
4339.009598087
 30
0.0
 40
4.500000000000909
100
AcDbArc
 50
270.0
 51
90.0
  0
LINE
  5
1DE
330
1F
100
AcDbEntity
  8
0
  6
Continuous
 62
     7
370
    15
100
AcDbLine
 10
1142.1580193968
 20
4370.5095778964
 30
0.0
 11
1173.1580375166
 21
4370.5095778964
 31
0.0
  0
ARC
  5
1DF
330
1F
100
AcDbEntity
  8
0
  6
Continuous
 62
     7
370
    15
100
AcDbCircle
 10
1142.1580333841
 20
4366.009598087
 30
0.0
 40
4.500000000000909
100
AcDbArc
 50
90.0
 51
270.0
  0
LINE
  5
1E0
330
1F
100
AcDbEntity
  8
0
  6
Continuous
 62
     7
370
    15
100
AcDbLine
 10
1173.1580375166
 20
4361.5095745586
 30
0.0
 11
1142.1580193968
 21
4361.5095745586
 31
0.0
  0
ARC
  5
1E1
330
1F
100
AcDbEntity
  8
0
  6
Continuous
 62
     7
370
    15
100
AcDbCircle
 10
1173.1580333841
 20
4366.009598087
 30
0.0
 40
4.500000000000909
100
AcDbArc
 50
270.0
 51
90.0
  0
LINE
  5
1E2
330
1F
100
AcDbEntity
  8
0
  6
Continuous
 62
     7
370
    15
100
AcDbLine
 10
992.1580432387
 20
4343.5096274875
 30
0.0
 11
1023.1580613585
 21
4343.5096274875
 31
0.0
  0
ARC
  5
1E3
330
1F
100
AcDbEntity
  8
0
  6
Continuous
 62
     7
370
    15
100
AcDbCircle
 10
992.1580333841
 20
4339.009598087
 30
0.0
 40
4.500000000000909
100
AcDbArc
 50
90.0
 51
270.0
  0
LINE
  5
1E4
330
1F
100
AcDbEntity
  8
0
  6
Continuous
 62
     7
370
    15
100
AcDbLine
 10
1023.1580613585
 20
4334.5096241496
 30
0.0
 11
992.1580432387
 21
4334.5096241496
 31
0.0
  0
ARC
  5
1E5
330
1F
100
AcDbEntity
  8
0
  6
Continuous
 62
     7
370
    15
100
AcDbCircle
 10
1023.1580333841
 20
4339.009598087
 30
0.0
 40
4.500000000000909
100
AcDbArc
 50
270.0
 51
90.0
  0
LINE
  5
1E6
330
1F
100
AcDbEntity
  8
0
  6
Continuous
 62
     7
370
    15
100
AcDbLine
 10
992.1580432387
 20
4370.5095778964
 30
0.0
 11
1023.1580613585
 21
4370.5095778964
 31
0.0
  0
ARC
  5
1E7
330
1F
100
AcDbEntity
  8
0
  6
Continuous
 62
     7
370
    15
100
AcDbCircle
 10
992.1580333841
 20
4366.009598087
 30
0.0
 40
4.500000000000909
100
AcDbArc
 50
90.0
 51
270.0
  0
LINE
  5
1E8
330
1F
100
AcDbEntity
  8
0
  6
Continuous
 62
     7
370
    15
100
AcDbLine
 10
1023.1580613585
 20
4361.5095745586
 30
0.0
 11
992.1580432387
 21
4361.5095745586
 31
0.0
  0
ARC
  5
1E9
330
1F
100
AcDbEntity
  8
0
  6
Continuous
 62
     7
370
    15
100
AcDbCircle
 10
1023.1580333841
 20
4366.009598087
 30
0.0
 40
4.500000000000909
100
AcDbArc
 50
270.0
 51
90.0
  0
LINE
  5
1EA
330
1F
100
AcDbEntity
  8
0
  6
Continuous
 62
     7
370
    15
100
AcDbLine
 10
942.1580313177
 20
4343.5096274875
 30
0.0
 11
973.1580494375
 21
4343.5096274875
 31
0.0
  0
ARC
  5
1EB
330
1F
100
AcDbEntity
  8
0
  6
Continuous
 62
     7
370
    15
100
AcDbCircle
 10
942.1580333841
 20
4339.009598087
 30
0.0
 40
4.500000000000909
100
AcDbArc
 50
90.0
 51
270.0
  0
LINE
  5
1EC
330
1F
100
AcDbEntity
  8
0
  6
Continuous
 62
     7
370
    15
100
AcDbLine
 10
973.1580494375
 20
4334.5096241496
 30
0.0
 11
942.1580313177
 21
4334.5096241496
 31
0.0
  0
ARC
  5
1ED
330
1F
100
AcDbEntity
  8
0
  6
Continuous
 62
     7
370
    15
100
AcDbCircle
 10
973.1580333841
 20
4339.009598087
 30
0.0
 40
4.500000000000909
100
AcDbArc
 50
270.0
 51
90.0
  0
LINE
  5
1EE
330
1F
100
AcDbEntity
  8
0
  6
Continuous
 62
     7
370
    15
100
AcDbLine
 10
942.1580313177
 20
4370.5095778964
 30
0.0
 11
973.1580494375
 21
4370.5095778964
 31
0.0
  0
ARC
  5
1EF
330
1F
100
AcDbEntity
  8
0
  6
Continuous
 62
     7
370
    15
100
AcDbCircle
 10
942.1580333841
 20
4366.009598087
 30
0.0
 40
4.500000000001819
100
AcDbArc
 50
90.0
 51
270.0
  0
LINE
  5
1F0
330
1F
100
AcDbEntity
  8
0
  6
Continuous
 62
     7
370
    15
100
AcDbLine
 10
973.1580494375
 20
4361.5095745586
 30
0.0
 11
942.1580313177
 21
4361.5095745586
 31
0.0
  0
ARC
  5
1F1
330
1F
100
AcDbEntity
  8
0
  6
Continuous
 62
     7
370
    15
100
AcDbCircle
 10
973.1580333841
 20
4366.009598087
 30
0.0
 40
4.500000000000909
100
AcDbArc
 50
270.0
 51
90.0
  0
LINE
  5
1F2
330
1F
100
AcDbEntity
  8
0
  6
Continuous
 62
     7
370
    15
100
AcDbLine
 10
892.1580193968
 20
4343.5096274875
 30
0.0
 11
923.1580375166
 21
4343.5096274875
 31
0.0
  0
ARC
  5
1F3
330
1F
100
AcDbEntity
  8
0
  6
Continuous
 62
     7
370
    15
100
AcDbCircle
 10
892.1580333841
 20
4339.009598087
 30
0.0
 40
4.500000000001819
100
AcDbArc
 50
90.0
 51
270.0
  0
LINE
  5
1F4
330
1F
100
AcDbEntity
  8
0
  6
Continuous
 62
     7
370
    15
100
AcDbLine
 10
923.1580375166
 20
4334.5096241496
 30
0.0
 11
892.1580193968
 21
4334.5096241496
 31
0.0
  0
ARC
  5
1F5
330
1F
100
AcDbEntity
  8
0
  6
Continuous
 62
     7
370
    15
100
AcDbCircle
 10
923.1580333841
 20
4339.009598087
 30
0.0
 40
4.500000000000909
100
AcDbArc
 50
270.0
 51
90.0
  0
LINE
  5
1F6
330
1F
100
AcDbEntity
  8
0
  6
Continuous
 62
     7
370
    15
100
AcDbLine
 10
842.1580074759
 20
4343.5096274875
 30
0.0
 11
873.1580255957
 21
4343.5096274875
 31
0.0
  0
ARC
  5
1F7
330
1F
100
AcDbEntity
  8
0
  6
Continuous
 62
     7
370
    15
100
AcDbCircle
 10
842.1580333841
 20
4339.009598087
 30
0.0
 40
4.500000000000909
100
AcDbArc
 50
90.0
 51
270.0
  0
LINE
  5
1F8
330
1F
100
AcDbEntity
  8
0
  6
Continuous
 62
     7
370
    15
100
AcDbLine
 10
873.1580255957
 20
4334.5096241496
 30
0.0
 11
842.1580074759
 21
4334.5096241496
 31
0.0
  0
ARC
  5
1F9
330
1F
100
AcDbEntity
  8
0
  6
Continuous
 62
     7
370
    15
100
AcDbCircle
 10
873.1580333841
 20
4339.009598087
 30
0.0
 40
4.500000000000909
100
AcDbArc
 50
270.0
 51
90.0
  0
LINE
  5
1FA
330
1F
100
AcDbEntity
  8
0
  6
Continuous
 62
     7
370
    15
100
AcDbLine
 10
873.1580255957
 20
4361.5095745586
 30
0.0
 11
842.1580074759
 21
4361.5095745586
 31
0.0
  0
ARC
  5
1FB
330
1F
100
AcDbEntity
  8
0
  6
Continuous
 62
     7
370
    15
100
AcDbCircle
 10
873.1580333841
 20
4366.009598087
 30
0.0
 40
4.500000000000909
100
AcDbArc
 50
270.0
 51
90.0
  0
LINE
  5
1FC
330
1F
100
AcDbEntity
  8
0
  6
Continuous
 62
     7
370
    15
100
AcDbLine
 10
842.1580074759
 20
4370.5095778964
 30
0.0
 11
873.1580255957
 21
4370.5095778964
 31
0.0
  0
ARC
  5
1FD
330
1F
100
AcDbEntity
  8
0
  6
Continuous
 62
     7
370
    15
100
AcDbCircle
 10
842.1580333841
 20
4366.009598087
 30
0.0
 40
4.500000000000909
100
AcDbArc
 50
90.0
 51
270.0
  0
LINE
  5
1FE
330
1F
100
AcDbEntity
  8
0
  6
Continuous
 62
     7
370
    15
100
AcDbLine
 10
892.1580193968
 20
4370.5095778964
 30
0.0
 11
923.1580375166
 21
4370.5095778964
 31
0.0
  0
ARC
  5
1FF
330
1F
100
AcDbEntity
  8
0
  6
Continuous
 62
     7
370
    15
100
AcDbCircle
 10
892.1580333841
 20
4366.009598087
 30
0.0
 40
4.500000000000909
100
AcDbArc
 50
90.0
 51
270.0
  0
LINE
  5
200
330
1F
100
AcDbEntity
  8
0
  6
Continuous
 62
     7
370
    15
100
AcDbLine
 10
923.1580375166
 20
4361.5095745586
 30
0.0
 11
892.1580193968
 21
4361.5095745586
 31
0.0
  0
ARC
  5
201
330
1F
100
AcDbEntity
  8
0
  6
Continuous
 62
     7
370
    15
100
AcDbCircle
 10
923.1580333841
 20
4366.009598087
 30
0.0
 40
4.500000000000909
100
AcDbArc
 50
270.0
 51
90.0
  0
LINE
  5
202
330
1F
100
AcDbEntity
  8
0
  6
Continuous
 62
     7
370
    15
100
AcDbLine
 10
1092.1580670805
 20
4343.5096274875
 30
0.0
 11
1123.1580852003
 21
4343.5096274875
 31
0.0
  0
ARC
  5
203
330
1F
100
AcDbEntity
  8
0
  6
Continuous
 62
     7
370
    15
100
AcDbCircle
 10
1092.1580333841
 20
4339.009598087
 30
0.0
 40
4.500000000000909
100
AcDbArc
 50
90.0
 51
270.0
  0
LINE
  5
204
330
1F
100
AcDbEntity
  8
0
  6
Continuous
 62
     7
370
    15
100
AcDbLine
 10
1123.1580852003
 20
4334.5096241496
 30
0.0
 11
1092.1580670805
 21
4334.5096241496
 31
0.0
  0
ARC
  5
205
330
1F
100
AcDbEntity
  8
0
  6
Continuous
 62
     7
370
    15
100
AcDbCircle
 10
1123.1580333841
 20
4339.009598087
 30
0.0
 40
4.500000000000909
100
AcDbArc
 50
270.0
 51
90.0
  0
LINE
  5
206
330
1F
100
AcDbEntity
  8
0
  6
Continuous
 62
     7
370
    15
100
AcDbLine
 10
1042.1579955549
 20
4343.5096274875
 30
0.0
 11
1073.1580136748
 21
4343.5096274875
 31
0.0
  0
ARC
  5
207
330
1F
100
AcDbEntity
  8
0
  6
Continuous
 62
     7
370
    15
100
AcDbCircle
 10
1042.1580333841
 20
4339.009598087
 30
0.0
 40
4.500000000000909
100
AcDbArc
 50
90.0
 51
270.0
  0
LINE
  5
208
330
1F
100
AcDbEntity
  8
0
  6
Continuous
 62
     7
370
    15
100
AcDbLine
 10
1073.1580136748
 20
4334.5096241496
 30
0.0
 11
1042.1579955549
 21
4334.5096241496
 31
0.0
  0
ARC
  5
209
330
1F
100
AcDbEntity
  8
0
  6
Continuous
 62
     7
370
    15
100
AcDbCircle
 10
1073.1580333841
 20
4339.009598087
 30
0.0
 40
4.500000000000909
100
AcDbArc
 50
270.0
 51
90.0
  0
LINE
  5
20A
330
1F
100
AcDbEntity
  8
0
  6
Continuous
 62
     7
370
    15
100
AcDbLine
 10
1073.1580136748
 20
4361.5095745586
 30
0.0
 11
1042.1579955549
 21
4361.5095745586
 31
0.0
  0
ARC
  5
20B
330
1F
100
AcDbEntity
  8
0
  6
Continuous
 62
     7
370
    15
100
AcDbCircle
 10
1073.1580333841
 20
4366.009598087
 30
0.0
 40
4.500000000000909
100
AcDbArc
 50
270.0
 51
90.0
  0
LINE
  5
20C
330
1F
100
AcDbEntity
  8
0
  6
Continuous
 62
     7
370
    15
100
AcDbLine
 10
1042.1579955549
 20
4370.5095778964
 30
0.0
 11
1073.1580136748
 21
4370.5095778964
 31
0.0
  0
ARC
  5
20D
330
1F
100
AcDbEntity
  8
0
  6
Continuous
 62
     7
370
    15
100
AcDbCircle
 10
1042.1580333841
 20
4366.009598087
 30
0.0
 40
4.500000000000909
100
AcDbArc
 50
90.0
 51
270.0
  0
LINE
  5
20E
330
1F
100
AcDbEntity
  8
0
  6
Continuous
 62
     7
370
    15
100
AcDbLine
 10
1092.1580670805
 20
4370.5095778964
 30
0.0
 11
1123.1580852003
 21
4370.5095778964
 31
0.0
  0
ARC
  5
20F
330
1F
100
AcDbEntity
  8
0
  6
Continuous
 62
     7
370
    15
100
AcDbCircle
 10
1092.1580333841
 20
4366.009598087
 30
0.0
 40
4.500000000001819
100
AcDbArc
 50
90.0
 51
270.0
  0
LINE
  5
210
330
1F
100
AcDbEntity
  8
0
  6
Continuous
 62
     7
370
    15
100
AcDbLine
 10
1123.1580852003
 20
4361.5095745586
 30
0.0
 11
1092.1580670805
 21
4361.5095745586
 31
0.0
  0
ARC
  5
211
330
1F
100
AcDbEntity
  8
0
  6
Continuous
 62
     7
370
    15
100
AcDbCircle
 10
1123.1580333841
 20
4366.009598087
 30
0.0
 40
4.500000000000909
100
AcDbArc
 50
270.0
 51
90.0
  0
LINE
  5
212
330
1F
100
AcDbEntity
  8
0
  6
Continuous
 62
     7
370
    15
100
AcDbLine
 10
873.1580255957
 20
2621.5096246265
 30
0.0
 11
842.1580074759
 21
2621.5096246265
 31
0.0
  0
ARC
  5
213
330
1F
100
AcDbEntity
  8
0
  6
Continuous
 62
     7
370
    15
100
AcDbCircle
 10
873.1580333841
 20
2626.0095980868
 30
0.0
 40
4.500000000000909
100
AcDbArc
 50
270.0
 51
90.0
  0
LINE
  5
214
330
1F
100
AcDbEntity
  8
0
  6
Continuous
 62
     7
370
    15
100
AcDbLine
 10
842.1580074759
 20
2630.5095683597
 30
0.0
 11
873.1580255957
 21
2630.5095683597
 31
0.0
  0
ARC
  5
215
330
1F
100
AcDbEntity
  8
0
  6
Continuous
 62
     7
370
    15
100
AcDbCircle
 10
842.1580333841
 20
2626.0095980868
 30
0.0
 40
4.500000000000455
100
AcDbArc
 50
90.0
 51
270.0
  0
LINE
  5
216
330
1F
100
AcDbEntity
  8
0
  6
Continuous
 62
     7
370
    15
100
AcDbLine
 10
873.1580255957
 20
2594.5096146129
 30
0.0
 11
842.1580074759
 21
2594.5096146129
 31
0.0
  0
ARC
  5
217
330
1F
100
AcDbEntity
  8
0
  6
Continuous
 62
     7
370
    15
100
AcDbCircle
 10
873.1580333841
 20
2599.0095980868
 30
0.0
 40
4.500000000000909
100
AcDbArc
 50
270.0
 51
90.0
  0
LINE
  5
218
330
1F
100
AcDbEntity
  8
0
  6
Continuous
 62
     7
370
    15
100
AcDbLine
 10
842.1580074759
 20
2603.5096179508
 30
0.0
 11
873.1580255957
 21
2603.5096179508
 31
0.0
  0
ARC
  5
219
330
1F
100
AcDbEntity
  8
0
  6
Continuous
 62
     7
370
    15
100
AcDbCircle
 10
842.1580333841
 20
2599.0095980868
 30
0.0
 40
4.500000000000455
100
AcDbArc
 50
90.0
 51
270.0
  0
LINE
  5
21A
330
1F
100
AcDbEntity
  8
0
  6
Continuous
 62
     7
370
    15
100
AcDbLine
 10
923.1580375166
 20
2621.5096246265
 30
0.0
 11
892.1580193968
 21
2621.5096246265
 31
0.0
  0
ARC
  5
21B
330
1F
100
AcDbEntity
  8
0
  6
Continuous
 62
     7
370
    15
100
AcDbCircle
 10
923.1580333841
 20
2626.0095980868
 30
0.0
 40
4.500000000000909
100
AcDbArc
 50
270.0
 51
90.0
  0
LINE
  5
21C
330
1F
100
AcDbEntity
  8
0
  6
Continuous
 62
     7
370
    15
100
AcDbLine
 10
892.1580193968
 20
2630.5095683597
 30
0.0
 11
923.1580375166
 21
2630.5095683597
 31
0.0
  0
ARC
  5
21D
330
1F
100
AcDbEntity
  8
0
  6
Continuous
 62
     7
370
    15
100
AcDbCircle
 10
892.1580333841
 20
2626.0095980868
 30
0.0
 40
4.500000000000909
100
AcDbArc
 50
90.0
 51
270.0
  0
LINE
  5
21E
330
1F
100
AcDbEntity
  8
0
  6
Continuous
 62
     7
370
    15
100
AcDbLine
 10
923.1580375166
 20
2594.5096146129
 30
0.0
 11
892.1580193968
 21
2594.5096146129
 31
0.0
  0
ARC
  5
21F
330
1F
100
AcDbEntity
  8
0
  6
Continuous
 62
     7
370
    15
100
AcDbCircle
 10
923.1580333841
 20
2599.0095980868
 30
0.0
 40
4.5
100
AcDbArc
 50
270.0
 51
90.0
  0
LINE
  5
220
330
1F
100
AcDbEntity
  8
0
  6
Continuous
 62
     7
370
    15
100
AcDbLine
 10
892.1580193968
 20
2603.5096179508
 30
0.0
 11
923.1580375166
 21
2603.5096179508
 31
0.0
  0
ARC
  5
221
330
1F
100
AcDbEntity
  8
0
  6
Continuous
 62
     7
370
    15
100
AcDbCircle
 10
892.1580333841
 20
2599.0095980868
 30
0.0
 40
4.500000000000455
100
AcDbArc
 50
90.0
 51
270.0
  0
LINE
  5
222
330
1F
100
AcDbEntity
  8
0
  6
Continuous
 62
     7
370
    15
100
AcDbLine
 10
973.1580494375
 20
2621.5096246265
 30
0.0
 11
942.1580313177
 21
2621.5096246265
 31
0.0
  0
ARC
  5
223
330
1F
100
AcDbEntity
  8
0
  6
Continuous
 62
     7
370
    15
100
AcDbCircle
 10
973.1580333841
 20
2626.0095980868
 30
0.0
 40
4.500000000000455
100
AcDbArc
 50
270.0
 51
90.0
  0
LINE
  5
224
330
1F
100
AcDbEntity
  8
0
  6
Continuous
 62
     7
370
    15
100
AcDbLine
 10
942.1580313177
 20
2630.5095683597
 30
0.0
 11
973.1580494375
 21
2630.5095683597
 31
0.0
  0
ARC
  5
225
330
1F
100
AcDbEntity
  8
0
  6
Continuous
 62
     7
370
    15
100
AcDbCircle
 10
942.1580333841
 20
2626.0095980868
 30
0.0
 40
4.500000000000455
100
AcDbArc
 50
90.0
 51
270.0
  0
LINE
  5
226
330
1F
100
AcDbEntity
  8
0
  6
Continuous
 62
     7
370
    15
100
AcDbLine
 10
973.1580494375
 20
2594.5096146129
 30
0.0
 11
942.1580313177
 21
2594.5096146129
 31
0.0
  0
ARC
  5
227
330
1F
100
AcDbEntity
  8
0
  6
Continuous
 62
     7
370
    15
100
AcDbCircle
 10
973.1580333841
 20
2599.0095980868
 30
0.0
 40
4.500000000000455
100
AcDbArc
 50
270.0
 51
90.0
  0
LINE
  5
228
330
1F
100
AcDbEntity
  8
0
  6
Continuous
 62
     7
370
    15
100
AcDbLine
 10
942.1580313177
 20
2603.5096179508
 30
0.0
 11
973.1580494375
 21
2603.5096179508
 31
0.0
  0
ARC
  5
229
330
1F
100
AcDbEntity
  8
0
  6
Continuous
 62
     7
370
    15
100
AcDbCircle
 10
942.1580333841
 20
2599.0095980868
 30
0.0
 40
4.500000000000909
100
AcDbArc
 50
90.0
 51
270.0
  0
LINE
  5
22A
330
1F
100
AcDbEntity
  8
0
  6
Continuous
 62
     7
370
    15
100
AcDbLine
 10
1023.1580613585
 20
2621.5096246265
 30
0.0
 11
992.1580432387
 21
2621.5096246265
 31
0.0
  0
ARC
  5
22B
330
1F
100
AcDbEntity
  8
0
  6
Continuous
 62
     7
370
    15
100
AcDbCircle
 10
1023.1580333841
 20
2626.0095980868
 30
0.0
 40
4.500000000000909
100
AcDbArc
 50
270.0
 51
90.0
  0
LINE
  5
22C
330
1F
100
AcDbEntity
  8
0
  6
Continuous
 62
     7
370
    15
100
AcDbLine
 10
992.1580432387
 20
2630.5095683597
 30
0.0
 11
1023.1580613585
 21
2630.5095683597
 31
0.0
  0
ARC
  5
22D
330
1F
100
AcDbEntity
  8
0
  6
Continuous
 62
     7
370
    15
100
AcDbCircle
 10
992.1580333841
 20
2626.0095980868
 30
0.0
 40
4.500000000000455
100
AcDbArc
 50
90.0
 51
270.0
  0
LINE
  5
22E
330
1F
100
AcDbEntity
  8
0
  6
Continuous
 62
     7
370
    15
100
AcDbLine
 10
1023.1580613585
 20
2594.5096146129
 30
0.0
 11
992.1580432387
 21
2594.5096146129
 31
0.0
  0
ARC
  5
22F
330
1F
100
AcDbEntity
  8
0
  6
Continuous
 62
     7
370
    15
100
AcDbCircle
 10
1023.1580333841
 20
2599.0095980868
 30
0.0
 40
4.500000000000455
100
AcDbArc
 50
270.0
 51
90.0
  0
LINE
  5
230
330
1F
100
AcDbEntity
  8
0
  6
Continuous
 62
     7
370
    15
100
AcDbLine
 10
992.1580432387
 20
2603.5096179508
 30
0.0
 11
1023.1580613585
 21
2603.5096179508
 31
0.0
  0
ARC
  5
231
330
1F
100
AcDbEntity
  8
0
  6
Continuous
 62
     7
370
    15
100
AcDbCircle
 10
992.1580333841
 20
2599.0095980868
 30
0.0
 40
4.500000000001364
100
AcDbArc
 50
90.0
 51
270.0
  0
LINE
  5
232
330
1F
100
AcDbEntity
  8
0
  6
Continuous
 62
     7
370
    15
100
AcDbLine
 10
1173.1580375166
 20
2621.5096246265
 30
0.0
 11
1142.1580193968
 21
2621.5096246265
 31
0.0
  0
ARC
  5
233
330
1F
100
AcDbEntity
  8
0
  6
Continuous
 62
     7
370
    15
100
AcDbCircle
 10
1173.1580333841
 20
2626.0095980868
 30
0.0
 40
4.500000000000455
100
AcDbArc
 50
270.0
 51
90.0
  0
LINE
  5
234
330
1F
100
AcDbEntity
  8
0
  6
Continuous
 62
     7
370
    15
100
AcDbLine
 10
1142.1580193968
 20
2630.5095683597
 30
0.0
 11
1173.1580375166
 21
2630.5095683597
 31
0.0
  0
ARC
  5
235
330
1F
100
AcDbEntity
  8
0
  6
Continuous
 62
     7
370
    15
100
AcDbCircle
 10
1142.1580333841
 20
2626.0095980868
 30
0.0
 40
4.500000000000909
100
AcDbArc
 50
90.0
 51
270.0
  0
LINE
  5
236
330
1F
100
AcDbEntity
  8
0
  6
Continuous
 62
     7
370
    15
100
AcDbLine
 10
1173.1580375166
 20
2594.5096146129
 30
0.0
 11
1142.1580193968
 21
2594.5096146129
 31
0.0
  0
ARC
  5
237
330
1F
100
AcDbEntity
  8
0
  6
Continuous
 62
     7
370
    15
100
AcDbCircle
 10
1173.1580333841
 20
2599.0095980868
 30
0.0
 40
4.500000000000455
100
AcDbArc
 50
270.0
 51
90.0
  0
LINE
  5
238
330
1F
100
AcDbEntity
  8
0
  6
Continuous
 62
     7
370
    15
100
AcDbLine
 10
1142.1580193968
 20
2603.5096179508
 30
0.0
 11
1173.1580375166
 21
2603.5096179508
 31
0.0
  0
ARC
  5
239
330
1F
100
AcDbEntity
  8
0
  6
Continuous
 62
     7
370
    15
100
AcDbCircle
 10
1142.1580333841
 20
2599.0095980868
 30
0.0
 40
4.500000000000909
100
AcDbArc
 50
90.0
 51
270.0
  0
LINE
  5
23A
330
1F
100
AcDbEntity
  8
0
  6
Continuous
 62
     7
370
    15
100
AcDbLine
 10
1223.1579898329
 20
2621.5096246265
 30
0.0
 11
1192.1580909224
 21
2621.5096246265
 31
0.0
  0
ARC
  5
23B
330
1F
100
AcDbEntity
  8
0
  6
Continuous
 62
     7
370
    15
100
AcDbCircle
 10
1223.1580333841
 20
2626.0095980868
 30
0.0
 40
4.5
100
AcDbArc
 50
270.0
 51
90.0
  0
LINE
  5
23C
330
1F
100
AcDbEntity
  8
0
  6
Continuous
 62
     7
370
    15
100
AcDbLine
 10
1192.1580909224
 20
2630.5095683597
 30
0.0
 11
1223.1579898329
 21
2630.5095683597
 31
0.0
  0
ARC
  5
23D
330
1F
100
AcDbEntity
  8
0
  6
Continuous
 62
     7
370
    15
100
AcDbCircle
 10
1192.1580333841
 20
2626.0095980868
 30
0.0
 40
4.500000000000455
100
AcDbArc
 50
90.0
 51
270.0
  0
LINE
  5
23E
330
1F
100
AcDbEntity
  8
0
  6
Continuous
 62
     7
370
    15
100
AcDbLine
 10
1223.1579898329
 20
2594.5096146129
 30
0.0
 11
1192.1580909224
 21
2594.5096146129
 31
0.0
  0
ARC
  5
23F
330
1F
100
AcDbEntity
  8
0
  6
Continuous
 62
     7
370
    15
100
AcDbCircle
 10
1223.1580333841
 20
2599.0095980868
 30
0.0
 40
4.500000000000455
100
AcDbArc
 50
270.0
 51
90.0
  0
LINE
  5
240
330
1F
100
AcDbEntity
  8
0
  6
Continuous
 62
     7
370
    15
100
AcDbLine
 10
1192.1580909224
 20
2603.5096179508
 30
0.0
 11
1223.1579898329
 21
2603.5096179508
 31
0.0
  0
ARC
  5
241
330
1F
100
AcDbEntity
  8
0
  6
Continuous
 62
     7
370
    15
100
AcDbCircle
 10
1192.1580333841
 20
2599.0095980868
 30
0.0
 40
4.500000000000455
100
AcDbArc
 50
90.0
 51
270.0
  0
LINE
  5
242
330
1F
100
AcDbEntity
  8
0
  6
Continuous
 62
     7
370
    15
100
AcDbLine
 10
1273.1580613585
 20
2621.5096246265
 30
0.0
 11
1242.1580432387
 21
2621.5096246265
 31
0.0
  0
ARC
  5
243
330
1F
100
AcDbEntity
  8
0
  6
Continuous
 62
     7
370
    15
100
AcDbCircle
 10
1273.1580333841
 20
2626.0095980868
 30
0.0
 40
4.500000000000909
100
AcDbArc
 50
270.0
 51
90.0
  0
LINE
  5
244
330
1F
100
AcDbEntity
  8
0
  6
Continuous
 62
     7
370
    15
100
AcDbLine
 10
1242.1580432387
 20
2630.5095683597
 30
0.0
 11
1273.1580613585
 21
2630.5095683597
 31
0.0
  0
ARC
  5
245
330
1F
100
AcDbEntity
  8
0
  6
Continuous
 62
     7
370
    15
100
AcDbCircle
 10
1242.1580333841
 20
2626.0095980868
 30
0.0
 40
4.500000000000455
100
AcDbArc
 50
90.0
 51
270.0
  0
LINE
  5
246
330
1F
100
AcDbEntity
  8
0
  6
Continuous
 62
     7
370
    15
100
AcDbLine
 10
1323.1580136748
 20
2621.5096246265
 30
0.0
 11
1292.1579955549
 21
2621.5096246265
 31
0.0
  0
ARC
  5
247
330
1F
100
AcDbEntity
  8
0
  6
Continuous
 62
     7
370
    15
100
AcDbCircle
 10
1323.1580333841
 20
2626.0095980868
 30
0.0
 40
4.500000000000909
100
AcDbArc
 50
270.0
 51
90.0
  0
LINE
  5
248
330
1F
100
AcDbEntity
  8
0
  6
Continuous
 62
     7
370
    15
100
AcDbLine
 10
1292.1579955549
 20
2630.5095683597
 30
0.0
 11
1323.1580136748
 21
2630.5095683597
 31
0.0
  0
ARC
  5
249
330
1F
100
AcDbEntity
  8
0
  6
Continuous
 62
     7
370
    15
100
AcDbCircle
 10
1292.1580333841
 20
2626.0095980868
 30
0.0
 40
4.500000000000455
100
AcDbArc
 50
90.0
 51
270.0
  0
LINE
  5
24A
330
1F
100
AcDbEntity
  8
0
  6
Continuous
 62
     7
370
    15
100
AcDbLine
 10
1292.1579955549
 20
2603.5096179508
 30
0.0
 11
1323.1580136748
 21
2603.5096179508
 31
0.0
  0
ARC
  5
24B
330
1F
100
AcDbEntity
  8
0
  6
Continuous
 62
     7
370
    15
100
AcDbCircle
 10
1292.1580333841
 20
2599.0095980868
 30
0.0
 40
4.500000000000909
100
AcDbArc
 50
90.0
 51
270.0
  0
LINE
  5
24C
330
1F
100
AcDbEntity
  8
0
  6
Continuous
 62
     7
370
    15
100
AcDbLine
 10
1323.1580136748
 20
2594.5096146129
 30
0.0
 11
1292.1579955549
 21
2594.5096146129
 31
0.0
  0
ARC
  5
24D
330
1F
100
AcDbEntity
  8
0
  6
Continuous
 62
     7
370
    15
100
AcDbCircle
 10
1323.1580333841
 20
2599.0095980868
 30
0.0
 40
4.500000000000455
100
AcDbArc
 50
270.0
 51
90.0
  0
LINE
  5
24E
330
1F
100
AcDbEntity
  8
0
  6
Continuous
 62
     7
370
    15
100
AcDbLine
 10
1273.1580613585
 20
2594.5096146129
 30
0.0
 11
1242.1580432387
 21
2594.5096146129
 31
0.0
  0
ARC
  5
24F
330
1F
100
AcDbEntity
  8
0
  6
Continuous
 62
     7
370
    15
100
AcDbCircle
 10
1273.1580333841
 20
2599.0095980868
 30
0.0
 40
4.500000000000455
100
AcDbArc
 50
270.0
 51
90.0
  0
LINE
  5
250
330
1F
100
AcDbEntity
  8
0
  6
Continuous
 62
     7
370
    15
100
AcDbLine
 10
1242.1580432387
 20
2603.5096179508
 30
0.0
 11
1273.1580613585
 21
2603.5096179508
 31
0.0
  0
ARC
  5
251
330
1F
100
AcDbEntity
  8
0
  6
Continuous
 62
     7
370
    15
100
AcDbCircle
 10
1242.1580333841
 20
2599.0095980868
 30
0.0
 40
4.500000000001364
100
AcDbArc
 50
90.0
 51
270.0
  0
LINE
  5
252
330
1F
100
AcDbEntity
  8
0
  6
Continuous
 62
     7
370
    15
100
AcDbLine
 10
1073.1580136748
 20
2621.5096246265
 30
0.0
 11
1042.1579955549
 21
2621.5096246265
 31
0.0
  0
ARC
  5
253
330
1F
100
AcDbEntity
  8
0
  6
Continuous
 62
     7
370
    15
100
AcDbCircle
 10
1073.1580333841
 20
2626.0095980868
 30
0.0
 40
4.500000000000455
100
AcDbArc
 50
270.0
 51
90.0
  0
LINE
  5
254
330
1F
100
AcDbEntity
  8
0
  6
Continuous
 62
     7
370
    15
100
AcDbLine
 10
1042.1579955549
 20
2630.5095683597
 30
0.0
 11
1073.1580136748
 21
2630.5095683597
 31
0.0
  0
ARC
  5
255
330
1F
100
AcDbEntity
  8
0
  6
Continuous
 62
     7
370
    15
100
AcDbCircle
 10
1042.1580333841
 20
2626.0095980868
 30
0.0
 40
4.500000000000455
100
AcDbArc
 50
90.0
 51
270.0
  0
LINE
  5
256
330
1F
100
AcDbEntity
  8
0
  6
Continuous
 62
     7
370
    15
100
AcDbLine
 10
1123.1580852003
 20
2621.5096246265
 30
0.0
 11
1092.1580670805
 21
2621.5096246265
 31
0.0
  0
ARC
  5
257
330
1F
100
AcDbEntity
  8
0
  6
Continuous
 62
     7
370
    15
100
AcDbCircle
 10
1123.1580333841
 20
2626.0095980868
 30
0.0
 40
4.500000000000909
100
AcDbArc
 50
270.0
 51
90.0
  0
LINE
  5
258
330
1F
100
AcDbEntity
  8
0
  6
Continuous
 62
     7
370
    15
100
AcDbLine
 10
1092.1580670805
 20
2630.5095683597
 30
0.0
 11
1123.1580852003
 21
2630.5095683597
 31
0.0
  0
ARC
  5
259
330
1F
100
AcDbEntity
  8
0
  6
Continuous
 62
     7
370
    15
100
AcDbCircle
 10
1092.1580333841
 20
2626.0095980868
 30
0.0
 40
4.500000000000455
100
AcDbArc
 50
90.0
 51
270.0
  0
LINE
  5
25A
330
1F
100
AcDbEntity
  8
0
  6
Continuous
 62
     7
370
    15
100
AcDbLine
 10
1092.1580670805
 20
2603.5096179508
 30
0.0
 11
1123.1580852003
 21
2603.5096179508
 31
0.0
  0
ARC
  5
25B
330
1F
100
AcDbEntity
  8
0
  6
Continuous
 62
     7
370
    15
100
AcDbCircle
 10
1092.1580333841
 20
2599.0095980868
 30
0.0
 40
4.5
100
AcDbArc
 50
90.0
 51
270.0
  0
LINE
  5
25C
330
1F
100
AcDbEntity
  8
0
  6
Continuous
 62
     7
370
    15
100
AcDbLine
 10
1123.1580852003
 20
2594.5096146129
 30
0.0
 11
1092.1580670805
 21
2594.5096146129
 31
0.0
  0
ARC
  5
25D
330
1F
100
AcDbEntity
  8
0
  6
Continuous
 62
     7
370
    15
100
AcDbCircle
 10
1123.1580333841
 20
2599.0095980868
 30
0.0
 40
4.5
100
AcDbArc
 50
270.0
 51
90.0
  0
LINE
  5
25E
330
1F
100
AcDbEntity
  8
0
  6
Continuous
 62
     7
370
    15
100
AcDbLine
 10
1073.1580136748
 20
2594.5096146129
 30
0.0
 11
1042.1579955549
 21
2594.5096146129
 31
0.0
  0
ARC
  5
25F
330
1F
100
AcDbEntity
  8
0
  6
Continuous
 62
     7
370
    15
100
AcDbCircle
 10
1073.1580333841
 20
2599.0095980868
 30
0.0
 40
4.500000000000455
100
AcDbArc
 50
270.0
 51
90.0
  0
LINE
  5
260
330
1F
100
AcDbEntity
  8
0
  6
Continuous
 62
     7
370
    15
100
AcDbLine
 10
1042.1579955549
 20
2603.5096179508
 30
0.0
 11
1073.1580136748
 21
2603.5096179508
 31
0.0
  0
ARC
  5
261
330
1F
100
AcDbEntity
  8
0
  6
Continuous
 62
     7
370
    15
100
AcDbCircle
 10
1042.1580333841
 20
2599.0095980868
 30
0.0
 40
4.500000000000455
100
AcDbArc
 50
90.0
 51
270.0
  0
LINE
  5
262
330
1F
100
AcDbEntity
  8
0
  6
Continuous
 62
     7
370
    15
100
AcDbLine
 10
873.1580255957
 20
3201.509593036
 30
0.0
 11
842.1580074759
 21
3201.509593036
 31
0.0
  0
ARC
  5
263
330
1F
100
AcDbEntity
  8
0
  6
Continuous
 62
     7
370
    15
100
AcDbCircle
 10
873.1580333841
 20
3206.0095980869
 30
0.0
 40
4.500000000000909
100
AcDbArc
 50
270.0
 51
90.0
  0
LINE
  5
264
330
1F
100
AcDbEntity
  8
0
  6
Continuous
 62
     7
370
    15
100
AcDbLine
 10
842.1580074759
 20
3210.5095963739
 30
0.0
 11
873.1580255957
 21
3210.5095963739
 31
0.0
  0
ARC
  5
265
330
1F
100
AcDbEntity
  8
0
  6
Continuous
 62
     7
370
    15
100
AcDbCircle
 10
842.1580333841
 20
3206.0095980869
 30
0.0
 40
4.500000000000909
100
AcDbArc
 50
90.0
 51
270.0
  0
LINE
  5
266
330
1F
100
AcDbEntity
  8
0
  6
Continuous
 62
     7
370
    15
100
AcDbLine
 10
873.1580255957
 20
3174.5095979236
 30
0.0
 11
842.1580074759
 21
3174.5095979236
 31
0.0
  0
ARC
  5
267
330
1F
100
AcDbEntity
  8
0
  6
Continuous
 62
     7
370
    15
100
AcDbCircle
 10
873.1580333841
 20
3179.0095980869
 30
0.0
 40
4.500000000000455
100
AcDbArc
 50
270.0
 51
90.0
  0
LINE
  5
268
330
1F
100
AcDbEntity
  8
0
  6
Continuous
 62
     7
370
    15
100
AcDbLine
 10
842.1580074759
 20
3183.5096012615
 30
0.0
 11
873.1580255957
 21
3183.5096012615
 31
0.0
  0
ARC
  5
269
330
1F
100
AcDbEntity
  8
0
  6
Continuous
 62
     7
370
    15
100
AcDbCircle
 10
842.1580333841
 20
3179.0095980869
 30
0.0
 40
4.500000000000455
100
AcDbArc
 50
90.0
 51
270.0
  0
LINE
  5
26A
330
1F
100
AcDbEntity
  8
0
  6
Continuous
 62
     7
370
    15
100
AcDbLine
 10
923.1580375166
 20
3201.509593036
 30
0.0
 11
892.1580193968
 21
3201.509593036
 31
0.0
  0
ARC
  5
26B
330
1F
100
AcDbEntity
  8
0
  6
Continuous
 62
     7
370
    15
100
AcDbCircle
 10
923.1580333841
 20
3206.0095980869
 30
0.0
 40
4.500000000000455
100
AcDbArc
 50
270.0
 51
90.0
  0
LINE
  5
26C
330
1F
100
AcDbEntity
  8
0
  6
Continuous
 62
     7
370
    15
100
AcDbLine
 10
892.1580193968
 20
3210.5095963739
 30
0.0
 11
923.1580375166
 21
3210.5095963739
 31
0.0
  0
ARC
  5
26D
330
1F
100
AcDbEntity
  8
0
  6
Continuous
 62
     7
370
    15
100
AcDbCircle
 10
892.1580333841
 20
3206.0095980869
 30
0.0
 40
4.500000000000909
100
AcDbArc
 50
90.0
 51
270.0
  0
LINE
  5
26E
330
1F
100
AcDbEntity
  8
0
  6
Continuous
 62
     7
370
    15
100
AcDbLine
 10
923.1580375166
 20
3174.5095979236
 30
0.0
 11
892.1580193968
 21
3174.5095979236
 31
0.0
  0
ARC
  5
26F
330
1F
100
AcDbEntity
  8
0
  6
Continuous
 62
     7
370
    15
100
AcDbCircle
 10
923.1580333841
 20
3179.0095980869
 30
0.0
 40
4.500000000000455
100
AcDbArc
 50
270.0
 51
90.0
  0
LINE
  5
270
330
1F
100
AcDbEntity
  8
0
  6
Continuous
 62
     7
370
    15
100
AcDbLine
 10
892.1580193968
 20
3183.5096012615
 30
0.0
 11
923.1580375166
 21
3183.5096012615
 31
0.0
  0
ARC
  5
271
330
1F
100
AcDbEntity
  8
0
  6
Continuous
 62
     7
370
    15
100
AcDbCircle
 10
892.1580333841
 20
3179.0095980869
 30
0.0
 40
4.500000000000455
100
AcDbArc
 50
90.0
 51
270.0
  0
LINE
  5
272
330
1F
100
AcDbEntity
  8
0
  6
Continuous
 62
     7
370
    15
100
AcDbLine
 10
973.1580494375
 20
3201.509593036
 30
0.0
 11
942.1580313177
 21
3201.509593036
 31
0.0
  0
ARC
  5
273
330
1F
100
AcDbEntity
  8
0
  6
Continuous
 62
     7
370
    15
100
AcDbCircle
 10
973.1580333841
 20
3206.0095980869
 30
0.0
 40
4.500000000000455
100
AcDbArc
 50
270.0
 51
90.0
  0
LINE
  5
274
330
1F
100
AcDbEntity
  8
0
  6
Continuous
 62
     7
370
    15
100
AcDbLine
 10
942.1580313177
 20
3210.5095963739
 30
0.0
 11
973.1580494375
 21
3210.5095963739
 31
0.0
  0
ARC
  5
275
330
1F
100
AcDbEntity
  8
0
  6
Continuous
 62
     7
370
    15
100
AcDbCircle
 10
942.1580333841
 20
3206.0095980869
 30
0.0
 40
4.500000000000455
100
AcDbArc
 50
90.0
 51
270.0
  0
LINE
  5
276
330
1F
100
AcDbEntity
  8
0
  6
Continuous
 62
     7
370
    15
100
AcDbLine
 10
973.1580494375
 20
3174.5095979236
 30
0.0
 11
942.1580313177
 21
3174.5095979236
 31
0.0
  0
ARC
  5
277
330
1F
100
AcDbEntity
  8
0
  6
Continuous
 62
     7
370
    15
100
AcDbCircle
 10
973.1580333841
 20
3179.0095980869
 30
0.0
 40
4.500000000000455
100
AcDbArc
 50
270.0
 51
90.0
  0
LINE
  5
278
330
1F
100
AcDbEntity
  8
0
  6
Continuous
 62
     7
370
    15
100
AcDbLine
 10
942.1580313177
 20
3183.5096012615
 30
0.0
 11
973.1580494375
 21
3183.5096012615
 31
0.0
  0
ARC
  5
279
330
1F
100
AcDbEntity
  8
0
  6
Continuous
 62
     7
370
    15
100
AcDbCircle
 10
942.1580333841
 20
3179.0095980869
 30
0.0
 40
4.500000000000455
100
AcDbArc
 50
90.0
 51
270.0
  0
LINE
  5
27A
330
1F
100
AcDbEntity
  8
0
  6
Continuous
 62
     7
370
    15
100
AcDbLine
 10
1023.1580613585
 20
3201.509593036
 30
0.0
 11
992.1580432387
 21
3201.509593036
 31
0.0
  0
ARC
  5
27B
330
1F
100
AcDbEntity
  8
0
  6
Continuous
 62
     7
370
    15
100
AcDbCircle
 10
1023.1580333841
 20
3206.0095980869
 30
0.0
 40
4.500000000000455
100
AcDbArc
 50
270.0
 51
90.0
  0
LINE
  5
27C
330
1F
100
AcDbEntity
  8
0
  6
Continuous
 62
     7
370
    15
100
AcDbLine
 10
992.1580432387
 20
3210.5095963739
 30
0.0
 11
1023.1580613585
 21
3210.5095963739
 31
0.0
  0
ARC
  5
27D
330
1F
100
AcDbEntity
  8
0
  6
Continuous
 62
     7
370
    15
100
AcDbCircle
 10
992.1580333841
 20
3206.0095980869
 30
0.0
 40
4.500000000000909
100
AcDbArc
 50
90.0
 51
270.0
  0
LINE
  5
27E
330
1F
100
AcDbEntity
  8
0
  6
Continuous
 62
     7
370
    15
100
AcDbLine
 10
1023.1580613585
 20
3174.5095979236
 30
0.0
 11
992.1580432387
 21
3174.5095979236
 31
0.0
  0
ARC
  5
27F
330
1F
100
AcDbEntity
  8
0
  6
Continuous
 62
     7
370
    15
100
AcDbCircle
 10
1023.1580333841
 20
3179.0095980869
 30
0.0
 40
4.500000000000909
100
AcDbArc
 50
270.0
 51
90.0
  0
LINE
  5
280
330
1F
100
AcDbEntity
  8
0
  6
Continuous
 62
     7
370
    15
100
AcDbLine
 10
992.1580432387
 20
3183.5096012615
 30
0.0
 11
1023.1580613585
 21
3183.5096012615
 31
0.0
  0
ARC
  5
281
330
1F
100
AcDbEntity
  8
0
  6
Continuous
 62
     7
370
    15
100
AcDbCircle
 10
992.1580333841
 20
3179.0095980869
 30
0.0
 40
4.500000000000455
100
AcDbArc
 50
90.0
 51
270.0
  0
LINE
  5
282
330
1F
100
AcDbEntity
  8
0
  6
Continuous
 62
     7
370
    15
100
AcDbLine
 10
1173.1580375166
 20
3201.509593036
 30
0.0
 11
1142.1580193968
 21
3201.509593036
 31
0.0
  0
ARC
  5
283
330
1F
100
AcDbEntity
  8
0
  6
Continuous
 62
     7
370
    15
100
AcDbCircle
 10
1173.1580333841
 20
3206.0095980869
 30
0.0
 40
4.500000000000455
100
AcDbArc
 50
270.0
 51
90.0
  0
LINE
  5
284
330
1F
100
AcDbEntity
  8
0
  6
Continuous
 62
     7
370
    15
100
AcDbLine
 10
1142.1580193968
 20
3210.5095963739
 30
0.0
 11
1173.1580375166
 21
3210.5095963739
 31
0.0
  0
ARC
  5
285
330
1F
100
AcDbEntity
  8
0
  6
Continuous
 62
     7
370
    15
100
AcDbCircle
 10
1142.1580333841
 20
3206.0095980869
 30
0.0
 40
4.500000000000909
100
AcDbArc
 50
90.0
 51
270.0
  0
LINE
  5
286
330
1F
100
AcDbEntity
  8
0
  6
Continuous
 62
     7
370
    15
100
AcDbLine
 10
1173.1580375166
 20
3174.5095979236
 30
0.0
 11
1142.1580193968
 21
3174.5095979236
 31
0.0
  0
ARC
  5
287
330
1F
100
AcDbEntity
  8
0
  6
Continuous
 62
     7
370
    15
100
AcDbCircle
 10
1173.1580333841
 20
3179.0095980869
 30
0.0
 40
4.500000000000909
100
AcDbArc
 50
270.0
 51
90.0
  0
LINE
  5
288
330
1F
100
AcDbEntity
  8
0
  6
Continuous
 62
     7
370
    15
100
AcDbLine
 10
1142.1580193968
 20
3183.5096012615
 30
0.0
 11
1173.1580375166
 21
3183.5096012615
 31
0.0
  0
ARC
  5
289
330
1F
100
AcDbEntity
  8
0
  6
Continuous
 62
     7
370
    15
100
AcDbCircle
 10
1142.1580333841
 20
3179.0095980869
 30
0.0
 40
4.500000000000455
100
AcDbArc
 50
90.0
 51
270.0
  0
LINE
  5
28A
330
1F
100
AcDbEntity
  8
0
  6
Continuous
 62
     7
370
    15
100
AcDbLine
 10
1223.1579898329
 20
3201.509593036
 30
0.0
 11
1192.1580909224
 21
3201.509593036
 31
0.0
  0
ARC
  5
28B
330
1F
100
AcDbEntity
  8
0
  6
Continuous
 62
     7
370
    15
100
AcDbCircle
 10
1223.1580333841
 20
3206.0095980869
 30
0.0
 40
4.500000000000455
100
AcDbArc
 50
270.0
 51
90.0
  0
LINE
  5
28C
330
1F
100
AcDbEntity
  8
0
  6
Continuous
 62
     7
370
    15
100
AcDbLine
 10
1192.1580909224
 20
3210.5095963739
 30
0.0
 11
1223.1579898329
 21
3210.5095963739
 31
0.0
  0
ARC
  5
28D
330
1F
100
AcDbEntity
  8
0
  6
Continuous
 62
     7
370
    15
100
AcDbCircle
 10
1192.1580333841
 20
3206.0095980869
 30
0.0
 40
4.500000000000455
100
AcDbArc
 50
90.0
 51
270.0
  0
LINE
  5
28E
330
1F
100
AcDbEntity
  8
0
  6
Continuous
 62
     7
370
    15
100
AcDbLine
 10
1223.1579898329
 20
3174.5095979236
 30
0.0
 11
1192.1580909224
 21
3174.5095979236
 31
0.0
  0
ARC
  5
28F
330
1F
100
AcDbEntity
  8
0
  6
Continuous
 62
     7
370
    15
100
AcDbCircle
 10
1223.1580333841
 20
3179.0095980869
 30
0.0
 40
4.500000000000909
100
AcDbArc
 50
270.0
 51
90.0
  0
LINE
  5
290
330
1F
100
AcDbEntity
  8
0
  6
Continuous
 62
     7
370
    15
100
AcDbLine
 10
1192.1580909224
 20
3183.5096012615
 30
0.0
 11
1223.1579898329
 21
3183.5096012615
 31
0.0
  0
ARC
  5
291
330
1F
100
AcDbEntity
  8
0
  6
Continuous
 62
     7
370
    15
100
AcDbCircle
 10
1192.1580333841
 20
3179.0095980869
 30
0.0
 40
4.500000000000455
100
AcDbArc
 50
90.0
 51
270.0
  0
LINE
  5
292
330
1F
100
AcDbEntity
  8
0
  6
Continuous
 62
     7
370
    15
100
AcDbLine
 10
1273.1580613585
 20
3201.509593036
 30
0.0
 11
1242.1580432387
 21
3201.509593036
 31
0.0
  0
ARC
  5
293
330
1F
100
AcDbEntity
  8
0
  6
Continuous
 62
     7
370
    15
100
AcDbCircle
 10
1273.1580333841
 20
3206.0095980869
 30
0.0
 40
4.500000000000455
100
AcDbArc
 50
270.0
 51
90.0
  0
LINE
  5
294
330
1F
100
AcDbEntity
  8
0
  6
Continuous
 62
     7
370
    15
100
AcDbLine
 10
1242.1580432387
 20
3210.5095963739
 30
0.0
 11
1273.1580613585
 21
3210.5095963739
 31
0.0
  0
ARC
  5
295
330
1F
100
AcDbEntity
  8
0
  6
Continuous
 62
     7
370
    15
100
AcDbCircle
 10
1242.1580333841
 20
3206.0095980869
 30
0.0
 40
4.500000000001364
100
AcDbArc
 50
90.0
 51
270.0
  0
LINE
  5
296
330
1F
100
AcDbEntity
  8
0
  6
Continuous
 62
     7
370
    15
100
AcDbLine
 10
1323.1580136748
 20
3201.509593036
 30
0.0
 11
1292.1579955549
 21
3201.509593036
 31
0.0
  0
ARC
  5
297
330
1F
100
AcDbEntity
  8
0
  6
Continuous
 62
     7
370
    15
100
AcDbCircle
 10
1323.1580333841
 20
3206.0095980869
 30
0.0
 40
4.500000000000455
100
AcDbArc
 50
270.0
 51
90.0
  0
LINE
  5
298
330
1F
100
AcDbEntity
  8
0
  6
Continuous
 62
     7
370
    15
100
AcDbLine
 10
1292.1579955549
 20
3210.5095963739
 30
0.0
 11
1323.1580136748
 21
3210.5095963739
 31
0.0
  0
ARC
  5
299
330
1F
100
AcDbEntity
  8
0
  6
Continuous
 62
     7
370
    15
100
AcDbCircle
 10
1292.1580333841
 20
3206.0095980869
 30
0.0
 40
4.500000000000909
100
AcDbArc
 50
90.0
 51
270.0
  0
LINE
  5
29A
330
1F
100
AcDbEntity
  8
0
  6
Continuous
 62
     7
370
    15
100
AcDbLine
 10
1292.1579955549
 20
3183.5096012615
 30
0.0
 11
1323.1580136748
 21
3183.5096012615
 31
0.0
  0
ARC
  5
29B
330
1F
100
AcDbEntity
  8
0
  6
Continuous
 62
     7
370
    15
100
AcDbCircle
 10
1292.1580333841
 20
3179.0095980869
 30
0.0
 40
4.500000000000909
100
AcDbArc
 50
90.0
 51
270.0
  0
LINE
  5
29C
330
1F
100
AcDbEntity
  8
0
  6
Continuous
 62
     7
370
    15
100
AcDbLine
 10
1323.1580136748
 20
3174.5095979236
 30
0.0
 11
1292.1579955549
 21
3174.5095979236
 31
0.0
  0
ARC
  5
29D
330
1F
100
AcDbEntity
  8
0
  6
Continuous
 62
     7
370
    15
100
AcDbCircle
 10
1323.1580333841
 20
3179.0095980869
 30
0.0
 40
4.500000000000909
100
AcDbArc
 50
270.0
 51
90.0
  0
LINE
  5
29E
330
1F
100
AcDbEntity
  8
0
  6
Continuous
 62
     7
370
    15
100
AcDbLine
 10
1273.1580613585
 20
3174.5095979236
 30
0.0
 11
1242.1580432387
 21
3174.5095979236
 31
0.0
  0
ARC
  5
29F
330
1F
100
AcDbEntity
  8
0
  6
Continuous
 62
     7
370
    15
100
AcDbCircle
 10
1273.1580333841
 20
3179.0095980869
 30
0.0
 40
4.500000000000909
100
AcDbArc
 50
270.0
 51
90.0
  0
LINE
  5
2A0
330
1F
100
AcDbEntity
  8
0
  6
Continuous
 62
     7
370
    15
100
AcDbLine
 10
1242.1580432387
 20
3183.5096012615
 30
0.0
 11
1273.1580613585
 21
3183.5096012615
 31
0.0
  0
ARC
  5
2A1
330
1F
100
AcDbEntity
  8
0
  6
Continuous
 62
     7
370
    15
100
AcDbCircle
 10
1242.1580333841
 20
3179.0095980869
 30
0.0
 40
4.500000000000455
100
AcDbArc
 50
90.0
 51
270.0
  0
LINE
  5
2A2
330
1F
100
AcDbEntity
  8
0
  6
Continuous
 62
     7
370
    15
100
AcDbLine
 10
1073.1580136748
 20
3201.509593036
 30
0.0
 11
1042.1579955549
 21
3201.509593036
 31
0.0
  0
ARC
  5
2A3
330
1F
100
AcDbEntity
  8
0
  6
Continuous
 62
     7
370
    15
100
AcDbCircle
 10
1073.1580333841
 20
3206.0095980869
 30
0.0
 40
4.500000000000455
100
AcDbArc
 50
270.0
 51
90.0
  0
LINE
  5
2A4
330
1F
100
AcDbEntity
  8
0
  6
Continuous
 62
     7
370
    15
100
AcDbLine
 10
1042.1579955549
 20
3210.5095963739
 30
0.0
 11
1073.1580136748
 21
3210.5095963739
 31
0.0
  0
ARC
  5
2A5
330
1F
100
AcDbEntity
  8
0
  6
Continuous
 62
     7
370
    15
100
AcDbCircle
 10
1042.1580333841
 20
3206.0095980869
 30
0.0
 40
4.500000000000909
100
AcDbArc
 50
90.0
 51
270.0
  0
LINE
  5
2A6
330
1F
100
AcDbEntity
  8
0
  6
Continuous
 62
     7
370
    15
100
AcDbLine
 10
1123.1580852003
 20
3201.509593036
 30
0.0
 11
1092.1580670805
 21
3201.509593036
 31
0.0
  0
ARC
  5
2A7
330
1F
100
AcDbEntity
  8
0
  6
Continuous
 62
     7
370
    15
100
AcDbCircle
 10
1123.1580333841
 20
3206.0095980869
 30
0.0
 40
4.500000000000455
100
AcDbArc
 50
270.0
 51
90.0
  0
LINE
  5
2A8
330
1F
100
AcDbEntity
  8
0
  6
Continuous
 62
     7
370
    15
100
AcDbLine
 10
1092.1580670805
 20
3210.5095963739
 30
0.0
 11
1123.1580852003
 21
3210.5095963739
 31
0.0
  0
ARC
  5
2A9
330
1F
100
AcDbEntity
  8
0
  6
Continuous
 62
     7
370
    15
100
AcDbCircle
 10
1092.1580333841
 20
3206.0095980869
 30
0.0
 40
4.500000000000909
100
AcDbArc
 50
90.0
 51
270.0
  0
LINE
  5
2AA
330
1F
100
AcDbEntity
  8
0
  6
Continuous
 62
     7
370
    15
100
AcDbLine
 10
1092.1580670805
 20
3183.5096012615
 30
0.0
 11
1123.1580852003
 21
3183.5096012615
 31
0.0
  0
ARC
  5
2AB
330
1F
100
AcDbEntity
  8
0
  6
Continuous
 62
     7
370
    15
100
AcDbCircle
 10
1092.1580333841
 20
3179.0095980869
 30
0.0
 40
4.500000000000455
100
AcDbArc
 50
90.0
 51
270.0
  0
LINE
  5
2AC
330
1F
100
AcDbEntity
  8
0
  6
Continuous
 62
     7
370
    15
100
AcDbLine
 10
1123.1580852003
 20
3174.5095979236
 30
0.0
 11
1092.1580670805
 21
3174.5095979236
 31
0.0
  0
ARC
  5
2AD
330
1F
100
AcDbEntity
  8
0
  6
Continuous
 62
     7
370
    15
100
AcDbCircle
 10
1123.1580333841
 20
3179.0095980869
 30
0.0
 40
4.500000000000455
100
AcDbArc
 50
270.0
 51
90.0
  0
LINE
  5
2AE
330
1F
100
AcDbEntity
  8
0
  6
Continuous
 62
     7
370
    15
100
AcDbLine
 10
1073.1580136748
 20
3174.5095979236
 30
0.0
 11
1042.1579955549
 21
3174.5095979236
 31
0.0
  0
ARC
  5
2AF
330
1F
100
AcDbEntity
  8
0
  6
Continuous
 62
     7
370
    15
100
AcDbCircle
 10
1073.1580333841
 20
3179.0095980869
 30
0.0
 40
4.500000000000909
100
AcDbArc
 50
270.0
 51
90.0
  0
LINE
  5
2B0
330
1F
100
AcDbEntity
  8
0
  6
Continuous
 62
     7
370
    15
100
AcDbLine
 10
1042.1579955549
 20
3183.5096012615
 30
0.0
 11
1073.1580136748
 21
3183.5096012615
 31
0.0
  0
ARC
  5
2B1
330
1F
100
AcDbEntity
  8
0
  6
Continuous
 62
     7
370
    15
100
AcDbCircle
 10
1042.1580333841
 20
3179.0095980869
 30
0.0
 40
4.500000000000455
100
AcDbArc
 50
90.0
 51
270.0
  0
LINE
  5
2B2
330
1F
100
AcDbEntity
  8
0
  6
Continuous
 62
     7
370
    15
100
AcDbLine
 10
1292.1579955549
 20
3763.5095845722
 30
0.0
 11
1323.1580136748
 21
3763.5095845722
 31
0.0
  0
ARC
  5
2B3
330
1F
100
AcDbEntity
  8
0
  6
Continuous
 62
     7
370
    15
100
AcDbCircle
 10
1292.158033384
 20
3759.0095980869
 30
0.0
 40
4.500000000000455
100
AcDbArc
 50
90.0
 51
270.0
  0
LINE
  5
2B4
330
1F
100
AcDbEntity
  8
0
  6
Continuous
 62
     7
370
    15
100
AcDbLine
 10
1323.1580136748
 20
3754.5096110366
 30
0.0
 11
1292.1579955549
 21
3754.5096110366
 31
0.0
  0
ARC
  5
2B5
330
1F
100
AcDbEntity
  8
0
  6
Continuous
 62
     7
370
    15
100
AcDbCircle
 10
1323.158033384
 20
3759.0095980869
 30
0.0
 40
4.500000000000455
100
AcDbArc
 50
270.0
 51
90.0
  0
LINE
  5
2B6
330
1F
100
AcDbEntity
  8
0
  6
Continuous
 62
     7
370
    15
100
AcDbLine
 10
1292.1579955549
 20
3790.5095945857
 30
0.0
 11
1323.1580136748
 21
3790.5095945857
 31
0.0
  0
ARC
  5
2B7
330
1F
100
AcDbEntity
  8
0
  6
Continuous
 62
     7
370
    15
100
AcDbCircle
 10
1292.158033384
 20
3786.0095980869
 30
0.0
 40
4.500000000000455
100
AcDbArc
 50
90.0
 51
270.0
  0
LINE
  5
2B8
330
1F
100
AcDbEntity
  8
0
  6
Continuous
 62
     7
370
    15
100
AcDbLine
 10
1323.1580136748
 20
3781.5095912479
 30
0.0
 11
1292.1579955549
 21
3781.5095912479
 31
0.0
  0
ARC
  5
2B9
330
1F
100
AcDbEntity
  8
0
  6
Continuous
 62
     7
370
    15
100
AcDbCircle
 10
1323.158033384
 20
3786.0095980869
 30
0.0
 40
4.500000000000455
100
AcDbArc
 50
270.0
 51
90.0
  0
LINE
  5
2BA
330
1F
100
AcDbEntity
  8
0
  6
Continuous
 62
     7
370
    15
100
AcDbLine
 10
1242.1580432387
 20
3763.5095845722
 30
0.0
 11
1273.1580613585
 21
3763.5095845722
 31
0.0
  0
ARC
  5
2BB
330
1F
100
AcDbEntity
  8
0
  6
Continuous
 62
     7
370
    15
100
AcDbCircle
 10
1242.158033384
 20
3759.0095980869
 30
0.0
 40
4.500000000000455
100
AcDbArc
 50
90.0
 51
270.0
  0
LINE
  5
2BC
330
1F
100
AcDbEntity
  8
0
  6
Continuous
 62
     7
370
    15
100
AcDbLine
 10
1273.1580613585
 20
3754.5096110366
 30
0.0
 11
1242.1580432387
 21
3754.5096110366
 31
0.0
  0
ARC
  5
2BD
330
1F
100
AcDbEntity
  8
0
  6
Continuous
 62
     7
370
    15
100
AcDbCircle
 10
1273.158033384
 20
3759.0095980869
 30
0.0
 40
4.500000000000455
100
AcDbArc
 50
270.0
 51
90.0
  0
LINE
  5
2BE
330
1F
100
AcDbEntity
  8
0
  6
Continuous
 62
     7
370
    15
100
AcDbLine
 10
1242.1580432387
 20
3790.5095945857
 30
0.0
 11
1273.1580613585
 21
3790.5095945857
 31
0.0
  0
ARC
  5
2BF
330
1F
100
AcDbEntity
  8
0
  6
Continuous
 62
     7
370
    15
100
AcDbCircle
 10
1242.158033384
 20
3786.0095980869
 30
0.0
 40
4.500000000000455
100
AcDbArc
 50
90.0
 51
270.0
  0
LINE
  5
2C0
330
1F
100
AcDbEntity
  8
0
  6
Continuous
 62
     7
370
    15
100
AcDbLine
 10
1273.1580613585
 20
3781.5095912479
 30
0.0
 11
1242.1580432387
 21
3781.5095912479
 31
0.0
  0
ARC
  5
2C1
330
1F
100
AcDbEntity
  8
0
  6
Continuous
 62
     7
370
    15
100
AcDbCircle
 10
1273.158033384
 20
3786.0095980869
 30
0.0
 40
4.500000000000909
100
AcDbArc
 50
270.0
 51
90.0
  0
LINE
  5
2C2
330
1F
100
AcDbEntity
  8
0
  6
Continuous
 62
     7
370
    15
100
AcDbLine
 10
1192.1580909224
 20
3763.5095845722
 30
0.0
 11
1223.1579898329
 21
3763.5095845722
 31
0.0
  0
ARC
  5
2C3
330
1F
100
AcDbEntity
  8
0
  6
Continuous
 62
     7
370
    15
100
AcDbCircle
 10
1192.158033384
 20
3759.0095980869
 30
0.0
 40
4.500000000000455
100
AcDbArc
 50
90.0
 51
270.0
  0
LINE
  5
2C4
330
1F
100
AcDbEntity
  8
0
  6
Continuous
 62
     7
370
    15
100
AcDbLine
 10
1223.1579898329
 20
3754.5096110366
 30
0.0
 11
1192.1580909224
 21
3754.5096110366
 31
0.0
  0
ARC
  5
2C5
330
1F
100
AcDbEntity
  8
0
  6
Continuous
 62
     7
370
    15
100
AcDbCircle
 10
1223.158033384
 20
3759.0095980869
 30
0.0
 40
4.500000000000455
100
AcDbArc
 50
270.0
 51
90.0
  0
LINE
  5
2C6
330
1F
100
AcDbEntity
  8
0
  6
Continuous
 62
     7
370
    15
100
AcDbLine
 10
1192.1580909224
 20
3790.5095945857
 30
0.0
 11
1223.1579898329
 21
3790.5095945857
 31
0.0
  0
ARC
  5
2C7
330
1F
100
AcDbEntity
  8
0
  6
Continuous
 62
     7
370
    15
100
AcDbCircle
 10
1192.158033384
 20
3786.0095980869
 30
0.0
 40
4.500000000000455
100
AcDbArc
 50
90.0
 51
270.0
  0
LINE
  5
2C8
330
1F
100
AcDbEntity
  8
0
  6
Continuous
 62
     7
370
    15
100
AcDbLine
 10
1223.1579898329
 20
3781.5095912479
 30
0.0
 11
1192.1580909224
 21
3781.5095912479
 31
0.0
  0
ARC
  5
2C9
330
1F
100
AcDbEntity
  8
0
  6
Continuous
 62
     7
370
    15
100
AcDbCircle
 10
1223.158033384
 20
3786.0095980869
 30
0.0
 40
4.500000000000909
100
AcDbArc
 50
270.0
 51
90.0
  0
LINE
  5
2CA
330
1F
100
AcDbEntity
  8
0
  6
Continuous
 62
     7
370
    15
100
AcDbLine
 10
1142.1580193968
 20
3763.5095845722
 30
0.0
 11
1173.1580375166
 21
3763.5095845722
 31
0.0
  0
ARC
  5
2CB
330
1F
100
AcDbEntity
  8
0
  6
Continuous
 62
     7
370
    15
100
AcDbCircle
 10
1142.158033384
 20
3759.0095980869
 30
0.0
 40
4.5
100
AcDbArc
 50
90.0
 51
270.0
  0
LINE
  5
2CC
330
1F
100
AcDbEntity
  8
0
  6
Continuous
 62
     7
370
    15
100
AcDbLine
 10
1173.1580375166
 20
3754.5096110366
 30
0.0
 11
1142.1580193968
 21
3754.5096110366
 31
0.0
  0
ARC
  5
2CD
330
1F
100
AcDbEntity
  8
0
  6
Continuous
 62
     7
370
    15
100
AcDbCircle
 10
1173.158033384
 20
3759.0095980869
 30
0.0
 40
4.5
100
AcDbArc
 50
270.0
 51
90.0
  0
LINE
  5
2CE
330
1F
100
AcDbEntity
  8
0
  6
Continuous
 62
     7
370
    15
100
AcDbLine
 10
1142.1580193968
 20
3790.5095945857
 30
0.0
 11
1173.1580375166
 21
3790.5095945857
 31
0.0
  0
ARC
  5
2CF
330
1F
100
AcDbEntity
  8
0
  6
Continuous
 62
     7
370
    15
100
AcDbCircle
 10
1142.158033384
 20
3786.0095980869
 30
0.0
 40
4.500000000000455
100
AcDbArc
 50
90.0
 51
270.0
  0
LINE
  5
2D0
330
1F
100
AcDbEntity
  8
0
  6
Continuous
 62
     7
370
    15
100
AcDbLine
 10
1173.1580375166
 20
3781.5095912479
 30
0.0
 11
1142.1580193968
 21
3781.5095912479
 31
0.0
  0
ARC
  5
2D1
330
1F
100
AcDbEntity
  8
0
  6
Continuous
 62
     7
370
    15
100
AcDbCircle
 10
1173.158033384
 20
3786.0095980869
 30
0.0
 40
4.500000000000455
100
AcDbArc
 50
270.0
 51
90.0
  0
LINE
  5
2D2
330
1F
100
AcDbEntity
  8
0
  6
Continuous
 62
     7
370
    15
100
AcDbLine
 10
992.1580432387
 20
3763.5095845722
 30
0.0
 11
1023.1580613585
 21
3763.5095845722
 31
0.0
  0
ARC
  5
2D3
330
1F
100
AcDbEntity
  8
0
  6
Continuous
 62
     7
370
    15
100
AcDbCircle
 10
992.158033384
 20
3759.0095980869
 30
0.0
 40
4.500000000000455
100
AcDbArc
 50
90.0
 51
270.0
  0
LINE
  5
2D4
330
1F
100
AcDbEntity
  8
0
  6
Continuous
 62
     7
370
    15
100
AcDbLine
 10
1023.1580613585
 20
3754.5096110366
 30
0.0
 11
992.1580432387
 21
3754.5096110366
 31
0.0
  0
ARC
  5
2D5
330
1F
100
AcDbEntity
  8
0
  6
Continuous
 62
     7
370
    15
100
AcDbCircle
 10
1023.158033384
 20
3759.0095980869
 30
0.0
 40
4.500000000000909
100
AcDbArc
 50
270.0
 51
90.0
  0
LINE
  5
2D6
330
1F
100
AcDbEntity
  8
0
  6
Continuous
 62
     7
370
    15
100
AcDbLine
 10
992.1580432387
 20
3790.5095945857
 30
0.0
 11
1023.1580613585
 21
3790.5095945857
 31
0.0
  0
ARC
  5
2D7
330
1F
100
AcDbEntity
  8
0
  6
Continuous
 62
     7
370
    15
100
AcDbCircle
 10
992.158033384
 20
3786.0095980869
 30
0.0
 40
4.500000000000455
100
AcDbArc
 50
90.0
 51
270.0
  0
LINE
  5
2D8
330
1F
100
AcDbEntity
  8
0
  6
Continuous
 62
     7
370
    15
100
AcDbLine
 10
1023.1580613585
 20
3781.5095912479
 30
0.0
 11
992.1580432387
 21
3781.5095912479
 31
0.0
  0
ARC
  5
2D9
330
1F
100
AcDbEntity
  8
0
  6
Continuous
 62
     7
370
    15
100
AcDbCircle
 10
1023.158033384
 20
3786.0095980869
 30
0.0
 40
4.500000000000909
100
AcDbArc
 50
270.0
 51
90.0
  0
LINE
  5
2DA
330
1F
100
AcDbEntity
  8
0
  6
Continuous
 62
     7
370
    15
100
AcDbLine
 10
942.1580313177
 20
3763.5095845722
 30
0.0
 11
973.1580494375
 21
3763.5095845722
 31
0.0
  0
ARC
  5
2DB
330
1F
100
AcDbEntity
  8
0
  6
Continuous
 62
     7
370
    15
100
AcDbCircle
 10
942.158033384
 20
3759.0095980869
 30
0.0
 40
4.500000000000455
100
AcDbArc
 50
90.0
 51
270.0
  0
LINE
  5
2DC
330
1F
100
AcDbEntity
  8
0
  6
Continuous
 62
     7
370
    15
100
AcDbLine
 10
973.1580494375
 20
3754.5096110366
 30
0.0
 11
942.1580313177
 21
3754.5096110366
 31
0.0
  0
ARC
  5
2DD
330
1F
100
AcDbEntity
  8
0
  6
Continuous
 62
     7
370
    15
100
AcDbCircle
 10
973.158033384
 20
3759.0095980869
 30
0.0
 40
4.500000000000909
100
AcDbArc
 50
270.0
 51
90.0
  0
LINE
  5
2DE
330
1F
100
AcDbEntity
  8
0
  6
Continuous
 62
     7
370
    15
100
AcDbLine
 10
942.1580313177
 20
3790.5095945857
 30
0.0
 11
973.1580494375
 21
3790.5095945857
 31
0.0
  0
ARC
  5
2DF
330
1F
100
AcDbEntity
  8
0
  6
Continuous
 62
     7
370
    15
100
AcDbCircle
 10
942.158033384
 20
3786.0095980869
 30
0.0
 40
4.500000000000455
100
AcDbArc
 50
90.0
 51
270.0
  0
LINE
  5
2E0
330
1F
100
AcDbEntity
  8
0
  6
Continuous
 62
     7
370
    15
100
AcDbLine
 10
973.1580494375
 20
3781.5095912479
 30
0.0
 11
942.1580313177
 21
3781.5095912479
 31
0.0
  0
ARC
  5
2E1
330
1F
100
AcDbEntity
  8
0
  6
Continuous
 62
     7
370
    15
100
AcDbCircle
 10
973.158033384
 20
3786.0095980869
 30
0.0
 40
4.500000000000909
100
AcDbArc
 50
270.0
 51
90.0
  0
LINE
  5
2E2
330
1F
100
AcDbEntity
  8
0
  6
Continuous
 62
     7
370
    15
100
AcDbLine
 10
892.1580193968
 20
3763.5095845722
 30
0.0
 11
923.1580375166
 21
3763.5095845722
 31
0.0
  0
ARC
  5
2E3
330
1F
100
AcDbEntity
  8
0
  6
Continuous
 62
     7
370
    15
100
AcDbCircle
 10
892.158033384
 20
3759.0095980869
 30
0.0
 40
4.500000000000455
100
AcDbArc
 50
90.0
 51
270.0
  0
LINE
  5
2E4
330
1F
100
AcDbEntity
  8
0
  6
Continuous
 62
     7
370
    15
100
AcDbLine
 10
923.1580375166
 20
3754.5096110366
 30
0.0
 11
892.1580193968
 21
3754.5096110366
 31
0.0
  0
ARC
  5
2E5
330
1F
100
AcDbEntity
  8
0
  6
Continuous
 62
     7
370
    15
100
AcDbCircle
 10
923.158033384
 20
3759.0095980869
 30
0.0
 40
4.500000000000909
100
AcDbArc
 50
270.0
 51
90.0
  0
LINE
  5
2E6
330
1F
100
AcDbEntity
  8
0
  6
Continuous
 62
     7
370
    15
100
AcDbLine
 10
842.1580074759
 20
3763.5095845722
 30
0.0
 11
873.1580255957
 21
3763.5095845722
 31
0.0
  0
ARC
  5
2E7
330
1F
100
AcDbEntity
  8
0
  6
Continuous
 62
     7
370
    15
100
AcDbCircle
 10
842.158033384
 20
3759.0095980869
 30
0.0
 40
4.500000000000455
100
AcDbArc
 50
90.0
 51
270.0
  0
LINE
  5
2E8
330
1F
100
AcDbEntity
  8
0
  6
Continuous
 62
     7
370
    15
100
AcDbLine
 10
873.1580255957
 20
3754.5096110366
 30
0.0
 11
842.1580074759
 21
3754.5096110366
 31
0.0
  0
ARC
  5
2E9
330
1F
100
AcDbEntity
  8
0
  6
Continuous
 62
     7
370
    15
100
AcDbCircle
 10
873.158033384
 20
3759.0095980869
 30
0.0
 40
4.500000000000455
100
AcDbArc
 50
270.0
 51
90.0
  0
LINE
  5
2EA
330
1F
100
AcDbEntity
  8
0
  6
Continuous
 62
     7
370
    15
100
AcDbLine
 10
873.1580255957
 20
3781.5095912479
 30
0.0
 11
842.1580074759
 21
3781.5095912479
 31
0.0
  0
ARC
  5
2EB
330
1F
100
AcDbEntity
  8
0
  6
Continuous
 62
     7
370
    15
100
AcDbCircle
 10
873.158033384
 20
3786.0095980869
 30
0.0
 40
4.500000000000909
100
AcDbArc
 50
270.0
 51
90.0
  0
LINE
  5
2EC
330
1F
100
AcDbEntity
  8
0
  6
Continuous
 62
     7
370
    15
100
AcDbLine
 10
842.1580074759
 20
3790.5095945857
 30
0.0
 11
873.1580255957
 21
3790.5095945857
 31
0.0
  0
ARC
  5
2ED
330
1F
100
AcDbEntity
  8
0
  6
Continuous
 62
     7
370
    15
100
AcDbCircle
 10
842.158033384
 20
3786.0095980869
 30
0.0
 40
4.500000000000455
100
AcDbArc
 50
90.0
 51
270.0
  0
LINE
  5
2EE
330
1F
100
AcDbEntity
  8
0
  6
Continuous
 62
     7
370
    15
100
AcDbLine
 10
892.1580193968
 20
3790.5095945857
 30
0.0
 11
923.1580375166
 21
3790.5095945857
 31
0.0
  0
ARC
  5
2EF
330
1F
100
AcDbEntity
  8
0
  6
Continuous
 62
     7
370
    15
100
AcDbCircle
 10
892.158033384
 20
3786.0095980869
 30
0.0
 40
4.500000000000455
100
AcDbArc
 50
90.0
 51
270.0
  0
LINE
  5
2F0
330
1F
100
AcDbEntity
  8
0
  6
Continuous
 62
     7
370
    15
100
AcDbLine
 10
923.1580375166
 20
3781.5095912479
 30
0.0
 11
892.1580193968
 21
3781.5095912479
 31
0.0
  0
ARC
  5
2F1
330
1F
100
AcDbEntity
  8
0
  6
Continuous
 62
     7
370
    15
100
AcDbCircle
 10
923.158033384
 20
3786.0095980869
 30
0.0
 40
4.500000000000455
100
AcDbArc
 50
270.0
 51
90.0
  0
LINE
  5
2F2
330
1F
100
AcDbEntity
  8
0
  6
Continuous
 62
     7
370
    15
100
AcDbLine
 10
1092.1580670805
 20
3763.5095845722
 30
0.0
 11
1123.1580852003
 21
3763.5095845722
 31
0.0
  0
ARC
  5
2F3
330
1F
100
AcDbEntity
  8
0
  6
Continuous
 62
     7
370
    15
100
AcDbCircle
 10
1092.158033384
 20
3759.0095980869
 30
0.0
 40
4.500000000000455
100
AcDbArc
 50
90.0
 51
270.0
  0
LINE
  5
2F4
330
1F
100
AcDbEntity
  8
0
  6
Continuous
 62
     7
370
    15
100
AcDbLine
 10
1123.1580852003
 20
3754.5096110366
 30
0.0
 11
1092.1580670805
 21
3754.5096110366
 31
0.0
  0
ARC
  5
2F5
330
1F
100
AcDbEntity
  8
0
  6
Continuous
 62
     7
370
    15
100
AcDbCircle
 10
1123.158033384
 20
3759.0095980869
 30
0.0
 40
4.500000000000455
100
AcDbArc
 50
270.0
 51
90.0
  0
LINE
  5
2F6
330
1F
100
AcDbEntity
  8
0
  6
Continuous
 62
     7
370
    15
100
AcDbLine
 10
1042.1579955549
 20
3763.5095845722
 30
0.0
 11
1073.1580136748
 21
3763.5095845722
 31
0.0
  0
ARC
  5
2F7
330
1F
100
AcDbEntity
  8
0
  6
Continuous
 62
     7
370
    15
100
AcDbCircle
 10
1042.158033384
 20
3759.0095980869
 30
0.0
 40
4.500000000000455
100
AcDbArc
 50
90.0
 51
270.0
  0
LINE
  5
2F8
330
1F
100
AcDbEntity
  8
0
  6
Continuous
 62
     7
370
    15
100
AcDbLine
 10
1073.1580136748
 20
3754.5096110366
 30
0.0
 11
1042.1579955549
 21
3754.5096110366
 31
0.0
  0
ARC
  5
2F9
330
1F
100
AcDbEntity
  8
0
  6
Continuous
 62
     7
370
    15
100
AcDbCircle
 10
1073.158033384
 20
3759.0095980869
 30
0.0
 40
4.500000000000455
100
AcDbArc
 50
270.0
 51
90.0
  0
LINE
  5
2FA
330
1F
100
AcDbEntity
  8
0
  6
Continuous
 62
     7
370
    15
100
AcDbLine
 10
1073.1580136748
 20
3781.5095912479
 30
0.0
 11
1042.1579955549
 21
3781.5095912479
 31
0.0
  0
ARC
  5
2FB
330
1F
100
AcDbEntity
  8
0
  6
Continuous
 62
     7
370
    15
100
AcDbCircle
 10
1073.158033384
 20
3786.0095980869
 30
0.0
 40
4.500000000000909
100
AcDbArc
 50
270.0
 51
90.0
  0
LINE
  5
2FC
330
1F
100
AcDbEntity
  8
0
  6
Continuous
 62
     7
370
    15
100
AcDbLine
 10
1042.1579955549
 20
3790.5095945857
 30
0.0
 11
1073.1580136748
 21
3790.5095945857
 31
0.0
  0
ARC
  5
2FD
330
1F
100
AcDbEntity
  8
0
  6
Continuous
 62
     7
370
    15
100
AcDbCircle
 10
1042.158033384
 20
3786.0095980869
 30
0.0
 40
4.500000000000455
100
AcDbArc
 50
90.0
 51
270.0
  0
LINE
  5
2FE
330
1F
100
AcDbEntity
  8
0
  6
Continuous
 62
     7
370
    15
100
AcDbLine
 10
1092.1580670805
 20
3790.5095945857
 30
0.0
 11
1123.1580852003
 21
3790.5095945857
 31
0.0
  0
ARC
  5
2FF
330
1F
100
AcDbEntity
  8
0
  6
Continuous
 62
     7
370
    15
100
AcDbCircle
 10
1092.158033384
 20
3786.0095980869
 30
0.0
 40
4.500000000000455
100
AcDbArc
 50
90.0
 51
270.0
  0
LINE
  5
300
330
1F
100
AcDbEntity
  8
0
  6
Continuous
 62
     7
370
    15
100
AcDbLine
 10
1123.1580852003
 20
3781.5095912479
 30
0.0
 11
1092.1580670805
 21
3781.5095912479
 31
0.0
  0
ARC
  5
301
330
1F
100
AcDbEntity
  8
0
  6
Continuous
 62
     7
370
    15
100
AcDbCircle
 10
1123.158033384
 20
3786.0095980869
 30
0.0
 40
4.500000000000909
100
AcDbArc
 50
270.0
 51
90.0
  0
LINE
  5
302
330
1F
100
AcDbEntity
  8
0
  6
Continuous
 62
     7
370
    15
100
AcDbLine
 10
1324.6580241652
 20
4322.5095998309
 30
0.0
 11
1324.6580241652
 21
3802.5095891021
 31
0.0
  0
LINE
  5
303
330
1F
100
AcDbEntity
  8
0
  6
Continuous
 62
     7
370
    15
100
AcDbLine
 10
836.1580251188
 20
2817.0095812343
 30
0.0
 11
836.1580251188
 21
2848.0095993541
 31
0.0
  0
ARC
  5
304
330
1F
100
AcDbEntity
  8
0
  6
Continuous
 62
     7
370
    15
100
AcDbCircle
 10
840.658033384
 20
2817.0095980869
 30
0.0
 40
4.500000000000114
100
AcDbArc
 50
180.0
 51
0.0
  0
LINE
  5
305
330
1F
100
AcDbEntity
  8
0
  6
Continuous
 62
     7
370
    15
100
AcDbLine
 10
845.1580284567
 20
2848.0095993541
 30
0.0
 11
845.1580284567
 21
2817.0095812343
 31
0.0
  0
ARC
  5
306
330
1F
100
AcDbEntity
  8
0
  6
Continuous
 62
     7
370
    15
100
AcDbCircle
 10
840.658033384
 20
2848.0095980869
 30
0.0
 40
4.500000000000114
100
AcDbArc
 50
0.0
 51
180.0
  0
LINE
  5
307
330
1F
100
AcDbEntity
  8
0
  6
Continuous
 62
     7
370
    15
100
AcDbLine
 10
860.6580375166
 20
2642.5095926784
 30
0.0
 11
860.6580375166
 21
3162.5096034072
 31
0.0
  0
LINE
  5
308
330
1F
100
AcDbEntity
  8
0
  6
Continuous
 62
     7
370
    15
100
AcDbLine
 10
1324.6580241652
 20
3742.5095867179
 30
0.0
 11
1324.6580241652
 21
3222.5095908902
 31
0.0
  0
LINE
  5
309
330
1F
100
AcDbEntity
  8
0
  6
Continuous
 62
     7
370
    15
100
AcDbLine
 10
836.1580251188
 20
3467.0095983706
 30
0.0
 11
836.1580251188
 21
3498.009597864
 31
0.0
  0
ARC
  5
30A
330
1F
100
AcDbEntity
  8
0
  6
Continuous
 62
     7
370
    15
100
AcDbCircle
 10
840.658033384
 20
3467.0095980869
 30
0.0
 40
4.5
100
AcDbArc
 50
180.0
 51
0.0
  0
LINE
  5
30B
330
1F
100
AcDbEntity
  8
0
  6
Continuous
 62
     7
370
    15
100
AcDbLine
 10
845.1580284567
 20
3498.009597864
 30
0.0
 11
845.1580284567
 21
3467.0095983706
 31
0.0
  0
ARC
  5
30C
330
1F
100
AcDbEntity
  8
0
  6
Continuous
 62
     7
370
    15
100
AcDbCircle
 10
840.658033384
 20
3498.0095980869
 30
0.0
 40
4.500000000000114
100
AcDbArc
 50
0.0
 51
180.0
  0
LINE
  5
30D
330
1F
100
AcDbEntity
  8
0
  6
Continuous
 62
     7
370
    15
100
AcDbLine
 10
860.6580375166
 20
3222.5095908902
 30
0.0
 11
860.6580375166
 21
3742.5095867179
 31
0.0
  0
LINE
  5
30E
330
1F
100
AcDbEntity
  8
0
  6
Continuous
 62
     7
370
    15
100
AcDbLine
 10
1324.6580241652
 20
3162.5096034072
 30
0.0
 11
1324.6580241652
 21
2642.5095926784
 31
0.0
  0
LINE
  5
30F
330
1F
100
AcDbEntity
  8
0
  6
Continuous
 62
     7
370
    15
100
AcDbLine
 10
836.1580251188
 20
4117.0095931552
 30
0.0
 11
836.1580251188
 21
4148.009611275
 31
0.0
  0
ARC
  5
310
330
1F
100
AcDbEntity
  8
0
  6
Continuous
 62
     7
370
    15
100
AcDbCircle
 10
840.658033384
 20
4117.0095980869
 30
0.0
 40
4.5
100
AcDbArc
 50
180.0
 51
0.0
  0
LINE
  5
311
330
1F
100
AcDbEntity
  8
0
  6
Continuous
 62
     7
370
    15
100
AcDbLine
 10
845.1580284567
 20
4148.009611275
 30
0.0
 11
845.1580284567
 21
4117.0095931552
 31
0.0
  0
ARC
  5
312
330
1F
100
AcDbEntity
  8
0
  6
Continuous
 62
     7
370
    15
100
AcDbCircle
 10
840.658033384
 20
4148.0095980869
 30
0.0
 40
4.500000000000114
100
AcDbArc
 50
0.0
 51
180.0
  0
LINE
  5
313
330
1F
100
AcDbEntity
  8
0
  6
Continuous
 62
     7
370
    15
100
AcDbLine
 10
860.6580375166
 20
3802.5095891021
 30
0.0
 11
860.6580375166
 21
4322.5095998309
 31
0.0
  0
LINE
  5
314
330
1F
100
AcDbEntity
  8
0
  6
Continuous
 62
     7
370
    15
100
AcDbLine
 10
1324.6580241652
 20
4370.2522646449
 30
0.0
 11
1324.6580241652
 21
4361.7669474147
 31
0.0
  0
LINE
  5
315
330
1F
100
AcDbEntity
  8
0
  6
Continuous
 62
     7
370
    15
100
AcDbLine
 10
860.6580375166
 20
4334.5096241496
 30
0.0
 11
860.6580375166
 21
4343.5096274875
 31
0.0
  0
LINE
  5
316
330
1F
100
AcDbEntity
  8
0
  6
Continuous
 62
     7
370
    15
100
AcDbLine
 10
860.6580375166
 20
4361.5095745586
 30
0.0
 11
860.6580375166
 21
4370.5095778964
 31
0.0
  0
LINE
  5
317
330
1F
100
AcDbEntity
  8
0
  6
Continuous
 62
     7
370
    15
100
AcDbLine
 10
1324.6580241652
 20
4343.2522546314
 30
0.0
 11
1324.6580241652
 21
4334.7669374011
 31
0.0
  0
LINE
  5
318
330
1F
100
AcDbEntity
  8
0
  6
Continuous
 62
     7
370
    15
100
AcDbLine
 10
860.6580375166
 20
2594.5096146129
 30
0.0
 11
860.6580375166
 21
2603.5096179508
 31
0.0
  0
LINE
  5
319
330
1F
100
AcDbEntity
  8
0
  6
Continuous
 62
     7
370
    15
100
AcDbLine
 10
860.6580375166
 20
2621.5096246265
 30
0.0
 11
860.6580375166
 21
2630.5095683597
 31
0.0
  0
LINE
  5
31A
330
1F
100
AcDbEntity
  8
0
  6
Continuous
 62
     7
370
    15
100
AcDbLine
 10
1324.6580241652
 20
2603.2522450946
 30
0.0
 11
1324.6580241652
 21
2594.7669278644
 31
0.0
  0
LINE
  5
31B
330
1F
100
AcDbEntity
  8
0
  6
Continuous
 62
     7
370
    15
100
AcDbLine
 10
860.6580375166
 20
3174.5095979236
 30
0.0
 11
860.6580375166
 21
3183.5096012615
 31
0.0
  0
LINE
  5
31C
330
1F
100
AcDbEntity
  8
0
  6
Continuous
 62
     7
370
    15
100
AcDbLine
 10
860.6580375166
 20
3201.509593036
 30
0.0
 11
860.6580375166
 21
3210.5095963739
 31
0.0
  0
LINE
  5
31D
330
1F
100
AcDbEntity
  8
0
  6
Continuous
 62
     7
370
    15
100
AcDbLine
 10
1324.6580241652
 20
3183.2522433065
 30
0.0
 11
1324.6580241652
 21
3174.7669558786
 31
0.0
  0
LINE
  5
31E
330
1F
100
AcDbEntity
  8
0
  6
Continuous
 62
     7
370
    15
100
AcDbLine
 10
860.6580375166
 20
3754.5096110366
 30
0.0
 11
860.6580375166
 21
3763.5095845722
 31
0.0
  0
LINE
  5
31F
330
1F
100
AcDbEntity
  8
0
  6
Continuous
 62
     7
370
    15
100
AcDbLine
 10
860.6580375166
 20
3781.5095912479
 30
0.0
 11
860.6580375166
 21
3790.5095945857
 31
0.0
  0
LINE
  5
320
330
1F
100
AcDbEntity
  8
0
  6
Continuous
 62
     7
370
    15
100
AcDbLine
 10
1324.6580241652
 20
3763.2522415183
 30
0.0
 11
1324.6580241652
 21
3754.7669540904
 31
0.0
  0
LINE
  5
321
330
1F
100
AcDbEntity
  8
0
  6
Continuous
 62
     7
370
    15
100
AcDbLine
 10
1324.6580241652
 20
3210.2522384189
 30
0.0
 11
1324.6580241652
 21
3201.766950991
 31
0.0
  0
LINE
  5
322
330
1F
100
AcDbEntity
  8
0
  6
Continuous
 62
     7
370
    15
100
AcDbLine
 10
1324.6580241652
 20
2630.2522551082
 30
0.0
 11
1324.6580241652
 21
2621.766937878
 31
0.0
  0
LINE
  5
323
330
1F
100
AcDbEntity
  8
0
  6
Continuous
 62
     7
370
    15
100
AcDbLine
 10
1324.6580241652
 20
3790.2522515319
 30
0.0
 11
1324.6580241652
 21
3781.766964104
 31
0.0
  0
LINE
  5
324
330
1F
100
AcDbEntity
  8
0
  6
Continuous
 62
     7
370
    15
100
AcDbLine
 10
1372.6580022307
 20
4581.5096031688
 30
0.0
 11
1372.6580022307
 21
4582.5096498988
 31
0.0
  0
LINE
  5
325
330
1F
100
AcDbEntity
  8
0
  6
Continuous
 62
     7
370
    15
100
AcDbLine
 10
1372.6580022307
 20
4582.5096498988
 30
0.0
 11
1382.6579926939
 21
4582.5096498988
 31
0.0
  0
LINE
  5
326
330
1F
100
AcDbEntity
  8
0
  6
Continuous
 62
     7
370
    15
100
AcDbLine
 10
1382.6579926939
 20
4582.5096498988
 30
0.0
 11
1382.6579926939
 21
4382.5096022151
 31
0.0
  0
LINE
  5
327
330
1F
100
AcDbEntity
  8
0
  6
Continuous
 62
     7
370
    15
100
AcDbLine
 10
1357.6580165358
 20
4484.5096003078
 30
0.0
 11
1372.6580022307
 21
4581.5096031688
 31
0.0
  0
LINE
  5
328
330
1F
100
AcDbEntity
  8
0
  6
Continuous
 62
     7
370
    15
100
AcDbLine
 10
1382.6579926939
 20
4382.5096022151
 30
0.0
 11
1357.6580165358
 21
4382.5096022151
 31
0.0
  0
LINE
  5
329
330
1F
100
AcDbEntity
  8
0
  6
Continuous
 62
     7
370
    15
100
AcDbLine
 10
1357.6580165358
 20
4382.5096022151
 30
0.0
 11
1357.6580165358
 21
4484.5096003078
 31
0.0
  0
DIMENSION
  5
32A
330
1F
100
AcDbEntity
  8
0
  6
Continuous
 62
     7
370
     0
100
AcDbDimension
  2
_D_5
 10
1382.6580333841
 20
2500.5095730869
 30
0.0
 11
1074.7996863543
 21
2500.5095730869
 31
0.0
 70
   160
  1
<>
 71
     2
 42
-1.0
  3
SLDDIMSTYLE0
100
AcDbAlignedDimension
 13
782.658033384
 23
2582.5095980869
 33
0.0
 14
1382.6580333841
 24
2582.5095980869
 34
0.0
100
AcDbRotatedDimension
  0
ENDSEC
  0
SECTION
  2
OBJECTS
  0
DICTIONARY
  5
C
330
0
100
AcDbDictionary
281
     1
  3
ACAD_GROUP
350
D
  3
ACAD_LAYOUT
350
1A
  3
ACAD_MLINESTYLE
350
17
  3
ACAD_PLOTSETTINGS
350
19
  3
ACAD_PLOTSTYLENAME
350
E
  3
ACAD_SCALELIST
350
47
  0
DICTIONARY
  5
D
102
{ACAD_REACTORS
330
C
102
}
330
C
100
AcDbDictionary
281
     1
  0
DICTIONARY
  5
1A
102
{ACAD_REACTORS
330
C
102
}
330
C
100
AcDbDictionary
281
     1
  3
Layout1
350
1E
  3
Layout2
350
26
  3
Model
350
22
  0
DICTIONARY
  5
17
102
{ACAD_REACTORS
330
C
102
}
330
C
100
AcDbDictionary
281
     1
  3
Standard
350
18
  0
DICTIONARY
  5
19
102
{ACAD_REACTORS
330
C
102
}
330
C
100
AcDbDictionary
281
     1
  0
ACDBDICTIONARYWDFLT
  5
E
102
{ACAD_REACTORS
330
C
102
}
330
C
100
AcDbDictionary
281
     1
  3
Normal
350
F
100
AcDbDictionaryWithDefault
340
F
  0
DICTIONARY
  5
47
102
{ACAD_REACTORS
330
C
102
}
330
C
100
AcDbDictionary
281
     1
  3
A0
350
48
  3
A1
350
49
  3
A2
350
4A
  3
A3
350
4B
  3
A4
350
4C
  3
A5
350
4D
  3
A6
350
4E
  3
A7
350
4F
  3
A8
350
50
  3
A9
350
51
  3
B0
350
52
  3
B1
350
53
  3
B2
350
54
  3
B3
350
55
  3
B4
350
56
  3
B5
350
57
  3
B6
350
58
  3
B7
350
59
  3
B8
350
5A
  3
B9
350
5B
  3
C0
350
5C
  3
C1
350
5D
  3
C2
350
5E
  3
C3
350
5F
  3
C4
350
60
  3
C5
350
61
  3
C6
350
62
  3
C7
350
63
  3
C8
350
64
  3
C9
350
65
  3
D0
350
66
  3
D1
350
67
  3
D2
350
68
  0
LAYOUT
  5
1E
102
{ACAD_REACTORS
330
1A
102
}
330
1A
100
AcDbPlotSettings
  1

  2
none_device
  4

  6

 40
0.0
 41
0.0
 42
0.0
 43
0.0
 44
0.0
 45
0.0
 46
0.0
 47
0.0
 48
0.0
 49
0.0
140
0.0
141
0.0
142
1.0
143
1.0
 70
   688
 72
     1
 73
     0
 74
     5
  7

 75
    16
147
1.0
148
0.0
149
0.0
100
AcDbLayout
  1
Layout1
 70
     1
 71
     1
 10
0.0
 20
0.0
 11
420.0
 21
297.0
 12
0.0
 22
0.0
 32
0.0
 14
1.0000000000E+20
 24
1.0000000000E+20
 34
1.0000000000E+20
 15
-1.0000000000E+20
 25
-1.0000000000E+20
 35
-1.0000000000E+20
146
0.0
 13
0.0
 23
0.0
 33
0.0
 16
1.0
 26
0.0
 36
0.0
 17
0.0
 27
1.0
 37
0.0
 76
     0
330
1B
  0
LAYOUT
  5
26
102
{ACAD_REACTORS
330
1A
102
}
330
1A
100
AcDbPlotSettings
  1

  2
none_device
  4

  6

 40
0.0
 41
0.0
 42
0.0
 43
0.0
 44
0.0
 45
0.0
 46
0.0
 47
0.0
 48
0.0
 49
0.0
140
0.0
141
0.0
142
1.0
143
1.0
 70
   688
 72
     1
 73
     0
 74
     5
  7

 75
    16
147
1.0
148
0.0
149
0.0
100
AcDbLayout
  1
Layout2
 70
     1
 71
     2
 10
0.0
 20
0.0
 11
0.0
 21
0.0
 12
0.0
 22
0.0
 32
0.0
 14
0.0
 24
0.0
 34
0.0
 15
0.0
 25
0.0
 35
0.0
146
0.0
 13
0.0
 23
0.0
 33
0.0
 16
1.0
 26
0.0
 36
0.0
 17
0.0
 27
1.0
 37
0.0
 76
     0
330
23
  0
LAYOUT
  5
22
102
{ACAD_REACTORS
330
1A
102
}
330
1A
100
AcDbPlotSettings
  1

  2
none_device
  4
Letter_(8.50_x_11.00_Inches)
  6

 40
6.35
 41
6.35
 42
6.35000508
 43
6.35000508
 44
215.9
 45
279.4
 46
0.0
 47
0.0
 48
0.0
 49
0.0
140
0.0
141
0.0
142
1.0
143
1.0
 70
  1712
 72
     1
 73
     0
 74
     0
  7

 75
     0
147
1.0
148
0.0
149
0.0
100
AcDbLayout
  1
Model
 70
     1
 71
     0
 10
0.0
 20
0.0
 11
279.4
 21
215.9
 12
0.0
 22
0.0
 32
0.0
 14
0.0
 24
0.0
 34
0.0
 15
279.4
 25
215.9
 35
0.0
146
0.0
 13
0.0
 23
0.0
 33
0.0
 16
1.0
 26
0.0
 36
0.0
 17
0.0
 27
1.0
 37
0.0
 76
     0
330
1F
331
29
  0
MLINESTYLE
  5
18
102
{ACAD_REACTORS
330
17
102
}
330
17
100
AcDbMlineStyle
  2
Standard
 70
     0
  3

 62
   256
 51
90.0
 52
90.0
 71
     2
 49
0.5
 62
   256
  6
BYLAYER
 49
-0.5
 62
   256
  6
BYLAYER
  0
ACDBPLACEHOLDER
  5
F
102
{ACAD_REACTORS
330
E
102
}
330
E
  0
SCALE
  5
48
102
{ACAD_REACTORS
330
47
102
}
330
47
100
AcDbScale
 70
     0
300
1:1
140
1.0
141
1.0
290
     1
  0
SCALE
  5
49
102
{ACAD_REACTORS
330
47
102
}
330
47
100
AcDbScale
 70
     0
300
1:2
140
1.0
141
2.0
290
     0
  0
SCALE
  5
4A
102
{ACAD_REACTORS
330
47
102
}
330
47
100
AcDbScale
 70
     0
300
1:4
140
1.0
141
4.0
290
     0
  0
SCALE
  5
4B
102
{ACAD_REACTORS
330
47
102
}
330
47
100
AcDbScale
 70
     0
300
1:5
140
1.0
141
5.0
290
     0
  0
SCALE
  5
4C
102
{ACAD_REACTORS
330
47
102
}
330
47
100
AcDbScale
 70
     0
300
1:8
140
1.0
141
8.0
290
     0
  0
SCALE
  5
4D
102
{ACAD_REACTORS
330
47
102
}
330
47
100
AcDbScale
 70
     0
300
1:10
140
1.0
141
10.0
290
     0
  0
SCALE
  5
4E
102
{ACAD_REACTORS
330
47
102
}
330
47
100
AcDbScale
 70
     0
300
1:16
140
1.0
141
16.0
290
     0
  0
SCALE
  5
4F
102
{ACAD_REACTORS
330
47
102
}
330
47
100
AcDbScale
 70
     0
300
1:20
140
1.0
141
20.0
290
     0
  0
SCALE
  5
50
102
{ACAD_REACTORS
330
47
102
}
330
47
100
AcDbScale
 70
     0
300
1:30
140
1.0
141
30.0
290
     0
  0
SCALE
  5
51
102
{ACAD_REACTORS
330
47
102
}
330
47
100
AcDbScale
 70
     0
300
1:40
140
1.0
141
40.0
290
     0
  0
SCALE
  5
52
102
{ACAD_REACTORS
330
47
102
}
330
47
100
AcDbScale
 70
     0
300
1:50
140
1.0
141
50.0
290
     0
  0
SCALE
  5
53
102
{ACAD_REACTORS
330
47
102
}
330
47
100
AcDbScale
 70
     0
300
1:100
140
1.0
141
100.0
290
     0
  0
SCALE
  5
54
102
{ACAD_REACTORS
330
47
102
}
330
47
100
AcDbScale
 70
     0
300
2:1
140
2.0
141
1.0
290
     0
  0
SCALE
  5
55
102
{ACAD_REACTORS
330
47
102
}
330
47
100
AcDbScale
 70
     0
300
4:1
140
4.0
141
1.0
290
     0
  0
SCALE
  5
56
102
{ACAD_REACTORS
330
47
102
}
330
47
100
AcDbScale
 70
     0
300
8:1
140
8.0
141
1.0
290
     0
  0
SCALE
  5
57
102
{ACAD_REACTORS
330
47
102
}
330
47
100
AcDbScale
 70
     0
300
10:1
140
10.0
141
1.0
290
     0
  0
SCALE
  5
58
102
{ACAD_REACTORS
330
47
102
}
330
47
100
AcDbScale
 70
     0
300
100:1
140
100.0
141
1.0
290
     0
  0
SCALE
  5
59
102
{ACAD_REACTORS
330
47
102
}
330
47
100
AcDbScale
 70
     0
300
1/128" = 1'-0"
140
0.0078125
141
12.0
290
     0
  0
SCALE
  5
5A
102
{ACAD_REACTORS
330
47
102
}
330
47
100
AcDbScale
 70
     0
300
1/64" = 1'-0"
140
0.015625
141
12.0
290
     0
  0
SCALE
  5
5B
102
{ACAD_REACTORS
330
47
102
}
330
47
100
AcDbScale
 70
     0
300
1/32" = 1'-0"
140
0.03125
141
12.0
290
     0
  0
SCALE
  5
5C
102
{ACAD_REACTORS
330
47
102
}
330
47
100
AcDbScale
 70
     0
300
1/16" = 1'-0"
140
0.0625
141
12.0
290
     0
  0
SCALE
  5
5D
102
{ACAD_REACTORS
330
47
102
}
330
47
100
AcDbScale
 70
     0
300
3/32" = 1'-0"
140
0.09375
141
12.0
290
     0
  0
SCALE
  5
5E
102
{ACAD_REACTORS
330
47
102
}
330
47
100
AcDbScale
 70
     0
300
1/8" = 1'-0"
140
0.125
141
12.0
290
     0
  0
SCALE
  5
5F
102
{ACAD_REACTORS
330
47
102
}
330
47
100
AcDbScale
 70
     0
300
3/16" = 1'-0"
140
0.1875
141
12.0
290
     0
  0
SCALE
  5
60
102
{ACAD_REACTORS
330
47
102
}
330
47
100
AcDbScale
 70
     0
300
1/4" = 1'-0"
140
0.25
141
12.0
290
     0
  0
SCALE
  5
61
102
{ACAD_REACTORS
330
47
102
}
330
47
100
AcDbScale
 70
     0
300
3/8" = 1'-0"
140
0.375
141
12.0
290
     0
  0
SCALE
  5
62
102
{ACAD_REACTORS
330
47
102
}
330
47
100
AcDbScale
 70
     0
300
1/2" = 1'-0"
140
0.5
141
12.0
290
     0
  0
SCALE
  5
63
102
{ACAD_REACTORS
330
47
102
}
330
47
100
AcDbScale
 70
     0
300
3/4" = 1'-0"
140
0.75
141
12.0
290
     0
  0
SCALE
  5
64
102
{ACAD_REACTORS
330
47
102
}
330
47
100
AcDbScale
 70
     0
300
1" = 1'-0"
140
1.0
141
12.0
290
     0
  0
SCALE
  5
65
102
{ACAD_REACTORS
330
47
102
}
330
47
100
AcDbScale
 70
     0
300
1-1/2" = 1'-0"
140
1.5
141
12.0
290
     0
  0
SCALE
  5
66
102
{ACAD_REACTORS
330
47
102
}
330
47
100
AcDbScale
 70
     0
300
3" = 1'-0"
140
3.0
141
12.0
290
     0
  0
SCALE
  5
67
102
{ACAD_REACTORS
330
47
102
}
330
47
100
AcDbScale
 70
     0
300
6" = 1'-0"
140
6.0
141
12.0
290
     0
  0
SCALE
  5
68
102
{ACAD_REACTORS
330
47
102
}
330
47
100
AcDbScale
 70
     0
300
1'-0" = 1'-0"
140
12.0
141
12.0
290
     0
  0
ENDSEC
  0
EOF
